<?xml version="1.0" standalone="no"?>
<!DOCTYPE svg PUBLIC "-//W3C//DTD SVG 1.1//EN" "http://www.w3.org/Graphics/SVG/1.1/DTD/svg11.dtd" >
<svg xmlns="http://www.w3.org/2000/svg">
<metadata></metadata>
<defs>
<font id="equate_boldbold" horiz-adv-x="1181" >
<font-face units-per-em="2048" ascent="1638" descent="-410" />
<missing-glyph horiz-adv-x="512" />
<glyph horiz-adv-x="2048" />
<glyph horiz-adv-x="2048" />
<glyph unicode="&#xd;" horiz-adv-x="2048" />
<glyph unicode=" "  horiz-adv-x="512" />
<glyph unicode="&#x09;" horiz-adv-x="512" />
<glyph unicode="&#xa0;" horiz-adv-x="512" />
<glyph unicode="!" horiz-adv-x="526" d="M154 82q0 47 30.5 79t77.5 32t79 -32t32 -79t-32 -78t-79 -31t-77.5 31t-30.5 78zM176 1415q-4 29 0 42t29 30q10 6 25.5 12t32 12.5t30.5 12.5t22 12q23 14 36.5 14t8.5 -39q-2 -20 -8 -79.5t-13 -146.5t-16.5 -196.5t-16.5 -231.5t-13 -249t-10 -252q0 -29 -19.5 -31.5 t-21.5 31.5q-10 340 -26.5 600.5t-39.5 458.5z" />
<glyph unicode="&#x22;" horiz-adv-x="622" d="M63.5 1098.5q-8.5 17.5 18.5 27.5q74 29 108.5 82.5t34.5 102.5q0 14 -8 24.5t-22 10.5t-20.5 -2.5t-20.5 -2.5q-86 0 -86 89q0 39 28.5 66.5t71.5 27.5q63 0 97 -47t34 -117q0 -86 -56.5 -162t-154.5 -111q-16 -6 -24.5 11.5zM325.5 1098.5q-8.5 17.5 18.5 27.5 q74 29 108.5 82.5t34.5 102.5q0 14 -8 24.5t-22 10.5t-20.5 -2.5t-20.5 -2.5q-86 0 -86 89q0 39 28.5 66.5t71.5 27.5q63 0 97 -47t34 -117q0 -86 -56.5 -162t-154.5 -111q-16 -6 -24.5 11.5z" />
<glyph unicode="#" horiz-adv-x="1118" d="M33 793l33 118h303l43 162h-303l32 119h303l82 309h49l-81 -309h239l82 309h49l-82 -309h303l-32 -119h-303l-43 -162h303l-33 -118h-303l-103 -385h-49l103 385h-240l-102 -385h-50l103 385h-303zM418 911h239l43 162h-239z" />
<glyph unicode="$" horiz-adv-x="933" d="M82 266q2 18 3 39t1 43q0 27 -1 53.5t-3 55.5q0 23 16.5 22.5t20.5 -18.5q2 -18 11 -59.5t36 -84.5t78 -79.5t139 -51.5v570q-51 25 -100.5 54.5t-88 70.5t-62 94t-23.5 125q0 51 18 102t53 95t86 77t117 47v183h45v-174q16 0 35.5 1t40.5 1v172h47v-177q53 -6 106.5 -19 t106.5 -36q10 -6 8 -22q-2 -12 -3 -26.5t-1 -45.5t2 -60.5t2 -68.5q0 -23 -17.5 -22t-17.5 24q0 51 -15 91t-42 69.5t-59.5 48t-69.5 24.5v-546q49 -20 101.5 -48t97.5 -68t73.5 -96.5t28.5 -131.5q0 -78 -25.5 -136.5t-67.5 -99.5t-96.5 -67.5t-111.5 -38.5v-267h-47v258 q-20 -4 -39 -4t-37 -2v-252h-45v254q-106 6 -177 37t-100 49q-10 8 -17 18.5t-7 22.5zM195 1157q0 -90 55 -149.5t133 -100.5v473q-80 -23 -134 -80t-54 -143zM428 182q37 -2 76 0v525q-4 2 -8 3t-9 3q-16 6 -29.5 12t-29.5 10v-553zM428 887q18 -8 36.5 -16.5t39.5 -14.5 v535h-36.5t-39.5 -2v-502zM551 193q37 10 74 29.5t66.5 50t47 72.5t17.5 95q0 49 -17.5 87t-47 67t-66.5 51.5t-74 40.5v-493z" />
<glyph unicode="%" horiz-adv-x="2062" d="M102 1032q0 88 28 175t81 158t131 115t178 44q104 0 183 -44t132.5 -115t80 -158t26.5 -175q0 -100 -29.5 -191t-85 -159t-133.5 -107.5t-174 -39.5t-174 39.5t-132 107.5t-83 159t-29 191zM219 1014q0 -96 19.5 -178t58.5 -141.5t94 -93.5t129 -34t130.5 34t94 93.5 t58 141.5t20.5 178q0 90 -17.5 176t-54 151.5t-94 105.5t-137.5 40t-136 -40t-93 -105.5t-54.5 -151.5t-17.5 -176zM754 4q51 147 105 304t114.5 333t126 378t141.5 439q8 27 21.5 34t25.5 3t19.5 -16.5t1.5 -28.5q-74 -223 -138.5 -411.5t-123 -361.5t-115 -340 t-113.5 -345q-6 -18 -19.5 -25.5t-25.5 -4.5t-19 14.5t-1 27.5zM1120 483q0 88 28 175t82 157t132 114t178 44q104 0 182 -44t131.5 -114t80 -157t26.5 -175q0 -100 -29.5 -191t-85 -160t-132.5 -108.5t-173 -39.5q-98 0 -176 39.5t-132 108.5t-83 160t-29 191zM1239 465 q0 -96 19.5 -178t58.5 -141.5t94 -93.5t129 -34q72 0 128 34t95 93.5t58.5 141.5t19.5 178q0 90 -17.5 175t-54 151.5t-93 107.5t-136.5 41t-136 -41t-93 -107.5t-54.5 -151.5t-17.5 -175z" />
<glyph unicode="&#x26;" horiz-adv-x="1388" d="M41 434q0 94 43 169t114.5 130t165 88t193.5 45q-82 10 -150.5 39t-117.5 71t-77 95t-28 113q0 80 40 143.5t106.5 107.5t152.5 66.5t176 22.5q25 0 58 -4t65.5 -12.5t61 -19.5t47.5 -28q12 -12 8 -27.5t-8 -31.5q-12 -49 -19.5 -96.5t-11.5 -71.5q-2 -27 -20 -27 q-20 0 -21 29q0 41 -7 83t-26.5 75.5t-54.5 54t-90 20.5q-115 0 -183.5 -72.5t-68.5 -203.5q0 -143 63.5 -208.5t184.5 -65.5h43q25 -2 32 -11.5t1 -32.5l-15 -53q-6 -16 -24 -22q-23 -4 -47.5 -1t-46.5 3q-74 0 -130.5 -25.5t-94.5 -72t-57 -110t-19 -136.5 q0 -96 34.5 -171t92 -125t131 -76t151.5 -26q109 0 199 28t154.5 84t101.5 141t37 200q0 88 -38 136t-91 67q-92 -35 -165 -71t-124 -79t-79 -97t-26 -126q0 -25 -20 -25q-23 0 -23 27q0 51 -2 119.5t-8 134.5q25 70 87.5 118t141 85t162.5 68.5t155 69.5t116 86t45 118 q0 41 -23.5 64.5t-42.5 33.5q-14 8 -14 25q0 20 20 20q10 0 23 -6q41 -23 72.5 -74t31.5 -123q0 -104 -71.5 -192t-194.5 -143q12 -4 28.5 -5.5t33 -3.5t31 -5t24.5 -13q12 -12 19 -34.5t12.5 -47.5t7.5 -48.5t2 -39.5q0 -131 -46 -237.5t-127 -182.5t-192.5 -117 t-245.5 -41q-106 0 -215.5 29t-198.5 86t-146.5 144t-57.5 202z" />
<glyph unicode="'" horiz-adv-x="360" d="M63.5 1098.5q-8.5 17.5 18.5 27.5q74 29 108.5 82.5t34.5 102.5q0 14 -8 24.5t-22 10.5t-20.5 -2.5t-20.5 -2.5q-86 0 -86 89q0 39 28.5 66.5t71.5 27.5q63 0 97 -47t34 -117q0 -86 -56.5 -162t-154.5 -111q-16 -6 -24.5 11.5z" />
<glyph unicode="(" horiz-adv-x="788" d="M61 770q0 170 55.5 326.5t144.5 289t199.5 231.5t219.5 155q10 4 19.5 0.5t13.5 -10.5t2 -16t-15 -17q-111 -70 -190.5 -153t-130.5 -196.5t-74.5 -266t-23.5 -359.5q0 -154 26.5 -300.5t78.5 -272.5t132 -224t184 -154q18 -10 21.5 -21t-0.5 -19.5t-14.5 -11.5t-18.5 1 q-133 78 -247.5 186.5t-199.5 238.5t-133.5 280.5t-48.5 312.5z" />
<glyph unicode=")" horiz-adv-x="788" d="M64.5 -218q3.5 11 21.5 21q104 55 184 153.5t132.5 224.5t79 272.5t26.5 300.5q0 207 -23.5 359.5t-75 266t-131 196.5t-190.5 153q-12 8 -14 17t2 16t14 10.5t19 -0.5q109 -55 219 -154.5t199 -232t144.5 -289t55.5 -326.5q0 -162 -48 -312.5t-132 -280.5t-200 -238.5 t-249 -186.5q-8 -4 -18 -1t-14.5 11.5t-1 19.5z" />
<glyph unicode="*" horiz-adv-x="739" d="M41 1008q0 43 35 62.5t80 30.5t90 22.5t65 37.5q-20 25 -64 36t-89 22.5t-80 30t-35 59.5q0 29 18.5 46t44.5 17q39 0 68 -23.5t54.5 -53t52 -58.5t61.5 -39q10 37 5 67.5t-15 59.5t-21.5 59.5t-11.5 65.5q0 31 18.5 53.5t51.5 22.5t50 -22.5t17 -53.5q0 -33 -10 -63.5 t-20.5 -61.5t-15.5 -61.5t5 -65.5q33 8 59.5 37t52 59.5t54.5 54t66 23.5q29 0 49 -17.5t20 -45.5q0 -41 -34.5 -60.5t-80.5 -32t-91.5 -22.5t-67.5 -35q25 -25 71 -36t90 -21t78.5 -30.5t36.5 -63.5q0 -29 -20.5 -49.5t-48.5 -20.5q-37 0 -63.5 25.5t-52.5 58.5t-53.5 60.5 t-62.5 33.5q-10 -31 -5 -61.5t14.5 -61t19.5 -61.5t10 -62t-17.5 -54t-49.5 -23q-33 0 -51.5 23.5t-18.5 53.5q0 31 10 62t20.5 61.5t16.5 61t-4 61.5q-37 -4 -64.5 -32.5t-52 -60.5t-52.5 -58.5t-69 -26.5q-27 0 -45 20.5t-18 49.5z" />
<glyph unicode="+" horiz-adv-x="927" d="M82 768v78h340v332h80v-332h344v-78h-344v-354h-80v354h-340z" />
<glyph unicode="," horiz-adv-x="356" d="M51 -254q0 14 21 23q78 31 114.5 87t36.5 105q0 37 -33 37q-12 0 -18 -3t-25 -3q-41 0 -64.5 25.5t-23.5 66.5q0 37 28 69.5t81 32.5q63 0 100 -47t37 -125q0 -43 -16.5 -86t-46 -82t-70.5 -69.5t-92 -48.5q-12 -4 -20.5 2t-8.5 16z" />
<glyph unicode="-" horiz-adv-x="663" d="M65 583.5q-6 18.5 1.5 40t26 40t44.5 18.5h432q25 0 30 -18.5t-2 -40t-23.5 -40t-38.5 -18.5h-441q-23 0 -29 18.5z" />
<glyph unicode="." horiz-adv-x="321" d="M51 96q0 47 31 79t78 32t78.5 -32t31.5 -79t-31.5 -77.5t-78.5 -30.5t-78 30.5t-31 77.5z" />
<glyph unicode="/" horiz-adv-x="915" d="M102 -61q72 180 155 388t165 419.5t159.5 415.5t141.5 374h90q-76 -184 -157 -384t-159.5 -403.5t-155.5 -408.5t-144 -401h-95z" />
<glyph unicode="0" horiz-adv-x="1501" d="M61 756q0 137 46.5 274t134.5 246.5t216 178.5t294 69q168 0 297 -69t216 -178.5t131 -246.5t44 -274q0 -160 -49.5 -301.5t-138.5 -249t-215.5 -170t-284.5 -62.5q-160 0 -287 62.5t-217 170t-138.5 249t-48.5 301.5zM303 727q0 -358 119 -529t330 -171t330.5 171 t119.5 529q0 166 -27.5 303t-84 235.5t-141 151.5t-199.5 53q-113 0 -197 -53t-139.5 -151.5t-83 -235.5t-27.5 -303z" />
<glyph unicode="1" horiz-adv-x="716" d="M41 1339q0 14 9 20.5t34 16.5q80 29 157.5 64t145.5 73q12 8 28.5 16.5t33.5 8.5q31 0 30 -41v-1243q0 -66 9.5 -107t31 -63.5t54 -30.5t77.5 -8q12 0 18.5 -7t6.5 -15q0 -23 -23 -23q-70 4 -143.5 7t-138.5 3q-66 0 -143.5 -3t-143.5 -7q-14 0 -20.5 7t-6.5 16 q0 23 27 22q43 0 74.5 9t53 33t32 63.5t10.5 103.5v995q0 94 -72 94q-35 0 -64.5 -13t-49.5 -13q-27 0 -27 22z" />
<glyph unicode="2" horiz-adv-x="1099" d="M44.5 11.5q-5.5 13.5 10.5 27.5q14 10 27.5 20.5t29 23.5t33 30.5t39.5 44.5q90 102 185.5 224t173.5 249t127 254t49 237q0 70 -19.5 121t-54.5 84t-82 49.5t-102 16.5q-45 0 -93.5 -14.5t-89 -42t-70.5 -67.5t-38 -93q-4 -16 -10 -21.5t-17 -5.5q-10 0 -15 8t-3 19 q8 63 13 116.5t-7 116.5q-4 23 6 33t25 16q53 27 140 50.5t185 23.5q109 0 195 -31t147.5 -84t94 -123.5t32.5 -150.5q0 -117 -60 -233.5t-159.5 -238.5t-225.5 -253t-259 -277q74 -2 123 -3t97 -1t105.5 1t143.5 3q74 2 126 30t87 66.5t53.5 80.5t24.5 75q4 23 24 23 q29 0 21 -29q-20 -104 -33.5 -184t-15.5 -158q0 -25 -19.5 -36t-40.5 -9q-2 0 -33.5 1t-80 2t-107.5 3t-118.5 3t-112 2t-86.5 1q-156 0 -233 -4t-107 -8q-20 -2 -25.5 11.5z" />
<glyph unicode="3" horiz-adv-x="1081" d="M20 133q0 17 11 35q23 35 43 89t32 91q6 18 23 19q10 0 17.5 -7.5t3.5 -21.5q-4 -16 -8.5 -37.5t-6.5 -42.5q-2 -39 15.5 -80t55.5 -74.5t93 -55t129 -21.5q176 0 276.5 113.5t100.5 353.5q0 109 -25.5 179t-65.5 111t-88 58.5t-91 17.5q-63 0 -104.5 -18.5t-57.5 -40.5 q-10 -12 -22.5 -13.5t-20.5 6t-8 21.5t14 33q59 78 105 138.5t87 116.5t84 113.5t99 131.5q-43 2 -71 3t-52.5 1h-53h-71.5q-94 0 -155.5 -7.5t-95.5 -24.5t-45 -46t-9 -74q0 -27 -23 -26q-8 0 -15 8t-7 24q0 80 -3.5 134.5t-7.5 111.5q-2 25 5.5 37t35.5 10q57 -4 136 -7 t202 -3h96t82 1t85 3t106 4q20 0 27.5 -13.5t-5.5 -29.5q-31 -43 -76.5 -106.5t-100 -134t-111 -144.5t-105.5 -137q16 4 40 8t52 4q86 0 170 -30.5t150.5 -87t107.5 -136.5t41 -178q0 -150 -61 -253t-153.5 -166.5t-200 -91.5t-197.5 -28q-115 0 -204 30t-181 97 q-23 16 -23 33z" />
<glyph unicode="4" horiz-adv-x="1060" d="M0 408q0 18 12 38q70 121 166 264.5t201.5 290t209 285.5t189.5 252q14 20 35 21q25 0 25 -29v-1038q59 0 98 3t64.5 13t41 29.5t29.5 50.5q6 14 21 14q10 0 15 -9t1 -20q-23 -55 -36 -104t-17 -84q0 -20 -29 -20q-37 2 -83 2h-105v-111q0 -123 41 -167t137 -44 q14 0 20 -7t6 -18q0 -20 -22 -20q-33 0 -76 1t-87 2t-87 2t-76 1q-66 0 -122 -1t-111 -5q-27 0 -27 23t27 22q61 0 93 16.5t46 45t16 66.5t2 81v117q-33 2 -67.5 2h-69.5q-109 0 -218 -2t-214 -2q-49 0 -49 39zM123 489h134h113.5t115 1.5t135.5 1.5v727 q-143 -186 -269.5 -371.5t-228.5 -358.5z" />
<glyph unicode="5" horiz-adv-x="1079" d="M20 133q0 17 11 35q23 35 43 89t32 91q6 18 23 19q10 0 17.5 -7.5t3.5 -21.5q-4 -16 -8.5 -37.5t-6.5 -42.5q-2 -39 16.5 -80t56.5 -74.5t94 -55t130 -21.5q82 0 149.5 31.5t117 92t77 148.5t27.5 199q0 109 -29 187.5t-78 129.5t-111.5 75.5t-129.5 24.5 q-98 0 -184.5 -44t-129.5 -109q-12 -18 -30 -19q-10 0 -16.5 10.5t-2.5 28.5q14 51 27.5 137.5t25 183.5t18.5 193.5t9 165.5q4 35 33 35q47 -2 82 -3t68.5 -2t74.5 -1h100q78 0 131.5 1t90 2t63.5 2t53 3q27 2 34 -10t5 -35q-4 -53 -7 -112.5t-3 -135.5q0 -25 -20 -24 q-8 0 -15.5 6t-7.5 18q0 45 -10 73t-43 44t-90.5 22.5t-153.5 6.5h-321q-12 -127 -24.5 -240t-29.5 -221q23 18 56.5 37.5t78.5 37t100.5 29t123.5 11.5q98 0 188 -37t158.5 -101.5t109.5 -153.5t41 -194q0 -139 -56 -242.5t-145 -171t-196 -100.5t-209 -33q-115 0 -206 30 t-183 97q-23 16 -23 33z" />
<glyph unicode="6" horiz-adv-x="1146" d="M41 543q0 162 76 318.5t202.5 289.5t291.5 231.5t343 143.5q33 8 37 -15q2 -20 -18 -26q-162 -47 -293 -136t-223 -211t-142.5 -273.5t-50.5 -321.5q0 -115 18.5 -211t56.5 -165t94 -108t132 -39q92 0 155.5 40t102.5 105.5t55.5 148.5t16.5 169q0 98 -20.5 169 t-55.5 116t-81 66.5t-97 21.5q-96 0 -153.5 -38t-90.5 -95q-18 -33 -37 -25q-10 4 -12 17.5t12 29.5q29 35 47.5 91.5t32.5 101.5q37 20 91.5 40.5t146.5 20.5q94 0 173 -37.5t135 -103t88 -153t32 -185.5q0 -133 -49 -235.5t-127 -171t-173.5 -104.5t-189.5 -36 q-117 0 -214 40t-165.5 114t-107.5 179.5t-39 236.5z" />
<glyph unicode="7" horiz-adv-x="923" d="M61 1460q0 43 37 39q53 -4 146.5 -6t210.5 -2q113 0 217 2t180 6q39 4 27 -39q-39 -152 -99.5 -339t-131 -380.5t-149.5 -378t-159 -331.5q-10 -23 -26.5 -27t-45.5 -4h-145q-20 0 -28.5 14.5t5.5 34.5q205 293 387.5 621.5t311.5 689.5q-31 -4 -76 -6t-94 -3t-100.5 -1 h-98.5q-98 0 -160.5 -4.5t-98.5 -19.5t-48 -45t-12 -79q0 -23 -19 -22q-20 0 -20 24q0 90 -5.5 163t-5.5 93z" />
<glyph unicode="8" horiz-adv-x="1165" d="M41 379q0 74 31.5 137.5t82 114.5t116 90t132.5 63q-39 18 -88 49t-92 76t-72.5 106.5t-29.5 137.5q0 82 39 150.5t103.5 117.5t148.5 76t174 27q86 0 167 -20.5t144.5 -61.5t102 -104.5t38.5 -147.5q0 -74 -33.5 -129t-83 -96t-105.5 -68t-103 -43q68 -29 140.5 -71 t133 -97t99 -127t38.5 -162q0 -100 -48 -180t-126 -133t-174 -82t-192 -29q-106 0 -203.5 27t-173.5 79t-121 127t-45 173zM262 389q0 -74 20.5 -140.5t60.5 -115.5t100.5 -78.5t140.5 -29.5q70 0 128 20.5t101 61t67.5 103t24.5 146.5q0 78 -47 139.5t-113.5 109.5 t-139.5 84t-126 61q-119 -47 -168 -139.5t-49 -221.5zM313 1208q0 -61 28 -110t73 -89t100 -70t111 -52q104 35 160.5 114.5t56.5 182.5q0 68 -20.5 122t-55.5 91t-81 57.5t-99 20.5q-68 0 -119 -22.5t-85 -59.5t-51.5 -85t-17.5 -100z" />
<glyph unicode="9" horiz-adv-x="1153" d="M41 997q0 92 35 187.5t103.5 173.5t170 128t232.5 50q109 0 205 -45t167.5 -128t114.5 -201t43 -263q0 -150 -63.5 -291t-166 -265t-231.5 -228.5t-262 -180.5q-18 -12 -35 -12q-23 0 -22 21q0 16 16 24q125 72 226.5 166t174 211t111.5 256t39 299q0 291 -87 437.5 t-237 146.5q-82 0 -145 -36t-106 -94.5t-64.5 -135t-21.5 -158.5q0 -117 26.5 -197t67.5 -129t93 -71.5t101 -22.5q55 0 98.5 16.5t75 42t52 57t30.5 62.5q12 33 29 33q12 0 18.5 -9.5t-0.5 -25.5q-18 -47 -31.5 -100t-21.5 -125q-14 -14 -40.5 -31.5t-63.5 -33t-84 -26 t-105 -10.5q-92 0 -173 34t-140 99.5t-94 159.5t-35 215z" />
<glyph unicode=":" horiz-adv-x="335" d="M61 92q0 47 31 78t76 31t75.5 -31t30.5 -78q0 -45 -30.5 -74.5t-75.5 -29.5t-76 29.5t-31 74.5zM61 745q0 47 31 78t76 31t75.5 -30.5t30.5 -78.5q0 -45 -30.5 -74.5t-75.5 -29.5t-76 29.5t-31 74.5z" />
<glyph unicode=";" horiz-adv-x="376" d="M61 -254q0 14 21 23q78 31 114.5 87t36.5 105q0 37 -32 37q-12 0 -18.5 -3t-24.5 -3q-41 0 -64.5 25.5t-23.5 66.5q0 37 27.5 69.5t80.5 32.5q63 0 100 -47t37 -125q0 -43 -16 -86t-46 -82t-71 -69.5t-92 -48.5q-12 -4 -20.5 2t-8.5 16zM82 745q0 47 30.5 78t75.5 31 t76 -30.5t31 -78.5q0 -45 -31 -74.5t-76 -29.5t-75.5 29.5t-30.5 74.5z" />
<glyph unicode="&#x3c;" horiz-adv-x="497" d="M61 799q66 74 125.5 161t106.5 164q53 90 98 181q8 16 17.5 19t16.5 -1t10 -13.5t-1 -21.5q-29 -92 -85 -220t-122 -269q72 -147 121 -273.5t82 -212.5q4 -12 1 -21t-9 -13.5t-15.5 1t-17.5 19.5q-45 90 -98 180q-45 78 -104.5 163t-125.5 157z" />
<glyph unicode="=" horiz-adv-x="927" d="M82 657v80h764v-80h-764zM82 887v80h764v-80h-764z" />
<glyph unicode="&#x3e;" horiz-adv-x="497" d="M62.5 1309.5q3.5 9.5 10.5 13.5t16 1t17 -19q45 -90 99 -181q47 -78 106.5 -165t124.5 -160q-66 -72 -125 -157t-104 -163q-53 -90 -98 -180q-8 -14 -17.5 -19.5t-15.5 -1t-9.5 13.5t1.5 21q33 86 82 212t120 274q-66 141 -122 269t-85 220q-4 12 -0.5 21.5z" />
<glyph unicode="?" horiz-adv-x="1110" d="M158 1399q-8 29 8 41t33 22q45 23 118.5 42.5t182.5 19.5q90 0 173 -24.5t146.5 -71t100 -115t36.5 -154.5q0 -78 -37.5 -142.5t-95 -119.5t-125 -103.5t-125 -96.5t-95.5 -98t-38 -110q0 -43 15.5 -75.5t38.5 -63.5q8 -12 6 -21.5t-9.5 -13.5t-17.5 -2t-20 13 q-29 33 -47.5 74.5t-18.5 101.5q0 63 25.5 117.5t65.5 103.5t85 97t85 98.5t65.5 105.5t25.5 121q-2 104 -69.5 172.5t-204.5 68.5q-57 0 -103.5 -17t-80 -47t-54 -67.5t-26.5 -78.5q-2 -10 -8.5 -14.5t-14.5 -3.5t-13 6t-3 14q4 23 6 51t2 59t-3 60.5t-9 50.5zM371 88 q0 47 32.5 80t79.5 33t80 -33t33 -80t-33 -80t-80 -33q-53 0 -82.5 33t-29.5 80z" />
<glyph unicode="@" horiz-adv-x="1716" d="M29 717q0 188 74.5 336.5t198.5 253t283.5 160t332.5 55.5q164 0 297 -53.5t226 -141.5t144 -203.5t51 -242.5q0 -113 -32.5 -213.5t-89 -176t-133.5 -119.5t-167 -44q-43 0 -79.5 15t-65.5 41t-46 57.5t-22 64.5q-47 -78 -118.5 -129t-149.5 -51q-49 0 -95 17t-80 51 t-54.5 86t-20.5 122q0 104 45 202.5t113 173.5t148.5 121t152.5 46q66 0 112 -40t60 -87l39 104h150l-162 -479q-16 -47 -21.5 -77.5t-5.5 -55.5q0 -53 31 -86t90 -33q68 0 130 39t108.5 105.5t74 154.5t27.5 189q0 115 -46 221t-131 189t-207 132t-273 49 q-106 0 -227.5 -44t-225 -136t-172 -234.5t-68.5 -338.5q0 -150 51.5 -277t145.5 -218t226 -142t294 -51q61 0 126 8t126 23.5t118.5 35t102.5 43.5q12 6 21 6q25 0 24 -22q0 -16 -16 -25q-45 -27 -103.5 -49t-125 -39.5t-135 -27t-132.5 -9.5q-219 0 -390 55.5t-288.5 154 t-179 235.5t-61.5 299zM623 614q0 -109 34.5 -165t96.5 -56q68 0 124 50.5t97 127t63.5 165.5t22.5 165q0 80 -29.5 134.5t-97.5 54.5q-55 0 -111.5 -41t-100.5 -109t-71.5 -153t-27.5 -173z" />
<glyph unicode="A" horiz-adv-x="1497" d="M-31 23.5q0 9.5 7.5 17.5t23.5 8q59 0 108.5 34t81.5 112q16 39 47 113.5t70 169.5t82 205t86 218q100 254 217 549q12 29 19.5 47.5t21.5 18.5q18 0 25.5 -21.5t17.5 -46.5l510 -1221q74 -178 205 -178q13 0 19 -8q8 -9 7 -20q1 -8 -5 -14q-6 -7 -19 -7q-57 4 -103 7 t-112 3q-39 0 -83 -1l-88 -2t-86 -3t-77 -4q-14 0 -21.5 7t-7.5 16.5t6.5 17.5t20.5 8q86 0 119 43q18 24 18 53q0 24 -12 52l-193 460h-421l-174 -442q-12 -30 -12 -57q-1 -32 17 -59q32 -50 138 -50q16 0 24.5 -8t8.5 -17.5t-8.5 -16.5t-22.5 -7q-55 4 -115.5 5t-118.5 1 q-51 0 -91 -1t-97 -5q-16 0 -24.5 7t-8.5 16.5zM477 727h373l-193 451z" />
<glyph unicode="B" horiz-adv-x="1341" d="M41 23q0 23 27 22q43 0 73.5 9t51 33t29.5 63.5t9 103.5v989q0 121 -35.5 165t-121.5 44q-12 0 -18.5 7t-6.5 18q0 20 25 20q74 -4 125 -7t120 -3q74 0 173.5 6t189.5 6q96 0 192.5 -16.5t173 -57.5t125 -107.5t48.5 -168.5q0 -82 -44 -143.5t-107.5 -104.5t-135.5 -67.5 t-127 -32.5q78 -6 165 -31t159.5 -71t120.5 -115.5t48 -165.5q0 -106 -43 -186t-116.5 -131.5t-173 -77t-213.5 -25.5q-98 0 -204 5t-204 7q-66 0 -139.5 -3t-138.5 -7q-14 0 -20.5 7t-6.5 16zM457 76q6 -2 28.5 -6t56 -8.5t72.5 -7.5t78 -3q205 0 292 97.5t87 263.5 q0 92 -35 158.5t-95 108.5t-142 61.5t-178 19.5h-164v-684zM457 829h155q104 0 177 24t117 66t64.5 99t20.5 125q0 86 -24.5 144.5t-69.5 93t-107.5 50t-138.5 15.5q-53 0 -108.5 -5t-85.5 -9v-603z" />
<glyph unicode="C" horiz-adv-x="1486" d="M72 739q0 164 63.5 307.5t174 249t259 167t316.5 61.5q76 0 131 -6.5t98 -15.5t78 -20.5t70 -23.5q33 -10 51 -20.5t26.5 -22.5t9.5 -29.5t1 -42.5v-102t4 -121q0 -25 -23 -24q-20 0 -22 26q-10 164 -124 256t-302 92q-129 0 -232.5 -51t-176.5 -146t-111.5 -230.5 t-38.5 -301.5q0 -150 25.5 -279.5t88 -226t166 -152.5t258.5 -56q111 0 200 30.5t154.5 87t104.5 136t49 176.5q4 25 25 24q20 0 20 -24q-4 -70 -4 -125t4 -121q0 -31 -18 -47q-98 -86 -236.5 -138.5t-298.5 -52.5q-178 0 -323.5 54.5t-250 154t-160.5 241.5t-56 316z" />
<glyph unicode="D" horiz-adv-x="1589" d="M41 23q0 23 27 22q43 0 73.5 9t51 33t29.5 63.5t9 103.5v989q0 121 -35.5 165t-121.5 44q-12 0 -18.5 7t-6.5 18q0 20 25 20q72 -4 135 -7t133 -3q72 0 154 5t153 5q190 0 329.5 -40t236 -103.5t156 -144.5t92 -162.5t44 -156.5t11.5 -128q0 -195 -72 -339t-194 -239.5 t-284 -141.5q-156 -44 -330 -44h-15q-74 0 -138.5 6t-138.5 6q-66 0 -139.5 -3t-138.5 -7q-14 0 -20.5 7t-6.5 16zM455 84q59 -16 131.5 -24.5t122.5 -8.5q152 0 258 64.5t173.5 165t98.5 223.5t31 239q0 164 -33 293t-106.5 220.5t-193.5 139.5t-294 48q-23 0 -50.5 -1 t-53 -2t-48 -3t-34.5 -4q0 -338 -1 -674t-1 -676z" />
<glyph unicode="E" horiz-adv-x="1245" d="M41 23q0 23 25 22q57 0 89.5 14.5t50 42t22.5 65.5t5 87v995q0 119 -36.5 161t-122.5 42q-12 0 -18.5 7t-6.5 16q0 22 23 22h2h1024q35 0 42 -15.5t5 -41.5q-2 -43 -2 -77v-64.5t1 -63.5t1 -76q0 -23 -23 -22q-8 0 -15 6t-7 16q0 131 -43 206t-162 75h-436v-637 q78 0 157 4q68 4 148 8t151 8q55 4 73 54.5t18 121.5q0 10 7 16.5t15 6.5q10 0 17.5 -6t7.5 -17v-452q0 -23 -23 -23q-10 0 -17 6.5t-7 18.5q0 74 -20.5 128t-78.5 58q-49 4 -124.5 6t-147.5 7q-84 4 -176 4v-498q0 -109 32.5 -153t131.5 -44h303q98 0 155.5 66.5 t57.5 214.5q0 12 7 18t15 6q23 0 23 -24q-2 -41 -2 -71.5v-59.5v-58.5t2 -68.5v-11q0 -33 -10 -49q-12 -20 -48 -20h-1060q-12 0 -18.5 7t-6.5 16z" />
<glyph unicode="F" horiz-adv-x="1193" d="M41 23q0 23 27 22q43 0 73.5 9t51 33t29.5 63.5t9 103.5v995q0 119 -36.5 161t-122.5 42q-12 0 -18.5 7t-6.5 16q0 22 23 22h2h1024q35 0 41 -15.5t6 -41.5q0 -39 -1 -72t-1 -64.5t1 -66.5t1 -78q0 -23 -23 -22q-8 0 -15 6t-7 16q0 131 -43 206t-162 75h-436v-637 q115 4 236.5 8t219.5 12q55 4 73 54.5t18 121.5q0 10 7 16.5t15 6.5q10 0 17.5 -6t7.5 -17v-452q0 -23 -23 -23q-10 0 -17 6.5t-7 18.5q0 74 -20.5 128t-78.5 58q-45 2 -102.5 4t-117.5 4t-119.5 4.5t-108.5 4.5v-498q0 -66 10 -107t32.5 -63.5t56.5 -30.5t79 -8q12 0 18 -7 t6 -15q0 -23 -22 -23q-66 4 -144.5 7t-144.5 3t-142.5 -4t-137.5 -6q-14 0 -20.5 7t-6.5 16z" />
<glyph unicode="G" horiz-adv-x="1624" d="M72 739q0 164 63.5 307.5t174 249t259 167t316.5 61.5q76 0 131 -6.5t98 -15.5t78 -20.5t70 -23.5q33 -10 51 -20.5t26.5 -22.5t9.5 -29.5t1 -42.5v-102t4 -121q0 -25 -23 -24q-20 0 -22 26q-10 164 -124 256t-302 92q-129 0 -232.5 -51t-176.5 -146t-111.5 -230.5 t-38.5 -301.5q0 -150 25.5 -279.5t88 -226t166 -152.5t258.5 -56q74 0 129.5 11t96 27.5t67.5 33t43 28.5v397q0 121 -48 165t-134 44q-12 0 -18.5 7.5t-6.5 17.5q0 20 25 20q70 -4 143.5 -7t143.5 -3q66 0 135 3t139 7q27 0 27 -22q0 -8 -6.5 -15.5t-18.5 -7.5 q-39 0 -68.5 -7t-51 -29.5t-33 -63.5t-11.5 -109v-364q0 -35 -7 -52.5t-36 -29.5q-39 -18 -99.5 -36.5t-130 -34t-142 -25t-138.5 -9.5q-178 0 -323.5 54.5t-250 154t-160.5 241.5t-56 316z" />
<glyph unicode="H" horiz-adv-x="1751" d="M41 23q0 23 27 22q43 0 73.5 9t51 33t29.5 63.5t9 103.5v989q0 121 -35.5 165t-121.5 44q-25 0 -25 23q0 8 6 15t19 7q59 -4 129.5 -7t140.5 -3q66 0 145.5 3t145.5 7q23 0 22 -22q0 -8 -6 -15.5t-18 -7.5q-39 0 -71 -7t-55.5 -29.5t-36.5 -63.5t-13 -109v-401h831v401 q0 68 -13 109t-35.5 63.5t-55.5 29.5t-72 7q-12 0 -18.5 7t-6.5 16q0 22 21 22h2q66 -2 149.5 -6t149.5 -4q68 0 131.5 3t128.5 7q31 0 31 -22q0 -23 -29 -23q-86 0 -119.5 -44t-33.5 -165v-989q0 -66 10 -107t30.5 -63.5t51 -30.5t71.5 -8q29 0 29 -22q0 -8 -6 -15.5 t-23 -7.5q-66 4 -136 7t-138 3q-66 0 -146.5 -3t-152.5 -7q-23 0 -23 23q0 8 6.5 15t18.5 7q45 0 79 8t55.5 30.5t32.5 63.5t11 107v512h-831v-512q0 -66 10 -107t32.5 -63.5t56.5 -30.5t79 -8q12 0 18 -7t6 -15q0 -23 -22 -23q-68 4 -145.5 7t-143.5 3t-140.5 -4t-139.5 -6 q-14 0 -20.5 7t-6.5 16z" />
<glyph unicode="I" horiz-adv-x="700" d="M41 23q0 23 27 22q43 0 73.5 9t51 33t29.5 63.5t9 103.5v989q0 121 -35.5 165t-121.5 44q-12 0 -18.5 7t-6.5 18q0 20 25 20q66 -4 133 -7t137 -3q66 0 140.5 3t146.5 7q27 0 26 -22q0 -8 -6 -15.5t-18 -7.5q-39 0 -71 -7t-55.5 -29.5t-36.5 -63.5t-13 -109v-989 q0 -66 10 -107t32.5 -63.5t56.5 -30.5t79 -8q12 0 18 -7t6 -15q0 -23 -22 -23q-70 4 -146.5 7t-142.5 3t-140.5 -3t-139.5 -7q-14 0 -20.5 7t-6.5 16z" />
<glyph unicode="J" horiz-adv-x="1050" d="M-12 252q0 59 -4 125q0 25 22 24q18 0 23 -22q6 -55 19 -116.5t48 -114t99.5 -87t175.5 -34.5q70 0 126 17t96 59t61.5 109t21.5 165v157.5t-1 183t-2 229.5t-5 296q-2 121 -37 165t-121 44q-12 0 -18.5 7t-6.5 18q0 20 25 20q66 -4 133.5 -7t136.5 -3q66 0 140.5 3 t146.5 7q27 0 27 -22q0 -8 -6.5 -15.5t-18.5 -7.5q-39 0 -70.5 -7t-55 -29.5t-37 -63.5t-13.5 -109v-860q0 -78 -37 -151.5t-104.5 -131t-163.5 -92.5t-217 -35q-86 0 -145.5 12.5t-101.5 29t-68.5 35t-47.5 30.5q-24 13 -24 43z" />
<glyph unicode="K" horiz-adv-x="1513" d="M41 23q0 23 27 22q43 0 73.5 9t51 33t29.5 63.5t9 103.5v989q0 121 -35.5 165t-121.5 44q-12 0 -18.5 7t-6.5 18q0 8 6 15q5 5 14 5h5q70 -4 135 -7t135 -3q82 0 162 3t147 7q27 0 27 -22q0 -23 -29 -23q-51 0 -88 -9t-60.5 -33t-34.5 -64.5t-11 -102.5v-487l477 555 q48 54 48 89q0 8 -2 14q-13 38 -116 38q-23 0 -22 23q0 22 22 22h2q70 -2 124 -5t124 -3q33 0 54.5 1t40 3t39 3t48.5 1q27 0 27 -22q0 -23 -27 -23q-94 0 -164.5 -53t-134.5 -125l-278 -332l416 -666q68 -111 131 -160.5t141 -49.5q39 0 67.5 11t47.5 27q6 6 14 7 q10 -1 16 -13q2 -4 3 -8q0 -9 -9 -18q-37 -43 -109.5 -67.5t-148.5 -24.5q-139 0 -234.5 77.5t-172.5 206.5l-312 504l-112 -131v-383q0 -61 11 -102t34.5 -65t60.5 -33t88 -9q29 0 29 -22q0 -23 -27 -23q-68 4 -146.5 7t-150.5 3q-66 0 -144.5 -3t-143.5 -7q-14 0 -20.5 7 t-6.5 16z" />
<glyph unicode="L" horiz-adv-x="1185" d="M41 23q0 23 25 22q57 0 89.5 14.5t50 42t22.5 65.5t5 87v995q0 119 -36.5 161t-122.5 42q-12 0 -18.5 7t-6.5 16q0 10 6 17q5 5 14 5h5q68 -4 134 -7t136 -3q66 0 145.5 3t153.5 7q27 0 27 -22q0 -8 -6.5 -15.5t-18.5 -7.5q-51 0 -87 -7t-58.5 -29.5t-32.5 -63.5 t-10 -109v-989q0 -109 33.5 -153t132.5 -44h256q104 0 169.5 72t90.5 209q4 25 22 24q9 0 17 -6q6 -5 6 -13q0 -5 -24 -151q-10 -62 -21 -137q-4 -23 -10.5 -39t-41.5 -16h-1021q-12 0 -18.5 7t-6.5 16z" />
<glyph unicode="M" horiz-adv-x="1976" d="M0 23q0 23 27 22q43 0 75.5 9t55 33t36 63.5t17.5 103.5q4 70 9 150.5t11.5 166.5t11.5 172t11 166q12 188 25 379q2 16 2 30q1 20 -3 38q-6 30 -22 52t-50 33t-89 11q-20 0 -21 23q0 8 6.5 15t16.5 7q35 0 88 -1t112.5 -1h117t95.5 2q59 -158 111.5 -302t105 -283.5 t105.5 -277.5t115 -282q33 84 68.5 178.5t72.5 190.5t73 191.5t68 181.5q78 203 156 403q59 -2 122.5 -2h120t101.5 1t66 1q27 0 26 -22q0 -23 -24 -23q-33 0 -59.5 -3t-45.5 -19q-20 -14 -30 -46q-7 -22 -6 -58q0 -15 1 -32l66 -1040q4 -63 17.5 -103t36 -64t55 -33 t75.5 -9q27 0 27 -22q0 -8 -6 -15.5t-21 -7.5q-66 4 -135.5 7t-134.5 3q-33 0 -73 -1t-83 -2t-84 -3t-76 -4q-25 0 -24 23q0 8 7 15t20 7q47 0 78.5 8t52 30.5t28.5 63.5q5 27 5 66q0 19 -1 41l-67 1126q-35 -92 -67 -171t-65.5 -161.5t-70.5 -177t-84 -217.5t-105.5 -280.5 t-136.5 -368.5q-6 -18 -26 -18q-18 0 -29 18q-106 256 -193 473t-151.5 383t-105.5 276.5t-58 151.5q-12 -199 -24 -387q-6 -80 -11.5 -167t-9.5 -172t-8 -164t-8 -144v-28q0 -47 5 -79q7 -41 27.5 -63.5t53.5 -30.5t78 -8q12 0 18 -7t6 -15q0 -23 -22 -23q-35 2 -64 4 t-55.5 3l-53 2t-59.5 1t-55.5 -1t-43 -2t-43 -3t-54.5 -4q-14 0 -20.5 7t-6.5 16z" />
<glyph unicode="N" horiz-adv-x="1638" d="M31 23q0 23 26 22q43 0 74 9t51.5 33t29.5 63.5t9 103.5v989q0 121 -35.5 165t-122.5 44q-12 0 -18 7t-6 18q0 20 24 20q33 -2 56.5 -3t45 -3t45 -3t58.5 -1q39 0 95.5 3t105.5 7q86 -104 179 -219t183.5 -227.5t174.5 -218t151.5 -191.5t115.5 -146.5t66 -84.5v833 q0 121 -45 165t-131 44q-12 0 -18 7t-6 18q0 20 24 20q33 -2 59.5 -3t51 -3t51.5 -3t61 -1q33 0 56.5 1t47 3t49.5 3t63 3q26 0 26 -20q0 -9 -6 -17t-18 -8q-39 0 -71 -7t-55.5 -29.5t-37 -63.5t-13.5 -109v-1241q0 -10 -5 -19.5t-21 -9.5q-18 0 -35 23l-1057 1317v-1059 q0 -66 10.5 -107t33 -63.5t56 -30.5t78.5 -8q12 0 18.5 -7t6.5 -15q0 -23 -23 -23q-35 2 -60.5 4t-50 3l-49 2t-57.5 1q-63 0 -106 -3t-109 -7q-14 0 -20 7t-6 16z" />
<glyph unicode="O" horiz-adv-x="1613" d="M72 748q0 139 49 277t142 248.5t230.5 180.5t313.5 70q180 0 317.5 -70t230.5 -181.5t140 -249.5t47 -275q0 -160 -52 -301.5t-148.5 -246t-231.5 -166t-303 -61.5q-172 0 -308.5 61.5t-231.5 167t-145 246t-50 300.5zM322 748q0 -166 27.5 -300.5t87 -227.5t150.5 -143 t220 -50t221 52t151.5 147.5t87 227.5t27.5 294q0 150 -23.5 280.5t-80.5 229t-151.5 155.5t-233.5 57q-137 0 -230.5 -60t-149.5 -159.5t-79.5 -230.5t-23.5 -272z" />
<glyph unicode="P" horiz-adv-x="1220" d="M41 23q0 23 27 22q43 0 73.5 9t51 33t29.5 63.5t9 103.5v989q0 121 -35.5 165t-121.5 44q-12 0 -18.5 7t-6.5 18q0 8 6 15q5 5 14 5h5q70 -4 135 -7t135 -3q35 0 63.5 1t60.5 3t74 3t103 3q15 1 30 1q98 0 183 -24q98 -26 170 -77t112 -127t40 -174q0 -121 -48.5 -205 t-125 -135t-175 -74t-198.5 -23q-63 0 -104.5 6.5t-69.5 12.5v-424q0 -61 11 -102t33.5 -65t60.5 -33t89 -9q29 0 29 -22q0 -23 -27 -23q-68 4 -147.5 7t-151.5 3q-66 0 -144.5 -3t-143.5 -7q-14 0 -20.5 7t-6.5 16zM459 733q39 -10 85 -15t85 -5q74 0 133 19.5t100 64.5 t62.5 118.5t21.5 180.5q0 166 -79.5 260t-239.5 94q-53 0 -100.5 -7t-67.5 -16v-694z" />
<glyph unicode="Q" horiz-adv-x="1611" d="M72 750q0 92 21.5 185t64.5 179t105.5 161t144 130t182 87t217.5 32q180 0 317.5 -69t230.5 -178.5t140 -246.5t47 -274q0 -133 -38 -255t-106.5 -222.5t-166.5 -173t-221 -107.5q150 -12 309.5 -59.5t322 -98.5t325.5 -92t319 -41q231 0 424.5 46t349.5 179q6 6 14 7 q23 0 23 -23q0 -14 -11 -20q-51 -49 -123.5 -114t-170 -123t-222.5 -98t-280 -40q-125 0 -250 32.5t-249 82t-248 105.5t-246.5 105.5t-244.5 82t-245 32.5q-117 0 -227.5 -32.5t-204.5 -98.5q-8 -6 -21 -6q-23 0 -22 22q0 14 14 27q53 41 125 72.5t145 50.5 q-129 31 -229 102.5t-171 171t-107.5 222t-36.5 258.5zM322 748q0 -166 27.5 -300.5t87 -227.5t150.5 -143t220 -50t221 49t151.5 140t87 221t27.5 292q0 150 -23.5 284t-80.5 235.5t-151.5 161.5t-233.5 60q-137 0 -230.5 -60t-149.5 -159.5t-79.5 -230.5t-23.5 -272z" />
<glyph unicode="R" horiz-adv-x="1472" d="M41 23q0 23 27 22q43 0 73.5 9t51 33t29.5 63.5t9 103.5v989q0 121 -35.5 165t-121.5 44q-12 0 -18.5 7t-6.5 18q0 8 6 15q5 5 14 5h5q70 -4 135 -7t135 -3h65.5t66.5 2t80 4t106 4q24 1 47 1q83 0 157 -16q95 -22 164.5 -69t109.5 -119.5t40 -171.5q0 -143 -99.5 -249.5 t-285.5 -141.5l303 -455q72 -106 136 -158t142 -52q39 0 68 11t47 27q6 6 14 7q11 -1 17 -13q2 -4 2 -8q0 -8 -8 -18q-37 -43 -112 -67.5t-151 -24.5q-70 0 -127 20t-105 58t-91 90.5t-84 115.5l-285 436q-23 0 -50.5 1t-53.5 6v-453q0 -61 11 -102t34.5 -65t60.5 -33t88 -9 q29 0 29 -22q0 -23 -27 -23q-68 4 -146.5 7t-150.5 3q-66 0 -144.5 -3t-143.5 -7q-14 0 -20.5 7t-6.5 16zM457 762q33 -4 80 -7t86 -3q74 0 134 17t103 60t66.5 115t23.5 178q0 154 -88 241t-235 87q-68 0 -109 -8t-61 -15v-665z" />
<glyph unicode="S" horiz-adv-x="1155" d="M92 1126q0 80 37 153t101.5 127t152.5 86t192 32q49 0 97.5 -7.5t91.5 -17.5t79 -23.5t60 -23.5q14 -6 25.5 -17.5t9.5 -33.5q-2 -29 -2 -53.5v-51v-57.5t2 -74q0 -23 -23 -22q-23 0 -22 24q-6 78 -32.5 135.5t-69.5 94.5t-98.5 55t-117.5 18q-63 0 -125.5 -16 t-109.5 -49t-77 -82t-30 -117q0 -90 62.5 -148.5t158 -104.5t205 -88t204.5 -100t157.5 -141t62.5 -212q0 -117 -45 -200t-120.5 -136t-172 -78t-200.5 -25q-86 0 -153.5 12.5t-120 29t-88.5 35t-56 30.5q-25 14 -25 45q4 68 4 127t-4 125q0 25 23 24q18 0 22 -22 q6 -55 28 -116.5t67 -114t118.5 -87t184.5 -34.5q70 0 137.5 16t119.5 50t84 87t32 127q0 76 -36 129t-93.5 93t-132 71t-151.5 63.5t-151.5 70.5t-132 91.5t-93.5 126t-36 174.5z" />
<glyph unicode="T" horiz-adv-x="1310" d="M41 1174q4 78 4 149.5t-2 136.5q0 25 13.5 32t35.5 7q150 -4 293 -5t270 -1t270.5 1t293.5 5q23 0 36 -7t13 -32q-2 -68 -2 -138.5t4 -147.5q0 -12 -4 -21.5t-17 -9.5q-20 0 -24 28q-8 61 -25.5 107.5t-48.5 77t-78 45t-119 14.5h-186v-1161q0 -66 12.5 -107t37 -63.5 t60 -30.5t80.5 -8q12 0 18.5 -7t6.5 -15q0 -23 -22 -23q-70 4 -153 7t-149 3t-146.5 -3t-145.5 -7q-14 0 -20.5 7t-6.5 16q0 23 27 22q43 0 75.5 9t55 33t34 63.5t11.5 103.5v1161h-187q-70 0 -118 -14.5t-78.5 -45t-48 -76.5t-25.5 -108q-4 -29 -25 -28q-12 0 -16 9t-4 22z " />
<glyph unicode="U" horiz-adv-x="1538" d="M31 1477q0 20 24 20q66 -2 133.5 -6t137.5 -4q66 0 141.5 4t144.5 6q27 0 27 -22q0 -8 -6 -15.5t-19 -7.5q-39 0 -70.5 -7t-55 -29.5t-37 -63.5t-13.5 -109v-749q0 -109 19.5 -193t64.5 -140.5t118 -86t179 -29.5q68 0 144.5 17.5t143.5 66.5t110 138t43 233v739 q0 121 -45.5 167t-131.5 46q-12 0 -18 7t-6 18q0 8 6 15q5 5 13 5h5q59 -4 118 -7t93 -3q45 0 92.5 3t114.5 7q27 0 27 -22q0 -8 -6 -15.5t-19 -7.5q-39 0 -70.5 -7t-54 -30.5t-36 -65.5t-13.5 -110v-741q0 -141 -43 -240.5t-113.5 -163t-162.5 -92.5t-191 -29 q-299 0 -452.5 140.5t-153.5 390.5v739q0 121 -36 165t-122 44q-12 0 -18 7t-6 18z" />
<glyph unicode="V" horiz-adv-x="1519" d="M-20 1475q0 22 22 22h2q66 -4 136 -7t136 -3q78 0 148 3t141 7q14 0 21.5 -7t7.5 -17t-6 -17.5t-21 -7.5q-89 0 -119 -42q-16 -23 -17 -51q0 -23 11 -50l402 -986l375 967q12 31 12 57q0 32 -18 58q-33 47 -134 47q-31 0 -30 27q0 22 24 22h2q59 -4 110.5 -5t108.5 -1 q51 0 97.5 1t103.5 5q33 0 33 -24q0 -10 -7.5 -17.5t-23.5 -7.5q-59 0 -107.5 -29.5t-82.5 -111.5q-18 -45 -51 -125t-72 -178.5t-82 -208t-86 -217.5q-98 -252 -211 -545q-12 -29 -18.5 -45.5t-20.5 -16.5q-16 0 -25.5 19.5t-19.5 44.5l-510 1239q-72 174 -205 174 q-12 0 -19 8t-7 19z" />
<glyph unicode="W" horiz-adv-x="2365" d="M2 1497h2q57 0 127.5 -5t136.5 -5q78 0 151 3t146 7q14 0 21.5 -7t7.5 -17t-6 -17.5t-21 -7.5q-89 0 -117 -41q-16 -24 -16 -54q0 -22 8 -48l402 -986l293 758l-80 197q-70 174 -205 174q-12 0 -18.5 8t-6.5 19q0 22 19 22h2q31 0 66.5 -2t74.5 -3t76 -3t70 -2 q78 0 141 3t135 7q14 0 21.5 -7t7.5 -17t-6.5 -17.5t-20.5 -7.5q-89 0 -117 -41q-16 -24 -16 -54q0 -22 8 -48l402 -986l374 967q13 31 13 58q0 31 -18 57q-34 47 -134 47q-31 0 -31 27q0 22 25 22h2q55 0 114.5 -3t116.5 -3q51 0 91.5 1t97.5 5q33 0 33 -24 q0 -10 -7.5 -17.5t-23.5 -7.5q-59 0 -108.5 -29.5t-82.5 -111.5q-14 -37 -43.5 -112t-67.5 -172t-82 -207.5t-87 -221.5q-100 -258 -221 -561q-12 -29 -20.5 -40t-22.5 -11q-20 0 -41 51l-393 950q-27 -68 -57 -143.5t-60.5 -155.5t-61 -159t-59.5 -150q-66 -170 -131 -342 q-12 -29 -18.5 -40t-22.5 -11t-24.5 13t-18.5 38l-510 1241q-72 174 -205 174q-24 0 -24 25q0 24 20 24z" />
<glyph unicode="X" horiz-adv-x="1601" d="M0 25q0 10 7 17t24 7q59 0 123.5 44t124.5 126q63 86 112 151.5t95 129t94.5 132t111.5 156.5q-43 66 -102.5 153t-112.5 167q-63 94 -131 192q-57 84 -101 116t-112 32q-29 0 -29 27q0 22 25 22h2q33 -2 74 -3t83 -3t82 -3t72 -1q78 0 160 3t154 7q31 0 30 -24 q0 -10 -7 -17.5t-21 -7.5q-86 0 -128 -43q-23 -23 -23 -53q0 -24 16 -52q59 -100 124.5 -196t135.5 -197q47 66 82.5 114t65.5 87t54.5 74t51.5 71q31 43 33 79v5q0 33 -18 57q-19 26 -56 40t-84 14q-31 0 -31 27q0 22 25 22h2q63 -2 124.5 -4t118.5 -2q51 0 112.5 1 t119.5 5q33 0 33 -24q0 -10 -7.5 -17.5t-23.5 -7.5q-68 0 -128.5 -42t-125.5 -132q-51 -68 -93 -125t-79 -107.5t-71 -97.5l-68 -94q63 -94 134.5 -199.5t135.5 -197.5q74 -106 145 -209q78 -106 140.5 -150.5t130.5 -44.5q12 0 19 -8t7 -18q0 -23 -22 -23q-57 0 -112.5 5 t-121.5 5q-39 0 -103.5 -1t-134 -2t-132 -3t-97.5 -4q-29 0 -28 25q0 10 6 17t20 7q61 2 105 13q44 12 64 36q15 18 15 44q-1 9 -3 20q-8 39 -46 98q-27 41 -62.5 94.5t-76.5 113.5t-84 127t-86 130q-57 -78 -102 -139.5t-85 -116.5t-77 -108.5t-78 -114.5q-32 -50 -32 -89 q0 -29 18 -53q43 -54 149 -55q16 0 24.5 -7t8.5 -17t-7 -17.5t-22 -7.5l-136 4t-126 2q-51 0 -113.5 -1t-121.5 -5h-4q-29 0 -29 25z" />
<glyph unicode="Y" horiz-adv-x="1357" d="M-20 1475q0 22 24 22h2q57 -4 124 -7t132 -3q78 0 156 3t149 7h5q11 0 18 -6q8 -8 8 -18q0 -25 -29 -25q-86 0 -125 -39q-19 -20 -19 -45q0 -26 19 -57q25 -41 64 -105.5t84 -137.5t93 -147.5t91 -138.5q37 61 76 129t76 133.5t69.5 126t57.5 107.5t25 81q0 29 -17 48 q-37 43 -141 45q-16 0 -24.5 8t-8.5 19q0 10 7 17q5 5 17 5h7q57 -4 120.5 -5t120.5 -1q51 0 89 1t96 5h6q12 0 18 -6q8 -8 8 -18t-7 -17.5t-23 -7.5q-59 -2 -107.5 -34t-89.5 -107l-346 -615v-438q0 -66 11 -107t33.5 -63.5t57.5 -30.5t80 -8q12 0 18.5 -7t6.5 -15 q0 -23 -23 -23q-70 4 -146.5 7t-142.5 3t-140.5 -3t-139.5 -7q-14 0 -20.5 7t-6.5 16q0 23 27 22q86 0 126 41t40 164v440q-125 193 -212 335t-163 257q-27 41 -49.5 71.5t-45 51t-49 31t-61.5 12.5q-12 0 -19 8t-7 19z" />
<glyph unicode="Z" horiz-adv-x="1302" d="M55 20q-4 8 -4 16q0 12 8 25q147 225 271.5 419t232 363t199.5 316.5t174 280.5h-481q-111 0 -168.5 -72t-81.5 -209q-2 -25 -23 -24q-10 0 -17 6t-5 18q10 82 16 145.5t14 137.5q2 23 12.5 39t45.5 16h436h492q29 0 36 -20.5t-6 -38.5q-143 -217 -268 -405.5 t-233.5 -357.5t-203.5 -321.5t-182 -296.5h625q111 0 173.5 84t86.5 221q4 25 23 25q10 0 17 -6q5 -5 5 -14v-5q-10 -84 -19 -157.5t-18 -149.5q-4 -25 -16 -40t-47 -15h-1053q-31 0 -41 20z" />
<glyph unicode="[" horiz-adv-x="583" d="M63 -231v1962q0 27 27 26h434v-45q-90 0 -147.5 -3t-89 -16.5t-43 -39t-11.5 -72.5v-1663q0 -47 11.5 -72.5t43 -39t89 -16.5t147.5 -3v-45h-434q-27 0 -27 27z" />
<glyph unicode="\" horiz-adv-x="915" d="M102 1536h91q63 -170 141 -374t159.5 -415.5t164.5 -419.5t155 -388h-94q-68 197 -144.5 401.5t-155.5 408t-159 403.5t-158 384z" />
<glyph unicode="]" horiz-adv-x="583" d="M61 -213q90 0 147.5 3t89.5 16.5t43 39t11 72.5v1663q0 47 -11 72.5t-43 39t-89 16.5t-148 3v45h435q27 0 26 -26v-1962q0 -27 -26 -27h-435v45z" />
<glyph unicode="^" horiz-adv-x="1456" d="M377 734.5q-8 17.5 10 33.5q37 29 76 62.5t75.5 72.5t67.5 84t51 94q8 23 23 23h129q12 0 15 -6t10 -17q18 -39 51 -83t70.5 -86t76.5 -78.5t72 -61.5q18 -14 16 -34.5t-35 -20.5q-35 0 -88 32.5t-106 75.5t-95 83t-55 53q-12 -12 -55 -52.5t-93 -83.5t-100.5 -75.5 t-78.5 -32.5q-29 0 -37 17.5z" />
<glyph unicode="_" horiz-adv-x="1398" d="M0 -127h1399v-55h-1399v55z" />
<glyph unicode="`" d="M334 1460q4 6 10 6h90q12 0 17 -6q12 -29 26.5 -59.5t27.5 -58t24.5 -50t17.5 -35.5q4 -10 -4.5 -14t-18.5 4q-20 16 -50 46t-57.5 60.5t-50 57.5t-28.5 35q-8 8 -4 14z" />
<glyph unicode="a" horiz-adv-x="1177" d="M-10 23q0 20 28 20q43 0 80 26.5t62 86.5q98 225 194.5 459.5t188.5 474.5q6 16 13 32.5t22 16.5q16 0 22 -13.5t16 -40.5q20 -49 48 -114.5t60 -139t65.5 -150.5t64.5 -149q74 -170 154 -352q29 -66 65.5 -101.5t87.5 -35.5q27 0 27 -23q0 -20 -23 -20q-47 4 -103.5 5 t-105.5 1q-59 0 -110 -1t-107 -5q-25 0 -24 23q0 20 24 20q65 0 87 34q11 18 12 39q0 18 -9 38l-145 340h-317q-33 -78 -67 -159t-64 -159q-11 -28 -11 -51q-1 -26 13 -45q26 -37 96 -37q31 0 31 -20q0 -23 -27 -23q-47 4 -87 5t-83 1q-41 0 -71.5 -1t-78.5 -5q-10 0 -19 5 t-9 18zM385 545h279q-35 82 -72 164t-72 161z" />
<glyph unicode="b" horiz-adv-x="1069" d="M41 20q0 23 22 23q66 0 93.5 29.5t27.5 120.5v735q0 88 -24.5 119.5t-89.5 31.5q-12 0 -17.5 7.5t-5.5 15.5q0 20 23 20q51 -4 93 -6t95 -2q63 0 139 5t142 5q74 0 148.5 -12t134 -43t96 -82t36.5 -129q0 -55 -27.5 -99t-70.5 -76t-93 -52.5t-97 -30.5q59 -8 121.5 -28.5 t113.5 -55.5t84 -85t33 -118q0 -80 -33 -139t-91 -98t-135 -58.5t-167 -19.5q-76 0 -156.5 5t-156.5 5q-51 0 -105.5 -2t-107.5 -6q-10 0 -17.5 7t-7.5 13zM369 66q6 -2 24.5 -5.5t43 -6.5t52 -5t54.5 -2q158 0 223 70.5t65 191.5q0 70 -25.5 118t-71.5 79t-108.5 45 t-136.5 14h-120v-499zM369 625h114q80 0 134.5 17t88 48t49 73t15.5 91q0 125 -70.5 173t-185.5 48q-39 0 -80 -3t-65 -7v-440z" />
<glyph unicode="c" horiz-adv-x="1167" d="M72 553q0 123 49 230.5t135 187.5t200.5 126t243.5 46q115 0 186.5 -17.5t106.5 -31.5q27 -10 41.5 -18.5t20.5 -17.5t7 -21.5t1 -32.5v-77t2 -87q0 -23 -21 -23q-16 0 -20 25q-14 113 -99 182.5t-227 69.5q-98 0 -177 -38t-134 -107.5t-85 -170t-30 -223.5 q0 -111 19.5 -206t68 -166.5t127 -112.5t197.5 -41q84 0 151.5 22.5t116.5 64.5t79 99t38 127q4 25 23 25q23 0 22 -25q-3 -39 -3 -73v-17q1 -41 3 -90v-5q0 -11 -7 -21q-9 -12 -22 -23q-72 -59 -174 -96t-227 -37q-137 0 -251 40.5t-193.5 115.5t-123.5 180.5t-44 236.5z " />
<glyph unicode="d" horiz-adv-x="1245" d="M41 20q0 23 27 23q66 0 92 29.5t26 120.5v735q0 88 -24.5 119.5t-89.5 31.5q-12 0 -18.5 7.5t-6.5 15.5q0 20 25 20q57 -4 104 -6t100 -2q55 0 119 4t119 4q147 0 253.5 -29.5t181.5 -77.5t121 -108.5t71.5 -122t34 -118t8.5 -97.5q0 -145 -55.5 -252.5t-149.5 -179 t-219 -106.5q-118 -33 -251 -33h-15q-56 0 -106 6q-38 4 -79 4h-28q-51 0 -107.5 -2t-105.5 -6q-27 0 -27 20zM371 72q45 -12 98 -18.5t90 -6.5q117 0 198 47t132 121t74.5 165t23.5 177q0 121 -24.5 216t-81 161.5t-147.5 102.5t-224 36q-37 0 -79 -2t-60 -4v-995z" />
<glyph unicode="e" horiz-adv-x="991" d="M41 20q0 23 22 23q43 0 68 10t38 29.5t16 47.5t3 63v739q0 86 -26.5 116.5t-91.5 30.5q-10 0 -16.5 7.5t-6.5 15.5q0 20 23 20h790q23 0 31 -15t8 -32q-2 -31 -2 -56.5v-49v-48t2 -55.5q0 -20 -20 -20t-21 20q0 96 -33.5 150.5t-124.5 54.5h-327v-467q55 2 112 6 q49 4 111.5 5t122.5 6q41 2 53 38.5t12 88.5q0 23 21 22q23 0 22 -22v-336q0 -23 -20 -23q-8 0 -15.5 6t-7.5 17q0 53 -16 93t-55 42q-61 4 -123 6t-109 4q-55 2 -108 2v-366q0 -78 24.5 -110t96.5 -32h233q72 0 116 48t44 157q0 23 20 23t21 -23q-2 -59 -2 -96t2 -97v-10 q0 -25 -8 -38q-10 -15 -39 -15h-818q-10 0 -16 7t-6 13z" />
<glyph unicode="f" horiz-adv-x="958" d="M41 20q0 23 27 23q66 0 92 29.5t26 120.5v739q0 86 -24.5 116.5t-89.5 30.5q-25 0 -25 23q0 20 25 20h786q29 0 34 -12t5 -35v-209q0 -20 -20 -20t-21 20q0 96 -32.5 150.5t-121.5 54.5h-331v-467q66 2 129 6q53 4 113.5 6t103.5 5q41 2 53 38.5t12 88.5q0 10 7.5 16 t15.5 6t15 -6t7 -16v-336q0 -23 -22 -23q-8 0 -15.5 6t-7.5 17q0 53 -15 92t-56 43q-82 6 -172 9t-168 3v-366q0 -94 31.5 -122t101.5 -28q25 0 24 -23q0 -20 -22 -20q-51 4 -111.5 5t-111.5 1t-109.5 -1t-105.5 -5h-6q-8 0 -14 4q-7 6 -7 16z" />
<glyph unicode="g" horiz-adv-x="1288" d="M72 553q0 123 49 230.5t135 187.5t200.5 126t245.5 46q55 0 96.5 -4t73 -10.5t60.5 -15.5t61 -19q25 -8 39.5 -15.5t21.5 -17.5t8 -23.5t1 -33.5v-77t4 -87q0 -23 -20 -23q-18 0 -23 25q-8 117 -95 184.5t-229 67.5q-98 0 -177 -38t-134 -107.5t-85 -170t-30 -223.5 q0 -111 19.5 -206t67 -166.5t126 -112.5t197.5 -41q111 0 170 27.5t84 45.5v291q0 90 -34 121t-97 31q-27 0 -27 20t25 21q53 0 109.5 -3t109.5 -3q47 0 100.5 2t108.5 4q24 0 24 -19q0 -22 -22 -22q-55 0 -88 -26.5t-33 -125.5v-268q0 -29 -5 -42t-30 -24 q-31 -14 -77 -28.5t-100 -25.5t-110.5 -18t-107.5 -7q-137 0 -249.5 40.5t-193.5 115.5t-125 180.5t-44 236.5z" />
<glyph unicode="h" horiz-adv-x="1376" d="M41 20q0 23 27 23q66 0 92 29.5t26 120.5v735q0 88 -24.5 119.5t-89.5 31.5q-25 0 -25 23q0 20 25 20q102 -6 209 -6q49 0 109.5 1t111.5 5q25 0 24 -20q0 -8 -6 -15.5t-16 -7.5q-29 0 -53.5 -5t-42 -21.5t-27.5 -46t-10 -78.5v-299h630v299q0 96 -35.5 123.5t-95.5 27.5 q-10 0 -16 7.5t-6 15.5q0 20 22 20q49 -4 113 -5t115 -1q102 0 202 6q27 0 27 -20q0 -23 -29 -23q-61 0 -85.5 -31.5t-24.5 -119.5v-735q0 -94 29.5 -122t89.5 -28q28 0 28 -21q0 -7 -5 -16q-4 -6 -15 -6h-6q-117 6 -213 6q-51 0 -112.5 -1t-115.5 -5q-23 0 -22 20 q0 8 6 15.5t18 7.5q66 0 98.5 27.5t32.5 122.5v376h-630v-376q0 -94 30.5 -122t100.5 -28q25 0 24 -23q0 -20 -24 -20q-53 4 -110.5 5t-108.5 1q-49 0 -104.5 -1t-108.5 -5h-7q-9 0 -15 4q-8 6 -7 16z" />
<glyph unicode="i" horiz-adv-x="567" d="M41 20q0 23 27 24q66 0 92 29t26 120v735q0 88 -24.5 119.5t-89.5 31.5q-25 0 -25 23q0 20 25 20q102 -6 209 -6q49 0 109.5 1t111.5 5q24 0 24 -18q0 -9 -6 -17t-16 -8q-29 0 -53.5 -5t-42 -21.5t-27.5 -46t-10 -78.5v-735q0 -94 30.5 -122t100.5 -27q24 0 24 -22 t-24 -22q-53 4 -110.5 5t-108.5 1q-49 0 -104.5 -1t-108.5 -5h-7q-9 0 -15 4q-8 6 -7 16z" />
<glyph unicode="j" horiz-adv-x="894" d="M0 98q3 42 3 76v17q-1 40 -3 92q0 23 23 22q18 0 22 -20q4 -39 14.5 -84t36 -83t74.5 -63.5t133 -25.5q106 0 164.5 55t58.5 199v118.5v136t-1 170t-3 220.5q-2 88 -27.5 119.5t-91.5 31.5q-10 0 -16 7.5t-6 15.5q0 20 22 20q102 -6 213 -6q51 0 108.5 1t113.5 5 q26 0 26 -19q0 -9 -6 -16.5t-18 -7.5q-57 0 -95 -27.5t-38 -123.5v-641q0 -57 -29 -112.5t-81 -98.5t-127 -69.5t-167 -26.5q-117 0 -176 24.5t-90 44.5q-14 10 -25.5 19.5t-11.5 29.5z" />
<glyph unicode="k" horiz-adv-x="1185" d="M41 20q0 23 25 23q66 0 93 29.5t27 120.5v735q0 88 -24.5 119.5t-89.5 31.5q-12 0 -18.5 7.5t-6.5 15.5q0 20 25 20q53 -4 103 -5t106 -1q61 0 122.5 1t114.5 5q10 0 17.5 -4t7.5 -16q0 -23 -27 -23q-80 0 -112.5 -30.5t-32.5 -120.5v-369l354 404q28 31 28 59 q1 10 -3 20q-14 36 -84 37q-23 0 -23 23q0 12 7 16t18 4q49 -4 93 -5t97 -1q49 0 81 1t73 5h5q7 0 12 -4q7 -6 7 -16q0 -23 -24 -23q-72 0 -126.5 -39t-101.5 -92l-213 -243l322 -494q51 -78 97 -116t106 -38q31 0 50 8.5t36 18.5q4 4 8 7t10 3q10 0 14 -13l2 -8 q0 -9 -8 -18q-31 -35 -87 -53t-115 -18q-109 0 -182.5 58t-137.5 157l-233 368q-20 -23 -41 -45t-41 -45v-284q2 -88 33.5 -119t111.5 -31q27 0 27 -23q0 -10 -7.5 -15t-17.5 -5q-53 4 -113.5 5t-115.5 1q-49 0 -110.5 -1t-112.5 -5q-25 0 -25 20z" />
<glyph unicode="l" horiz-adv-x="933" d="M41 20q0 23 22 23q43 0 68 10t38 29.5t16 47.5t3 63v739q0 86 -25.5 116.5t-90.5 30.5q-25 0 -25 23q0 20 27 20q59 -4 105 -5t97 -1t115 1t123 5q27 0 27 -20q0 -23 -25 -23q-76 0 -109.5 -27.5t-33.5 -123.5v-735q0 -78 26.5 -110t98.5 -32h196q78 0 130.5 53.5 t68.5 151.5q4 23 20 23q20 0 20 -18q0 -3 -1 -7q-10 -61 -17.5 -107.5t-13.5 -105.5q-4 -16 -10 -28.5t-35 -12.5h-793q-23 0 -22 20z" />
<glyph unicode="m" horiz-adv-x="1572" d="M43 20q0 23 25 23q63 0 97 31.5t40 118.5q4 53 8 114.5t8 126l8 129t9 121.5q8 137 18 277q1 9 1 18q-1 43 -17 69q-20 32 -101 31q-23 0 -22 23q0 20 26 20q27 -2 65 -2h80h84t77 2q45 -121 85.5 -230.5t81.5 -213t84 -204.5t88 -208q25 63 52.5 133t55.5 141.5 t56.5 143.5t53.5 135q59 152 118 303q62 -3 139 -3t169 3q25 0 24 -20q0 -23 -22 -23q-25 0 -45.5 -2t-34.5 -12q-15 -9 -21 -33q-5 -18 -5 -46q0 -9 1 -19l51 -774q6 -86 41 -118t99 -32q22 0 22 -21q0 -22 -22 -22q-53 4 -106.5 5t-102.5 1t-119 -1t-125 -5q-23 0 -23 20 q0 8 7.5 15.5t19.5 7.5q71 -1 99 27q24 23 23 92q0 14 -1 31l-51 819q-84 -203 -182.5 -455t-217.5 -551q-8 -18 -26 -18t-25 18q-55 131 -103 248t-93 228.5t-90.5 225t-96.5 236.5q-2 -35 -8 -125t-13 -201.5t-14.5 -226.5t-11.5 -198v-22q0 -75 24 -100q28 -28 99 -28 q25 0 25 -23q0 -20 -23 -20q-25 2 -42 3t-33.5 2t-35 1h-43.5q-47 0 -79.5 -1t-83.5 -5q-25 0 -25 20z" />
<glyph unicode="n" horiz-adv-x="1298" d="M16 20q0 23 29 23q66 0 101.5 29.5t35.5 120.5v735q0 88 -33.5 119.5t-99.5 31.5q-12 0 -18 7.5t-6 15.5t6 15q5 5 13 5h5q45 -4 81 -5t87 -1q29 0 74 1t84 5q66 -78 137.5 -163t142 -169.5t136 -164.5t119 -144.5t91 -110.5t52.5 -65v623q0 88 -39 119.5t-105 31.5 q-23 0 -22 23q0 20 22 20q47 -4 85 -5t91 -1q51 0 87 1t85 5q23 0 23 -20q0 -8 -5 -15.5t-15 -7.5q-29 0 -55.5 -5t-47 -21.5t-33 -46t-12.5 -78.5v-922q0 -10 -4 -18t-21 -8q-12 0 -28 18l-817 983v-788q0 -94 37.5 -122t107.5 -28q25 0 25 -23q0 -20 -23 -20q-49 4 -87 5 t-89 1q-47 0 -84 -1t-84 -5q-14 -2 -21.5 4t-7.5 16z" />
<glyph unicode="o" horiz-adv-x="1282" d="M72 561q0 104 37.5 208.5t110.5 187.5t178.5 134.5t242.5 51.5q139 0 245.5 -51.5t178.5 -134.5t108.5 -185t36.5 -207q0 -119 -41 -225.5t-114.5 -186t-179 -126.5t-234.5 -47q-133 0 -238.5 46t-179 125.5t-112.5 185t-39 224.5zM270 559q0 -246 87 -388t284 -142 q98 0 168 35.5t114 103.5t65.5 163t21.5 214q0 111 -18.5 211t-61.5 175t-114 119t-177 44q-104 0 -175 -44t-114 -118t-61.5 -171t-18.5 -202z" />
<glyph unicode="p" horiz-adv-x="952" d="M41 20q0 23 25 23q66 0 92 29.5t26 120.5v735q0 88 -24.5 119.5t-89.5 31.5q-10 0 -16.5 7.5t-6.5 15.5q0 20 25 20q59 -4 106 -5t98 -1h59.5t53.5 1t55.5 2t65.5 3h17q80 0 148 -18q75 -19 130 -57.5t86 -96t31 -129.5q0 -92 -37 -155.5t-96.5 -101.5t-135 -55 t-153.5 -17q-47 0 -78 4t-53 8v-311q0 -90 33.5 -120t113.5 -30q27 0 27 -23q0 -20 -27 -20q-55 4 -115.5 5t-115.5 1q-49 0 -107.5 -1t-111.5 -5q-25 0 -25 20zM369 551q29 -6 63.5 -10t63.5 -4q115 0 178 62.5t63 221.5q0 119 -60 188.5t-183 69.5q-35 0 -71 -5t-54 -11 v-512z" />
<glyph unicode="q" horiz-adv-x="1259" d="M72 561q0 104 37.5 208.5t109.5 187.5t178.5 134.5t243.5 51.5q139 0 246.5 -51.5t179.5 -134.5t108.5 -185.5t36.5 -206.5q0 -96 -27.5 -185t-78.5 -163t-124 -129t-163 -84q100 -10 208 -38.5t216 -63.5q135 -41 271.5 -76t263.5 -35q178 0 321.5 35t267.5 129 q12 8 19 8q20 0 20 -20q0 -8 -10 -19q-39 -37 -96 -85t-133 -92t-171 -73.5t-214 -29.5q-66 0 -140.5 15t-151.5 40t-150.5 53.5t-137.5 57.5q-66 27 -137.5 56.5t-144 52t-143 37.5t-136.5 15q-88 0 -173 -24.5t-157 -73.5q-8 -6 -18 -6q-25 0 -25 22q0 12 15 25 q35 29 88 50.5t104 35.5q-96 25 -172 79t-127 128t-77.5 164t-26.5 190zM270 559q0 -246 88 -388t283 -142q98 0 168 35.5t115 103.5t66.5 163t21.5 214q0 111 -18.5 211t-61.5 175t-115 119t-178 44q-104 0 -175 -44t-114 -118t-61.5 -171t-18.5 -202z" />
<glyph unicode="r" horiz-adv-x="1159" d="M41 20q0 23 22 23q68 0 95.5 29.5t27.5 120.5v735q0 88 -25.5 119.5t-90.5 31.5q-10 0 -16.5 7.5t-6.5 15.5q0 20 23 20q61 -4 109 -5t97 -1h50.5t51.5 1t61.5 2t80.5 3q17 1 34 1q67 0 126 -13q74 -16 128 -52t85 -90.5t31 -125.5q0 -109 -76 -189t-217 -108 q59 -84 115.5 -168t115.5 -166q53 -72 102.5 -113t106.5 -41q29 0 51.5 8.5t34.5 18.5q8 8 14 8q9 0 15 -12q2 -4 2 -9q0 -8 -6 -16q-29 -35 -88.5 -53t-118.5 -18q-106 0 -179 60t-137 155q-55 78 -108 160.5t-109 162.5q-14 0 -35.5 1t-37.5 3v-333q2 -88 33.5 -119 t111.5 -31q25 0 25 -23q0 -20 -23 -20q-53 4 -112.5 5t-116.5 1q-49 0 -110.5 -1t-113.5 -5q-23 0 -22 20zM369 573q25 -4 59.5 -5t63.5 -1q57 0 103 13.5t78 44t49 84t17 133.5q0 111 -65 174t-180 63q-49 0 -79 -6t-46 -10v-490z" />
<glyph unicode="s" horiz-adv-x="915" d="M72 842q0 61 28.5 115.5t78.5 95.5t119 65.5t151 24.5q76 0 146.5 -19.5t106.5 -36.5q10 -4 19.5 -13t9.5 -27q-4 -51 -4 -86t4 -91q0 -20 -22 -20q-20 0 -21 22q-8 115 -76.5 168.5t-162.5 53.5q-49 0 -96.5 -11.5t-83.5 -36t-58.5 -61.5t-22.5 -86q0 -72 48.5 -116 t122 -77.5t157.5 -64.5t158 -73t122 -102t48 -157q0 -86 -36 -148.5t-94.5 -102.5t-134 -59t-155.5 -19q-133 0 -212 30.5t-112 48.5q-23 12 -20 39q4 47 4 86t-4 99q0 10 7 16t15 6q18 0 23 -20q6 -39 22.5 -84t49 -83t88 -63.5t139.5 -25.5q53 0 103.5 12t90 36.5 t64.5 63.5t25 92q0 78 -47.5 125.5t-118 82t-152.5 63t-152.5 70.5t-117.5 104.5t-47 163.5z" />
<glyph unicode="t" horiz-adv-x="1032" d="M41 877q2 23 2 82t-2 118v8q-1 24 11 31q14 8 30 8q117 -4 227.5 -5t208.5 -1q94 0 205 1t225 5q18 0 30.5 -6t12.5 -28q0 -29 -1 -62t-1 -62.5t1 -54t1 -34.5q0 -27 -20 -27t-21 27q-14 86 -57 131t-148 45h-137v-860q0 -94 39 -122t109 -28q25 0 24 -23q0 -20 -22 -20 q-53 4 -121 5t-117 1t-115.5 -1t-117.5 -5q-27 0 -27 20q0 23 27 23q66 0 101.5 29.5t35.5 120.5v860h-139q-102 0 -145.5 -45t-57.5 -131q-2 -10 -6 -18.5t-17 -8.5q-12 0 -15 8t-3 19z" />
<glyph unicode="u" horiz-adv-x="1196" d="M31 1102q0 20 22 20q51 0 105.5 -3t107.5 -3q51 0 109.5 1t111.5 5q25 0 25 -20q0 -8 -6 -15.5t-17 -7.5q-29 0 -53 -5t-41.5 -21.5t-28 -46t-10.5 -78.5v-553q0 -160 63.5 -244t225.5 -84q51 0 108.5 12.5t105.5 48t80 101t32 170.5v545q0 90 -34 122.5t-97 32.5 q-25 0 -25 23q0 8 5 15q4 5 14 5h6q20 -2 44.5 -3t48 -2t43 -1h32.5q35 0 77.5 1t85.5 5h5q8 0 14 -5q6 -7 6 -15t-6 -15.5t-16 -7.5q-29 0 -53.5 -5t-42 -22.5t-27 -48t-9.5 -79.5v-551q0 -104 -32.5 -179t-88 -123t-127 -69.5t-149.5 -21.5q-231 0 -352 106.5t-121 292.5 v549q0 88 -26.5 119.5t-92.5 31.5q-10 0 -16 7.5t-6 15.5z" />
<glyph unicode="v" horiz-adv-x="1157" d="M2 1122q53 -4 107.5 -5t101.5 -1q59 0 113.5 1t109.5 5q27 0 27 -22q0 -20 -25 -21q-66 1 -88 -29q-12 -16 -12 -38q0 -17 8 -37l305 -725l281 708q8 22 8 40q0 27 -16 47q-28 34 -91 34q-31 0 -30 23q0 20 24 20q47 -4 84 -5t82 -1q41 0 76 1t80 5h7q10 0 16 -4 q8 -6 8 -16q0 -23 -31 -23q-43 0 -83 -23.5t-63 -82.5q-16 -39 -45.5 -110.5t-65.5 -160t-76 -187.5t-78 -192.5t-70.5 -176.5t-55.5 -138q-12 -28 -25 -28h-1q-10 0 -15.5 9t-13.5 25q-20 49 -30.5 75t-20.5 53.5t-27.5 70.5t-54.5 130t-100.5 231.5t-163.5 373.5 q-29 66 -66 98.5t-88 32.5q-24 0 -24 21q0 22 22 22z" />
<glyph unicode="w" horiz-adv-x="1816" d="M4 1122q53 -4 109.5 -5t103.5 -1q61 0 108.5 1t106.5 5q29 0 29 -22q0 -20 -27 -21q-66 1 -87 -31q-12 -18 -12 -39q0 -16 7 -34q37 -90 78 -184.5t82 -187.5t80 -183t75 -170q57 139 110.5 263t111.5 265q-14 35 -36 85t-38 85q-29 66 -64.5 97.5t-89.5 33.5 q-23 0 -22 23q0 20 22 20q47 -4 99.5 -5t103.5 -1q59 0 114.5 1t114.5 5q27 0 27 -22q0 -20 -25 -21q-66 1 -88 -31q-13 -18 -13 -40q0 -16 7 -33q72 -178 153 -364.5t165 -364.5l288 717q8 20 8 37q0 24 -15 44q-25 34 -99 35q-27 0 -27 23q0 20 25 20q43 -4 82 -5t84 -1 q41 0 74.5 1t78.5 5q29 0 29 -22q0 -20 -27 -21q-47 0 -82.5 -23.5t-60.5 -82.5q-12 -27 -34.5 -82t-51.5 -127t-62.5 -154t-68.5 -164q-80 -190 -172 -417q-10 -27 -17.5 -38t-23.5 -11t-25.5 16t-15.5 33q-70 172 -143.5 343t-145.5 339q-88 -211 -160.5 -386t-119.5 -296 q-8 -20 -16.5 -34.5t-22.5 -14.5t-22.5 13t-18.5 36q-96 221 -196.5 452.5t-194.5 466.5q-51 131 -152 131q-24 0 -24 21q0 22 24 22z" />
<glyph unicode="x" horiz-adv-x="1220" d="M6 43q94 0 187 127q49 61 85.5 110.5t71.5 95.5t72 97t86 117q-35 49 -80 113.5t-86 123.5q-49 68 -98 142q-43 57 -77 83.5t-83 26.5q-25 0 -25 23q0 20 25 20q51 -4 118.5 -5t119.5 -1q61 0 124.5 1t116.5 5q27 0 27 -22q0 -20 -27 -21q-59 1 -88 -35q-15 -18 -15 -40 q0 -19 13 -41q41 -72 89 -140.5t102 -136.5q35 47 60.5 80t47 61.5t42 56t44.5 64.5q19 26 19 50q0 21 -15 40q-31 41 -100 41q-31 0 -31 23q0 8 6 15q5 5 15 5h6q53 -4 104 -5t92 -1h44.5t38 1t38 2t45.5 3h7q11 0 17 -5q8 -7 7 -17q0 -20 -27 -21q-98 0 -194 -127 q-74 -98 -128 -170.5t-108 -144.5q47 -68 103.5 -146.5t103.5 -146.5q55 -80 111 -158q59 -74 106 -108.5t99 -34.5q25 0 24 -20q0 -23 -22 -23q-31 2 -66 3t-69.5 2t-68.5 1h-59q-59 0 -129.5 -1t-144.5 -5q-27 0 -27 23q0 20 25 20q90 2 116 48q10 18 9 37q0 31 -25 67 q-20 31 -47.5 70.5t-58.5 85.5t-63.5 95.5t-65.5 98.5q-43 -57 -76 -102.5t-62.5 -85.5t-58 -80t-63.5 -87q-20 -27 -19.5 -53t18 -46.5t47 -34t68.5 -13.5q31 0 31 -20q0 -23 -27 -23q-53 2 -112.5 3t-104.5 1h-84t-94 -4q-4 -1 -8 -1q-20 0 -20 19q0 25 26 25z" />
<glyph unicode="y" horiz-adv-x="1044" d="M6 1126q102 -6 195 -6q127 0 237 6q10 0 18.5 -5t8.5 -17q0 -23 -27 -23q-59 0 -86 -31q-12 -16 -12 -35q0 -20 14 -44q68 -106 127.5 -203.5t118.5 -187.5q29 47 59.5 98t60.5 101t55.5 96.5t43.5 80.5q13 25 13 47q0 20 -10 38q-23 38 -99 40q-18 0 -24.5 7.5 t-6.5 17.5q0 21 20 21q4 0 9 -1q86 -6 172 -6q39 0 67.5 1t75.5 5q4 1 7 1q22 0 22 -23t-29 -23q-45 -2 -75.5 -26.5t-63.5 -77.5l-274 -463v-321q0 -94 33.5 -122t103.5 -28q12 0 18 -7t6 -16q0 -20 -24 -20q-53 4 -114.5 6t-110.5 2t-106.5 -2t-109.5 -6q-25 0 -24 20 q0 23 24 23q66 0 94.5 29.5t28.5 117.5v324q-80 123 -145.5 228.5t-136.5 215.5q-41 57 -73 88t-81 35q-26 0 -26 23q0 22 26 22z" />
<glyph unicode="z" horiz-adv-x="1017" d="M43 18q-1 4 -1 8q0 13 9 27q113 168 208 311.5t177 267.5t151.5 232.5t133.5 206.5h-354q-86 0 -131.5 -52t-61.5 -153q-4 -25 -22 -24q-10 0 -16.5 8t-4.5 18q8 57 13.5 106.5t11.5 102.5q2 16 9 30.5t36 14.5h712q27 0 33 -17.5t-4 -33.5q-111 -162 -205 -301 t-177 -264t-155.5 -236.5t-140.5 -218.5h473q86 0 133.5 58.5t63.5 164.5q4 20 22 21q8 0 14 -6q5 -5 5 -12l-15 -119q-6 -54 -12 -113q-4 -20 -14 -32.5t-39 -12.5h-819q-29 0 -33 18z" />
<glyph unicode="{" horiz-adv-x="550" d="M72 700q0 25 22.5 38.5t38.5 29.5q33 35 46.5 80t13.5 129q0 127 10 257t37.5 236.5t74.5 173t121 66.5q18 0 28.5 -7t11.5 -16.5t-4 -16.5t-17 -7q-78 0 -97 -170q-12 -86 -14 -214t-2 -302q0 -70 -22.5 -119t-53 -82t-60.5 -51t-44 -25q14 -6 44 -24.5t60.5 -51 t53 -81.5t22.5 -119q0 -174 2 -302t14 -214q18 -170 97 -170q10 0 17 -7.5t5 -17.5q-10 -23 -41 -22q-74 0 -121 66.5t-74.5 173t-37.5 236.5t-10 257q0 66 -10.5 122t-63.5 103q-10 10 -28.5 22.5t-18.5 28.5z" />
<glyph unicode="|" horiz-adv-x="491" d="M205 0v1497h82v-1497h-82z" />
<glyph unicode="}" horiz-adv-x="550" d="M74 -287q-2 10 5 17.5t17 7.5q78 0 97 170q10 86 12 214t2 302q0 70 22.5 119t53 81.5t61.5 51t45 24.5q-14 6 -45 24.5t-61.5 51.5t-53 82t-22.5 119q0 174 -2 302t-12 214q-18 170 -97 170q-12 0 -17 7t-4 16.5t11 16.5t29 7q74 0 121 -66.5t74.5 -173t37.5 -236.5 t10 -257q0 -84 13.5 -129t46.5 -80q16 -16 38.5 -29.5t22.5 -38.5q0 -16 -18.5 -28.5t-28.5 -22.5q-53 -47 -63.5 -103.5t-10.5 -121.5q0 -127 -10 -257t-37.5 -236.5t-75 -173t-120.5 -66.5q-33 -1 -41 22z" />
<glyph unicode="~" horiz-adv-x="1456" d="M426 788q20 137 76.5 203t146.5 66q41 0 82 -22.5t83 -49.5t84 -49.5t81 -22.5q27 0 50.5 13.5t44 34t35.5 44t26 44.5q4 6 6 6q4 0 4 -6q-16 -141 -75.5 -208t-151.5 -67q-37 0 -78 22.5t-83 50t-84 50.5t-79 23q-63 0 -97 -37t-53 -101q-4 -10 -12 -10t-6 16z" />
<glyph unicode="&#xa1;" horiz-adv-x="526" d="M154 1020q0 47 31.5 77.5t78.5 30.5t78 -30.5t31 -77.5t-31 -79t-78 -32t-78.5 32t-31.5 79zM166 -410l8 80t13.5 147t16.5 196.5t16 231.5t14.5 249.5t9.5 250.5q0 29 19.5 32t21.5 -32q10 -340 26.5 -600t38.5 -458q4 -29 0 -42.5t-28 -29.5q-8 -6 -24.5 -12t-33 -12.5 t-31 -12.5t-22.5 -12q-23 -14 -36 -14.5t-9 38.5z" />
<glyph unicode="&#xa2;" horiz-adv-x="913" d="M41 899q0 84 34 157.5t92 132t135 97.5t165 51v205q0 14 8 21.5t17.5 7.5t16.5 -7.5t7 -21.5v-199h8q86 0 150.5 -12t105.5 -24q39 -12 46.5 -23.5t7.5 -48.5q0 -55 1 -78.5t1 -40.5q0 -20 -17 -20q-10 0 -14 9t-4 19q0 45 -23.5 78t-61.5 54.5t-88 31.5t-106 10h-6v-788 q61 2 117.5 17.5t100.5 44t70.5 69.5t31.5 94q4 23 20 20t14 -26q-2 -18 -3 -27.5t-2 -17.5t-2 -19.5t-1 -33.5q0 -25 1 -40.5t-15 -25.5q-68 -57 -157 -78.5t-175 -23.5v-318q0 -14 -7 -21t-16.5 -7t-17.5 7t-8 21v322q-94 10 -173 44t-135.5 90t-87 131t-30.5 167z M160 911q0 -68 20.5 -133t59.5 -119.5t96 -93.5t131 -51v774q-61 -12 -117.5 -45t-98.5 -82t-66.5 -112.5t-24.5 -137.5z" />
<glyph unicode="&#xa3;" horiz-adv-x="1130" d="M61 831v66h238q-20 47 -37.5 104.5t-17.5 141.5q0 70 25.5 138.5t77.5 121.5t132 87t191 34q98 0 179 -24.5t128 -47.5q14 -6 25.5 -17.5t9.5 -33.5q-2 -29 -2 -53.5v-51v-57.5t2 -74q0 -23 -23 -22q-23 0 -22 24q-10 156 -91 229.5t-206 73.5q-82 0 -133.5 -24.5 t-79 -60t-36.5 -77.5t-9 -77q0 -53 17 -99.5t41 -87t50.5 -76.5t44.5 -71h357v-66h-320q35 -61 57.5 -135.5t22.5 -181.5q0 -111 -32 -187.5t-60 -121.5q35 -12 75 -31.5t81.5 -38t82.5 -31t76 -12.5q76 0 113 24.5t53 59.5q10 16 21 17q10 0 15 -10.5t-1 -26.5 q-25 -74 -96.5 -128.5t-165.5 -54.5q-43 0 -87 13.5t-86 32t-79 37t-62 28.5q-41 -47 -103 -79t-124 -32q-72 0 -124 32t-52 95q0 35 15.5 65t43 53.5t63.5 36.5t79 13q53 0 99 -12t77 -23q8 25 12 62t4 67q0 76 -20.5 134.5t-50 112t-63.5 106.5t-62 116h-263zM182 90 q0 -29 31 -54.5t92 -25.5q57 0 96 30t64 73q-35 23 -76 39t-82 16q-59 0 -92 -22.5t-33 -55.5z" />
<glyph unicode="&#xa4;" horiz-adv-x="1480" d="M-92 666q0 31 41 30h117q0 57 1 86t5 54h-123q-41 0 -41 32q0 31 41 31h133q29 135 101.5 249t178 198t237.5 131t280 47q76 0 131 -6.5t98 -15.5t78 -20.5t69 -23.5q33 -10 51.5 -20.5t26.5 -22.5t9 -29.5t1 -42.5v-102t5 -121q0 -25 -23 -24q-20 0 -22 26 q-10 164 -124 256t-302 92q-113 0 -206 -39.5t-164 -113.5t-117 -179.5t-62 -238.5h514q41 0 41 -31q0 -33 -41 -32h-520q-2 -23 -3.5 -51.5t-1.5 -88.5h353q41 0 41 -30q0 -33 -41 -33h-351q8 -129 40 -240.5t95.5 -192.5t162 -127t239.5 -46q111 0 200 30.5t154.5 87 t104.5 136t49 176.5q4 25 25 24q20 0 20 -24q-4 -70 -3 -124t3 -122q0 -18 -4 -28.5t-14 -18.5q-98 -86 -236.5 -138.5t-298.5 -52.5q-164 0 -301 46.5t-238.5 132.5t-165 207.5t-79.5 273.5h-123q-41 0 -41 33z" />
<glyph unicode="&#xa5;" horiz-adv-x="1357" d="M-20 1475q0 23 26 22q57 -4 124 -7t132 -3q78 0 156 3t149 7q14 2 22.5 -6t8.5 -18q0 -25 -29 -25q-86 0 -124.5 -39t-0.5 -102q25 -41 64 -105.5t84 -137.5t93 -147.5t91 -138.5q37 61 76 129t76 133.5t69.5 126t57.5 107.5q45 86 8 129t-141 45q-16 0 -24.5 8t-8.5 19 q0 10 7 17t24 5q57 -4 120.5 -5t120.5 -1q51 0 89 1t96 5q16 2 24 -6t8 -18t-7 -17.5t-23 -7.5q-59 -2 -107.5 -34t-89.5 -107l-229 -408h268v-63h-303l-80 -142h383v-63h-385v-377q0 -66 11 -107t33.5 -63.5t57.5 -30.5t80 -8q12 0 18.5 -7t6.5 -15q0 -23 -23 -23 q-70 4 -146.5 7t-142.5 3t-140.5 -3t-139.5 -7q-14 0 -20.5 7t-6.5 16q0 23 27 22q86 0 126 41t40 164v381h-387v63h383q-23 37 -45.5 72t-44.5 70h-293v63h252q-72 115 -129.5 208t-110.5 175q-27 41 -49.5 71.5t-45 51t-49 31t-61.5 12.5q-12 0 -19 8t-7 19z" />
<glyph unicode="&#xa6;" horiz-adv-x="491" d="M205 0v694h82v-694h-82zM205 877v620h82v-620h-82z" />
<glyph unicode="&#xa7;" horiz-adv-x="999" d="M61 809q0 53 12.5 97t31 80t38 61.5t31.5 39.5q-6 23 -8 45.5t-2 49.5q0 74 28.5 136t76.5 108.5t110.5 72t132.5 25.5q49 0 83 -8.5t64.5 -19.5t60.5 -22.5t68 -19.5q12 -2 21.5 -5t7.5 -19q-4 -16 -4 -33v-58q0 -23 2 -60.5t2 -92.5q0 -18 -15.5 -18.5t-15.5 20.5 q0 80 -22.5 136t-60 92t-88 52.5t-103.5 16.5q-51 0 -100.5 -18.5t-87 -51.5t-60 -75t-22.5 -89q0 -49 18.5 -87t47 -68.5t66.5 -54t75 -44.5q70 -37 154.5 -74.5t159.5 -88t125 -119t50 -164.5q0 -104 -32.5 -177t-59.5 -102q8 -23 13 -45t5 -49q0 -84 -34.5 -148.5 t-91 -107.5t-129 -65.5t-150.5 -22.5q-98 0 -183.5 26.5t-166.5 80.5q-25 16 -23 45q4 49 4 107.5t-4 119.5q-2 20 12.5 20t16.5 -16q4 -53 19.5 -113.5t53 -111.5t103 -85t170.5 -34q53 0 107.5 15.5t100.5 45t74.5 73.5t28.5 102q0 49 -22.5 88t-58.5 69.5t-78 54 t-78 41.5q-72 35 -155 72t-153.5 87t-118 119t-47.5 169zM158 891q0 -59 26.5 -108.5t67.5 -89.5t94 -70.5t105 -55.5q123 -55 222 -111.5t142 -125.5q18 37 22.5 71.5t4.5 67.5q0 59 -30 108.5t-76 89.5t-101.5 70.5t-108.5 55.5q-123 55 -206.5 111.5t-122.5 125.5 q-16 -39 -27.5 -72.5t-11.5 -66.5z" />
<glyph unicode="&#xa8;" d="M365 1298q0 31 22.5 53.5t52.5 22.5q31 0 53.5 -22.5t22.5 -53.5t-22.5 -53t-53.5 -22t-53 22t-22 53zM596 1298q0 31 22.5 53.5t53.5 22.5t53.5 -22.5t22.5 -53.5t-23 -53t-53 -22q-31 0 -53.5 22t-22.5 53z" />
<glyph unicode="&#xa9;" horiz-adv-x="1716" d="M82 748q0 160 61.5 301t167 246.5t246.5 167t301 61.5t301 -61.5t246.5 -167t167 -247t61.5 -300.5q0 -160 -61.5 -301.5t-167 -247t-246.5 -166t-301 -60.5t-301 60.5t-246.5 166t-167 247t-61.5 301.5zM156 748q0 -145 55 -274.5t150.5 -224.5t223.5 -150.5t273 -55.5 t273.5 55.5t223.5 150.5t150.5 224t55.5 275q0 145 -55.5 274t-150.5 225t-223.5 151.5t-273.5 55.5t-273 -55.5t-223.5 -151.5t-150.5 -225t-55 -274zM309 745q0 119 46 222.5t126 180.5t186.5 121t227.5 44q55 0 95 -4t72 -11.5t57.5 -15.5t49.5 -16q47 -16 55.5 -31.5 t8.5 -52.5v-73t4 -87q0 -18 -16 -18q-14 0 -17 18q-10 119 -92 185.5t-217 66.5q-92 0 -167 -37t-127 -105.5t-80.5 -166t-28.5 -217.5q0 -106 18 -201.5t63 -165.5t121 -111t189 -41q158 0 254 86t110 226q4 18 19 18q16 0 16 -18q-4 -49 -4 -89t4 -87q0 -23 -16 -35 q-70 -59 -168.5 -98t-214.5 -39q-129 0 -234.5 38.5t-181.5 110.5t-117 174t-41 229z" />
<glyph unicode="&#xaa;" horiz-adv-x="960" d="M61 756q0 20 25 20q59 0 92 76q68 156 135.5 318.5t130.5 330.5q4 12 11.5 23.5t17.5 11.5t17.5 -12.5t13.5 -26.5q16 -37 35.5 -83t41 -97t45 -104.5t44.5 -102.5q51 -117 106 -242q20 -41 45 -66.5t58 -25.5q20 0 20 -20q0 -18 -20 -19q-29 0 -69 2t-75 2 q-41 0 -76.5 -2t-74.5 -2q-20 0 -21 21q0 18 21 18q41 0 55 21.5t4 48.5q-25 55 -50.5 115.5t-49.5 117.5h-213q-23 -53 -44.5 -108.5t-43.5 -108.5q-16 -37 1 -61.5t62 -24.5q27 0 27 -18q0 -20 -23 -21q-33 0 -62.5 2t-58.5 2t-49 -2t-53 -2q-10 0 -17.5 4t-7.5 15z M66 571v72h829v-72h-829zM346 1124h180l-92 207z" />
<glyph unicode="&#xab;" horiz-adv-x="724" d="M72 559q66 72 124 159t105 165q53 90 98 180q14 25 31 24q16 0 19.5 -14t-0.5 -31q-14 -43 -36 -99t-48.5 -120.5t-57.5 -131t-63 -132.5q66 -129 118 -258t82 -223q6 -16 2 -30.5t-18 -14.5q-17 -1 -31 26q-45 90 -98 181q-45 78 -103.5 163.5t-123.5 155.5zM326 559 q57 61 107 136t89 141q45 78 84 153q12 23 27 23q12 0 16 -11.5t0 -27.5q-25 -78 -68.5 -187.5t-103.5 -226.5q29 -53 54.5 -113.5t48 -118t39 -105.5t26.5 -77q4 -14 -1 -23t-15 -9q-15 0 -25 18q-39 76 -84 154q-39 66 -88 140.5t-106 133.5z" />
<glyph unicode="&#xac;" horiz-adv-x="1656" d="M72 750q0 137 48 275t140 248.5t227.5 180.5t311.5 70q180 0 316 -69t227.5 -178.5t137.5 -246.5t46 -274q0 -135 -37 -259t-106.5 -225.5t-170 -173t-227.5 -102.5q74 -68 130 -117t110.5 -79.5t112 -46t130.5 -15.5q29 0 53.5 10t34.5 14q14 8 17.5 -2t-4.5 -16 q-43 -33 -93.5 -44t-91.5 -11q-88 0 -169.5 28.5t-153.5 71.5t-132.5 93t-107.5 93q-166 -4 -304 48.5t-236.5 154t-153.5 246.5t-55 326zM238 748q0 -170 38.5 -306.5t110.5 -231.5t176.5 -146.5t235.5 -51.5t235.5 54.5t177 150.5t111.5 227t39 285q0 145 -35 280.5 t-104.5 242t-176 170t-249.5 63.5q-141 0 -247 -61.5t-175.5 -163t-103 -234.5t-33.5 -278z" />
<glyph unicode="&#xad;" horiz-adv-x="663" d="M65 583.5q-6 18.5 1.5 40t26 40t44.5 18.5h432q25 0 30 -18.5t-2 -40t-23.5 -40t-38.5 -18.5h-441q-23 0 -29 18.5z" />
<glyph unicode="&#xae;" horiz-adv-x="1437" d="M115 920q0 125 47 235.5t129 192.5t192.5 129t235.5 47t235.5 -47t192.5 -129t129 -193t47 -235q0 -125 -47 -236t-129 -192.5t-192.5 -129t-235.5 -47.5t-235.5 47.5t-192.5 129t-129 192.5t-47 236zM180 920q0 -113 42 -211.5t115 -172t171 -116.5t211 -43t211 43 t171 116.5t114.5 172t41.5 211.5t-41.5 211t-114.5 171.5t-171 116.5t-211 43t-211 -43t-171 -116.5t-115 -172t-42 -210.5zM410 590q0 8 14 8q41 0 59.5 21.5t18.5 85.5v477q0 59 -17.5 81.5t-58.5 22.5q-12 0 -12 10q0 14 12 11q33 -2 63.5 -3t65.5 -1h65.5t90.5 4 q109 6 181.5 -40t72.5 -141q0 -72 -48.5 -123t-140.5 -69l150 -221q35 -51 64.5 -77t66.5 -26q39 0 57 19q4 4 6 4q6 0 8 -6t-2 -15q-16 -18 -53 -31.5t-74 -13.5q-70 0 -113.5 40t-84.5 100l-139 213q-10 0 -24.5 1t-25.5 1v-217q0 -61 21.5 -84t71.5 -23q14 0 14 -8 q0 -10 -12 -10q-35 2 -72 4t-74 2q-31 0 -68.5 -2t-68.5 -4q-14 0 -14 10zM612 950q14 -4 38 -5t42 -1q74 0 118 38t44 144q0 74 -44 117t-116 43q-35 0 -54 -4t-28 -8v-324z" />
<glyph unicode="&#xaf;" d="M313 1239v82h465v-82h-465z" />
<glyph unicode="&#xb0;" horiz-adv-x="497" d="M61 1315q0 39 14.5 72.5t40 59.5t60.5 41t74 15q78 0 132 -55t54 -133t-54 -133.5t-132 -55.5q-39 0 -74 15.5t-60.5 41t-40 59.5t-14.5 73zM129 1315q0 -47 36 -84t85 -37q47 0 83 37t36 84t-36 84t-83 37q-49 0 -85 -37t-36 -84z" />
<glyph unicode="&#xb1;" horiz-adv-x="927" d="M82 352v78h764v-78h-764zM82 768v78h340v237h80v-237h344v-78h-344v-262h-80v262h-340z" />
<glyph unicode="&#xb2;" horiz-adv-x="800" d="M82 573.5q-4 8.5 6 18.5q18 14 35.5 27.5t46.5 46.5q57 66 116.5 141.5t108.5 156t80 160.5t31 150q0 88 -46 129t-116 41q-29 0 -59.5 -9.5t-56 -25.5t-43 -42t-23.5 -60q-4 -16 -17 -17q-16 0 -12 17q4 41 8 73.5t-4 73.5q-4 14 3 20.5t16 10.5q35 16 90 31.5t114 15.5 q68 0 123.5 -19.5t93 -53.5t59 -78t21.5 -95q0 -74 -37.5 -146.5t-101 -149.5t-142.5 -159.5t-163 -175.5q47 0 78 -1t61.5 -1h65.5t90 2q47 2 80 19.5t54.5 42t33.5 51.5t16 47q0 14 15 14q20 0 12 -18q-12 -66 -20.5 -117t-10.5 -98q0 -16 -12 -23.5t-25 -5.5q-2 0 -43 1 t-96 3t-111.5 3t-89.5 1q-98 0 -146 -3t-67 -5q-12 -2 -16 6.5z" />
<glyph unicode="&#xb3;" horiz-adv-x="782" d="M98.5 651.5q-0.5 10.5 5.5 20.5q14 23 26.5 57.5t21.5 56.5q6 10 14 11q6 0 11 -4.5t3 -12.5q-6 -25 -10 -51q-2 -25 9 -50.5t35 -47t59.5 -34.5t80.5 -13q111 0 174.5 70.5t63.5 222.5q0 68 -16.5 112.5t-41 71t-54 37t-58.5 10.5q-41 0 -66.5 -11.5t-36.5 -25.5 q-12 -16 -26 -5t4 34q37 49 65.5 88t55 73.5t53.5 71.5t61 82q-27 0 -44 1t-32.5 1h-32.5h-46q-59 0 -97 -4t-59.5 -15.5t-30 -28.5t-6.5 -46q0 -16 -14 -16t-14 20q0 49 -1 84t-5 70q-2 16 3 23t23 7q35 -4 85 -6t128 -2h60.5t51 1t53.5 2t67 3q12 0 17 -8t-3 -18 q-18 -27 -48 -67t-64 -85t-69.5 -91t-66.5 -87q10 4 25.5 6t31.5 2q53 0 106.5 -19.5t95.5 -54t68.5 -86t26.5 -112.5q0 -94 -38.5 -158.5t-97 -104.5t-126.5 -57.5t-125 -17.5q-72 0 -128 18.5t-113 61.5q-14 10 -14.5 20.5z" />
<glyph unicode="&#xb4;" d="M561 1257l17.5 35t24.5 50.5t27.5 58.5t26.5 59q4 6 17 6h90q6 0 10 -6t-4 -14q-6 -8 -28.5 -35t-50 -57.5t-57.5 -60.5t-50 -46q-10 -8 -18.5 -4t-4.5 14z" />
<glyph unicode="&#xb5;" horiz-adv-x="1196" d="M31 1102q0 20 22 20q51 0 105.5 -3t107.5 -3q51 0 109.5 1t111.5 5q25 0 25 -20q0 -8 -6 -15.5t-17 -7.5q-29 0 -53 -5t-41.5 -21.5t-28 -46t-10.5 -78.5v-553q0 -160 63.5 -244t225.5 -84q51 0 108.5 12.5t105.5 48t80 101t32 170.5v545q0 90 -34 122.5t-97 32.5 q-25 0 -25 23q0 8 5 15t20 5q20 -2 44.5 -3t48 -2t43 -1h32.5q35 0 77.5 1t85.5 5q12 2 18.5 -5t6.5 -15t-6 -15.5t-16 -7.5q-29 0 -53.5 -5t-42 -22.5t-27 -48t-9.5 -79.5v-551q0 -104 -32.5 -179t-88 -123t-127 -69.5t-149.5 -21.5q-90 0 -162.5 16t-126.5 55v-465h-184 v1342q0 88 -26.5 119.5t-92.5 31.5q-10 0 -16 7.5t-6 15.5z" />
<glyph unicode="&#xb6;" horiz-adv-x="1394" d="M82 950q0 145 43 249t110.5 170.5t149.5 98t162 31.5q49 0 114.5 -5t124.5 -7q70 -2 137.5 4t106.5 6q27 0 23 -16q0 -16 -25 -17q-51 0 -86 -7t-56.5 -29.5t-31.5 -64.5t-10 -112v-1314q0 -63 -20.5 -98.5t-60.5 -52.5t-101.5 -20.5t-141.5 -3.5q-20 0 -22 16.5t24 16.5 q45 0 81 4t60.5 19.5t38 47.5t13.5 85v512q-23 -16 -70 -27.5t-117 -11.5q-66 0 -143.5 28.5t-145 92t-112.5 163t-45 242.5zM233 944q0 -135 30 -226t77 -147.5t104.5 -80t112.5 -23.5q39 0 66.5 6t46.5 12q10 4 17 7.5t13 7.5q6 2 15 6v794q0 53 -14.5 84t-38 47.5 t-55.5 21.5t-68 5q-70 0 -126.5 -27.5t-96.5 -89t-61.5 -159t-21.5 -238.5zM792.5 -311.5q0.5 16.5 28.5 16.5q92 0 130 51t38 166v1290q0 66 17.5 101t48 52t75 20.5t95.5 3.5q25 0 24 -17q0 -16 -22 -16h-42t-40 -13q-16 -10 -25.5 -39.5t-9.5 -89.5v-168v-216.5t1 -243.5 t1 -248t1 -228.5t3 -187.5q0 -70 8.5 -112.5t27.5 -65.5t52 -31t82 -8q27 0 27 -16.5t-25 -16.5q-33 0 -58.5 2t-50 3t-50 3.5t-58.5 2.5q-76 0 -146.5 -5.5t-103.5 -5.5q-29 0 -28.5 16.5z" />
<glyph unicode="&#xb7;" horiz-adv-x="614" d="M199 805q0 47 30.5 78.5t77.5 31.5t79 -31.5t32 -78.5t-32 -78t-79 -31t-77.5 31t-30.5 78z" />
<glyph unicode="&#xb8;" horiz-adv-x="1228" d="M472 -288q3 7 12.5 11.5t19.5 0.5q14 -4 41.5 -11.5t52.5 -7.5q33 0 68.5 19.5t35.5 60.5q0 33 -25.5 49t-53.5 16q-33 0 -62 -18l-8 6l72 158h51l-49 -109q29 6 51 7q49 0 87 -28t38 -79q0 -35 -18.5 -58.5t-47 -39t-63.5 -22.5t-66 -7q-63 0 -119 23q-14 6 -17 14t0 15 z" />
<glyph unicode="&#xb9;" horiz-adv-x="546" d="M78 1411q0 12 28 23q49 18 98.5 39.5t92.5 46.5q8 4 18.5 10t20.5 6q18 0 18 -27v-782q0 -82 26 -106.5t83 -24.5q14 0 14 -14t-12 -15q-45 2 -91 4t-87 2t-90.5 -2t-90.5 -4q-18 0 -18 15q0 14 18 14q53 0 80 25.5t27 105.5v627q0 59 -45 59q-23 0 -41 -8t-33 -8 q-16 0 -16 14z" />
<glyph unicode="&#xba;" horiz-adv-x="942" d="M82 1130q0 72 25.5 144t74.5 128t122 92t167 36q96 0 169 -35t122 -92t73.5 -127t24.5 -141q0 -82 -27.5 -155t-79 -128t-123 -87t-159.5 -32q-90 0 -162.5 32t-123 86t-77 126t-26.5 153zM94 571v72h754v-72h-754zM223 1130q0 -166 62.5 -261t185.5 -95 q121 0 183.5 93.5t62.5 252.5q0 74 -14.5 141.5t-44 118t-75.5 80t-112 29.5q-63 0 -110.5 -29.5t-78 -80t-45 -115t-14.5 -134.5z" />
<glyph unicode="&#xbb;" horiz-adv-x="724" d="M76 973q-4 16 0 27.5t16 11.5q16 0 27 -23q39 -76 84 -153q39 -66 89 -140.5t107 -136.5q-55 -59 -105 -134t-89 -140q-45 -78 -84 -154q-10 -18 -25 -18q-10 0 -15 9t-1 23q10 29 26.5 77t39 105.5t48 118t54.5 113.5q-59 117 -103.5 226.5t-68.5 187.5zM275.5 1072.5 q3.5 14.5 19.5 14.5t31 -24q47 -90 100 -180q47 -78 104.5 -165t122.5 -159q-63 -70 -122.5 -156t-104.5 -163q-53 -91 -98 -181q-12 -27 -31 -26q-14 0 -18.5 14t2.5 31q31 94 83 223t117 258q-33 66 -63.5 132.5t-57 131t-48 120.5t-36.5 99q-4 16 -0.5 30.5z" />
<glyph unicode="&#xbc;" horiz-adv-x="1501" d="M82 1411q0 12 29 23q49 18 98 39.5t92 46.5q8 4 18.5 10t20.5 6q18 0 18 -27v-782q0 -82 26 -106.5t83 -24.5q14 0 14 -14t-12 -15q-45 2 -91 4t-87 2t-90 -2t-90 -4q-18 0 -19 15q0 14 19 14q53 0 79.5 25.5t26.5 105.5v627q0 59 -45 59q-23 0 -41 -8t-33 -8 q-16 0 -16 14zM354 -61q72 180 155 388t165 419.5t159.5 415.5t141.5 374h90q-76 -184 -157 -384t-159.5 -403.5t-155.5 -408.5t-144 -401h-95zM719 256q0 14 8 25q43 78 103.5 168t127 182t132 179t118.5 159q10 12 23 12q16 0 16 -18v-654q37 0 61.5 2t40 8.5t25.5 18.5 t19 33q6 8 14 8q6 0 10 -5t0 -14q-16 -35 -23.5 -65t-11.5 -53q0 -12 -18 -13q-23 2 -52.5 2h-64.5v-69q0 -78 25.5 -105.5t85.5 -27.5q16 0 16 -17q0 -12 -12 -12q-41 0 -103.5 2t-103.5 2t-76 -1t-69 -3q-18 0 -19 14q0 14 19 15q37 0 57 10t29.5 28.5t10.5 42t1 50.5v73 h-86q-68 0 -137.5 -1t-134.5 -1q-31 0 -31 25zM797 307h84h71.5t71.5 1t86 1v457q-92 -117 -171 -233.5t-142 -225.5z" />
<glyph unicode="&#xbd;" horiz-adv-x="1589" d="M82 1411q0 12 29 23q49 18 98 39.5t92 46.5q8 4 18.5 10t20.5 6q18 0 18 -27v-782q0 -82 26 -106.5t83 -24.5q14 0 14 -14t-12 -15q-45 2 -91 4t-87 2t-90 -2t-90 -4q-18 0 -19 15q0 14 19 14q53 0 79.5 25.5t26.5 105.5v627q0 59 -45 59q-23 0 -41 -8t-33 -8 q-16 0 -16 14zM354 -61q72 180 155 388t165 419.5t159.5 415.5t141.5 374h90q-76 -184 -157 -384t-159.5 -403.5t-155.5 -408.5t-144 -401h-95zM868.5 6q-4.5 8 5.5 19q18 14 36 27.5t46 45.5q57 66 117 141.5t109 156.5t79.5 161t30.5 150q0 88 -46 129t-116 41 q-29 0 -59.5 -9.5t-56 -26t-43 -42t-23.5 -60.5q-4 -16 -16 -16q-16 0 -12 16q4 41 8 74t-4 74q-4 14 3 20t15 11q35 16 90.5 31.5t114.5 15.5q68 0 123 -19.5t93 -53.5t59.5 -78t21.5 -95q0 -74 -38 -146.5t-101.5 -149.5t-142.5 -160t-163 -175q47 0 78 -1t61.5 -1h65.5 t90 2q47 2 80 19.5t54.5 42t34 51t16.5 47.5q0 14 14 14q20 0 12 -18q-12 -66 -20 -117t-10 -98q0 -16 -12.5 -23.5t-24.5 -5.5q-2 0 -43 1t-96.5 3t-112 3t-88.5 1q-98 0 -146.5 -3t-66.5 -5q-12 -2 -16.5 6z" />
<glyph unicode="&#xbe;" horiz-adv-x="1740" d="M92 651.5q0 10.5 6 20.5q14 23 26.5 57.5t20.5 56.5q6 10 15 11q6 0 11 -4.5t3 -12.5q-6 -25 -10 -51q-2 -25 9 -50.5t34.5 -47t59.5 -34.5t81 -13q111 0 174.5 70.5t63.5 222.5q0 68 -16.5 112.5t-41 71t-54.5 37t-58 10.5q-41 0 -66.5 -11.5t-36.5 -25.5 q-12 -16 -26.5 -5t4.5 34q37 49 65.5 88t55 73.5t53.5 71.5t61 82q-27 0 -44 1t-32.5 1h-33h-45.5q-59 0 -97 -4t-59.5 -15.5t-30 -28.5t-6.5 -46q0 -16 -14 -16t-14 20q0 49 -1.5 84t-5.5 70q-2 16 3.5 23t23.5 7q35 -4 85 -6t128 -2h60.5t51 1t53 2t66.5 3q12 0 17.5 -8 t-2.5 -18q-18 -27 -48 -67t-64 -85t-69.5 -91t-66.5 -87q10 4 25.5 6t31.5 2q53 0 106.5 -19.5t95.5 -54t68.5 -86t26.5 -112.5q0 -94 -39 -158.5t-97 -104.5t-126 -57.5t-125 -17.5q-72 0 -128 18.5t-114 61.5q-14 10 -14 20.5zM584 -61q72 180 154.5 388t164.5 419.5 t160 415.5t141 374h90q-76 -184 -156.5 -384t-159.5 -403.5t-156 -408.5t-144 -401h-94zM948 256q0 14 8 25q43 78 103.5 168t127 182t132 179t119.5 159q10 12 22 12q16 0 17 -18v-654q37 0 61.5 2t39.5 8.5t25.5 18.5t18.5 33q6 8 14 8q6 0 10.5 -5t0.5 -14 q-16 -35 -23.5 -65t-11.5 -53q0 -12 -19 -13q-23 2 -52.5 2h-63.5v-69q0 -78 25.5 -105.5t84.5 -27.5q16 0 17 -17q0 -12 -13 -12q-41 0 -103.5 2t-103.5 2t-75.5 -1t-69.5 -3q-18 0 -18 14t18 15q37 0 57.5 10t29.5 28.5t10 42t1 50.5v73h-86q-68 0 -137.5 -1t-134.5 -1 q-31 0 -31 25zM1026 307h84h72t71.5 1t85.5 1v457q-92 -117 -170.5 -233.5t-142.5 -225.5z" />
<glyph unicode="&#xbf;" horiz-adv-x="1110" d="M154 -55q0 78 37.5 142.5t95 119.5t125 103t125 96.5t95.5 99.5t38 108q0 43 -15.5 76t-38.5 64q-14 25 3.5 36t37.5 -12q29 -33 47.5 -74.5t18.5 -101.5q0 -63 -25.5 -117.5t-65.5 -103.5t-85 -97t-85 -98.5t-65.5 -105.5t-25.5 -121q2 -104 69.5 -173t204.5 -69 q57 0 103.5 17.5t80 47.5t54 67.5t26.5 78.5q2 10 8.5 14.5t14.5 3.5t13 -6.5t3 -13.5q-4 -23 -6 -51.5t-2 -59t3 -60t9 -50.5q8 -29 -8 -41t-33 -22q-45 -23 -118.5 -42.5t-182.5 -19.5q-90 0 -173 24.5t-145.5 70.5t-100 115t-37.5 155zM514 1016q0 47 33 79.5t80 32.5 q53 0 82.5 -32.5t29.5 -79.5t-32.5 -80t-79.5 -33t-80 33t-33 80z" />
<glyph unicode="&#xc0;" horiz-adv-x="0" />
<glyph unicode="&#xc1;" horiz-adv-x="1476" d="M-8 23.5q0 -9.5 8 -16.5t25 -7q57 4 97 5t91 1q57 0 117.5 -1t115.5 -5q14 0 22.5 7t8.5 16.5t-8 17.5t-25 8q-104 0 -137 50.5t-6 115.5l174 442h422l193 -460q27 -61 -6 -104.5t-119 -43.5q-14 0 -20.5 -8t-6.5 -17.5t7 -16.5t22 -7q35 2 76.5 4t86 3t88 2t82.5 1 q66 0 112 -3t104 -7q12 0 18 7t5 16.5t-7 17.5t-19 8q-131 0 -204 178l-510 1221q-10 25 -17.5 46.5t-25.5 21.5q-14 0 -21.5 -18.5t-19.5 -47.5q-117 -295 -217 -549q-43 -109 -86 -218.5t-82 -204.5t-70 -170t-47 -113q-33 -78 -82 -112t-108 -34q-14 0 -22.5 -8 t-8.5 -17.5zM500 727l180 451l192 -451h-372zM739 1630l17.5 35t25 50.5t27.5 58t27 59.5q4 6 16 6h90q6 0 10 -6t-4 -14q-6 -8 -28.5 -35t-50 -57.5t-57.5 -60.5t-50 -46q-10 -8 -18.5 -4t-4.5 14z" />
<glyph unicode="&#xc2;" horiz-adv-x="1519" d="M-8 23.5q0 9.5 8 17.5t23 8q59 0 108 34t82 112q16 39 47 113.5t70 169.5t82 205t86 218q100 254 217 549q12 29 19 47.5t22 18.5q18 0 25 -21.5t18 -46.5l510 -1221q74 -178 204 -178q12 0 18.5 -8t7.5 -17.5t-5 -16.5t-18 -7q-57 4 -103.5 7t-112.5 3q-39 0 -82.5 -1 t-88 -2t-86.5 -3t-76 -4q-14 0 -21.5 7t-7.5 16.5t6 17.5t21 8q86 0 118.5 43t6.5 105l-193 460h-422l-174 -442q-27 -66 6 -116t137 -50q16 0 24.5 -8t8.5 -17.5t-8 -16.5t-23 -7q-55 4 -115.5 5t-117.5 1q-51 0 -91 -1t-97 -5q-16 0 -24.5 7t-8.5 16.5zM500 727h372 l-192 451zM557 1610q-4 8 6 18q37 29 79 72t65 96q4 10 12 10h67q8 0 9.5 -3t5.5 -7q20 -43 64 -91t79 -75q10 -8 9 -18t-17 -10q-18 0 -47 17t-56.5 39.5t-51 44t-29.5 28.5q-6 -6 -29 -28t-50.5 -44.5t-54 -39.5t-43.5 -17q-14 0 -18 8z" />
<glyph unicode="&#xc3;" horiz-adv-x="1519" d="M-8 23.5q0 9.5 8 17.5t23 8q59 0 108 34t82 112q16 39 47 113.5t70 169.5t82 205t86 218q100 254 217 549q12 29 19 47.5t22 18.5q18 0 25 -21.5t18 -46.5l510 -1221q74 -178 204 -178q12 0 18.5 -8t7.5 -17.5t-5 -16.5t-18 -7q-57 4 -103.5 7t-112.5 3q-39 0 -82.5 -1 t-88 -2t-86.5 -3t-76 -4q-14 0 -21.5 7t-7.5 16.5t6 17.5t21 8q86 0 118.5 43t6.5 105l-193 460h-422l-174 -442q-27 -66 6 -116t137 -50q16 0 24.5 -8t8.5 -17.5t-8 -16.5t-23 -7q-55 4 -115.5 5t-117.5 1q-51 0 -91 -1t-97 -5q-16 0 -24.5 7t-8.5 16.5zM500 727h372 l-192 451zM578 1622q20 141 118 141q18 0 39 -11t42.5 -23.5t42 -23.5t36.5 -11q23 0 41 20.5t27 40.5q6 16 15 12t7 -18q-8 -72 -38.5 -107.5t-80.5 -35.5q-20 0 -41.5 11t-42 23.5t-40 23.5t-35.5 11q-27 0 -40.5 -17.5t-23.5 -43.5q-6 -18 -18.5 -16.5t-7.5 24.5z" />
<glyph unicode="&#xc4;" horiz-adv-x="1519" d="M-8 23.5q0 9.5 8 17.5t23 8q59 0 108 34t82 112q16 39 47 113.5t70 169.5t82 205t86 218q100 254 217 549q12 29 19 47.5t22 18.5q18 0 25 -21.5t18 -46.5l510 -1221q74 -178 204 -178q12 0 18.5 -8t7.5 -17.5t-5 -16.5t-18 -7q-57 4 -103.5 7t-112.5 3q-39 0 -82.5 -1 t-88 -2t-86.5 -3t-76 -4q-14 0 -21.5 7t-7.5 16.5t6 17.5t21 8q86 0 118.5 43t6.5 105l-193 460h-422l-174 -442q-27 -66 6 -116t137 -50q16 0 24.5 -8t8.5 -17.5t-8 -16.5t-23 -7q-55 4 -115.5 5t-117.5 1q-51 0 -91 -1t-97 -5q-16 0 -24.5 7t-8.5 16.5zM500 727h372 l-192 451zM561 1698q0 31 22.5 53.5t53.5 22.5t53.5 -22.5t22.5 -53.5t-22.5 -53.5t-53.5 -22.5t-53.5 22.5t-22.5 53.5zM793 1698q0 31 22.5 53.5t52.5 22.5q31 0 53.5 -22.5t22.5 -53.5t-22.5 -53.5t-53.5 -22.5t-53 22.5t-22 53.5z" />
<glyph unicode="&#xc5;" horiz-adv-x="1519" d="M-8 23.5q0 9.5 8 17.5t23 8q59 0 108 34t82 112q16 39 47 113.5t70 169.5t82 205t86 218q100 254 217 549q12 29 19 47.5t22 18.5q18 0 25 -21.5t18 -46.5l510 -1221q74 -178 204 -178q12 0 18.5 -8t7.5 -17.5t-5 -16.5t-18 -7q-57 4 -103.5 7t-112.5 3q-39 0 -82.5 -1 t-88 -2t-86.5 -3t-76 -4q-14 0 -21.5 7t-7.5 16.5t6 17.5t21 8q86 0 118.5 43t6.5 105l-193 460h-422l-174 -442q-27 -66 6 -116t137 -50q16 0 24.5 -8t8.5 -17.5t-8 -16.5t-23 -7q-55 4 -115.5 5t-117.5 1q-51 0 -91 -1t-97 -5q-16 0 -24.5 7t-8.5 16.5zM500 727h372 l-192 451zM625 1739q0 53 36.5 90t90.5 37q53 0 90 -37t37 -90t-37 -90t-90 -37t-90 37t-37 90zM668 1739q0 -35 24.5 -60.5t59.5 -25.5t60.5 25.5t25.5 60.5t-25.5 59.5t-60.5 24.5t-59.5 -24.5t-24.5 -59.5z" />
<glyph unicode="&#xc6;" horiz-adv-x="2109" d="M-47 25q0 25 29 24q66 0 128 42t113 110q25 31 82 104.5t133 174t164 217t176 233.5t170 223.5t144 185.5q-6 59 -46 86t-106 27q-12 0 -18.5 7t-6.5 16q0 23 25 22h1024q29 0 38 -11t9 -34q-2 -47 -2 -78v-57v-73t2 -85q0 -23 -22 -22q-8 0 -15.5 6t-7.5 16 q0 131 -43 206t-162 75h-436v-637q78 0 158 4q68 4 147.5 8t151.5 8q55 4 72.5 54.5t17.5 121.5q0 10 7 16.5t15 6.5q10 0 17.5 -6t7.5 -17v-452q0 -23 -23 -23q-10 0 -17 6.5t-7 18.5q0 74 -20.5 128t-77.5 58q-49 4 -125 6t-148 7q-84 4 -176 4v-498q0 -109 33 -153 t131 -44h303q98 0 155.5 66.5t57.5 214.5q0 12 7 18t16 6q23 0 22 -24q-2 -41 -2 -71.5v-59.5v-59.5t2 -77.5q0 -37 -12.5 -53.5t-44.5 -16.5h-1061q-12 0 -18.5 7t-6.5 16q0 23 25 22q57 0 90 14.5t50.5 42t22.5 65.5t5 87v403h-434q-6 -8 -43 -57t-85.5 -113.5t-99.5 -134 t-90 -123.5q-16 -23 -27.5 -45t-11.5 -51q0 -41 33 -62.5t86 -21.5q16 0 22.5 -7t6.5 -17t-6.5 -17.5t-18.5 -7.5q-59 4 -126.5 5t-125.5 1q-51 0 -95 -1t-101 -5q-31 0 -31 25zM715 723h385v510z" />
<glyph unicode="&#xc7;" horiz-adv-x="1509" d="M74 739q0 164 63.5 307.5t174 249t259 167t316.5 61.5q76 0 131 -6.5t98 -15.5t78 -20.5t70 -23.5q33 -10 51 -20.5t26.5 -22.5t9.5 -29.5t1 -42.5v-102t4 -121q0 -25 -23 -24q-20 0 -22 26q-10 164 -124 256t-302 92q-129 0 -232.5 -51t-176.5 -146t-111.5 -230.5 t-38.5 -301.5q0 -150 25.5 -279.5t88 -226t166 -152.5t258.5 -56q111 0 200 30.5t154.5 87t104.5 136t49 176.5q4 25 25 24q20 0 20 -24q-4 -70 -4 -125t4 -121q0 -31 -18 -47q-98 -86 -236.5 -138.5t-298.5 -52.5q-178 0 -323.5 54.5t-250 154t-160.5 241.5t-56 316z M656 -288q3 7 12.5 11.5t19.5 0.5q14 -4 42 -11.5t52 -7.5q33 0 69 19.5t36 60.5q0 33 -25.5 49t-54.5 16q-33 0 -62 -18l-8 6l72 158h51l-49 -109q29 6 51 7q49 0 87 -28t38 -79q0 -35 -18.5 -58.5t-47 -39t-63.5 -22.5t-65 -7q-63 0 -119 23q-14 6 -17.5 14t-0.5 15z" />
<glyph unicode="&#xc8;" horiz-adv-x="1198" d="M31 23q0 23 24 22q57 0 90 14.5t50.5 42t22.5 65.5t5 87v995q0 119 -36.5 161t-123.5 42q-12 0 -18 7t-6 16q0 23 24 22h1024q35 0 42.5 -15.5t5.5 -41.5q-2 -43 -2 -77v-64.5t1 -63.5t1 -76q0 -23 -23 -22q-8 0 -15 6t-7 16q0 131 -43 206t-162 75h-436v-637q78 0 157 4 q68 4 148 8t151 8q55 4 72.5 54.5t17.5 121.5q0 10 7.5 16.5t15.5 6.5q10 0 17 -6t7 -17v-452q0 -23 -22 -23q-10 0 -17.5 6.5t-7.5 18.5q0 74 -20.5 128t-77.5 58q-49 4 -125 6t-147 7q-84 4 -176 4v-498q0 -109 32.5 -153t130.5 -44h303q98 0 155.5 66.5t57.5 214.5 q0 12 7.5 18t15.5 6q23 0 23 -24q-2 -41 -2.5 -71.5t-0.5 -59.5v-58.5t3 -68.5q2 -41 -10.5 -60.5t-47.5 -19.5h-1061q-12 0 -18 7t-6 16zM467 1829q4 6 10 6h90q12 0 17 -6q12 -29 26.5 -59.5t27.5 -58.5t24.5 -50.5t17.5 -34.5q4 -10 -4.5 -14t-18.5 4q-20 16 -49.5 46 t-57.5 60.5t-50.5 57t-28.5 35.5q-8 8 -4 14z" />
<glyph unicode="&#xc9;" horiz-adv-x="1198" d="M31 23q0 -8 6 -15.5t18 -7.5h1061q35 0 47.5 19.5t10.5 60.5q-2 39 -2.5 68.5t-0.5 58.5v59.5t3 71.5q0 25 -23 24q-8 0 -15.5 -6t-7.5 -18q0 -147 -57 -214t-156 -67h-303q-98 0 -130.5 44t-32.5 153v498q92 0 176 -4q72 -4 147.5 -6.5t124.5 -6.5q57 -4 77.5 -58 t20.5 -128q0 -12 7.5 -18.5t17.5 -6.5q23 0 22 23v452q0 10 -7 16.5t-17 6.5q-8 0 -15.5 -6t-7.5 -17q0 -72 -17 -122t-73 -54q-72 -4 -151.5 -8t-147.5 -8q-80 -4 -157 -4v637h436q119 0 162 -75t43 -206q0 -10 7 -16t15 -6q23 0 23 22q0 43 -1 76t-1 63.5v64.5t2 77 q2 27 -5.5 42t-42.5 15h-1024q-25 0 -24 -22q0 -8 6 -15.5t18 -7.5q86 0 123 -42t37 -161v-995q0 -49 -5 -87t-22.5 -65.5t-50 -42t-90.5 -14.5q-25 0 -24 -22zM604 1630l17.5 35t24.5 50.5t27.5 58t26.5 59.5q4 6 17 6h90q6 0 10 -6t-4 -14q-6 -8 -28.5 -35t-50 -57.5 t-57.5 -60.5t-50 -46q-10 -8 -18.5 -4t-4.5 14z" />
<glyph unicode="&#xca;" horiz-adv-x="1198" d="M31 23q0 23 24 22q57 0 90 14.5t50.5 42t22.5 65.5t5 87v995q0 119 -36.5 161t-123.5 42q-12 0 -18 7t-6 16q0 23 24 22h1024q35 0 42.5 -15.5t5.5 -41.5q-2 -43 -2 -77v-64.5t1 -63.5t1 -76q0 -23 -23 -22q-8 0 -15 6t-7 16q0 131 -43 206t-162 75h-436v-637q78 0 157 4 q68 4 148 8t151 8q55 4 72.5 54.5t17.5 121.5q0 10 7.5 16.5t15.5 6.5q10 0 17 -6t7 -17v-452q0 -23 -22 -23q-10 0 -17.5 6.5t-7.5 18.5q0 74 -20.5 128t-77.5 58q-49 4 -125 6t-147 7q-84 4 -176 4v-498q0 -109 32.5 -153t130.5 -44h303q98 0 155.5 66.5t57.5 214.5 q0 12 7.5 18t15.5 6q23 0 23 -24q-2 -41 -2.5 -71.5t-0.5 -59.5v-58.5t3 -68.5q2 -41 -10.5 -60.5t-47.5 -19.5h-1061q-12 0 -18 7t-6 16zM479.5 1618q-4.5 8 5.5 18q37 29 79 72t65 96q4 10 12 11h68q8 0 9 -3.5t5 -7.5q20 -43 64 -91t79 -75q10 -8 9 -18t-17 -10 q-18 0 -47 17.5t-56.5 40t-51 44t-29.5 27.5q-6 -6 -28.5 -27.5t-50.5 -44t-54.5 -40t-42.5 -17.5q-14 0 -18.5 8z" />
<glyph unicode="&#xcb;" horiz-adv-x="1198" d="M31 23q0 23 24 22q57 0 90 14.5t50.5 42t22.5 65.5t5 87v995q0 119 -36.5 161t-123.5 42q-12 0 -18 7t-6 16q0 23 24 22h1024q35 0 42.5 -15.5t5.5 -41.5q-2 -43 -2 -77v-64.5t1 -63.5t1 -76q0 -23 -23 -22q-8 0 -15 6t-7 16q0 131 -43 206t-162 75h-436v-637q78 0 157 4 q68 4 148 8t151 8q55 4 72.5 54.5t17.5 121.5q0 10 7.5 16.5t15.5 6.5q10 0 17 -6t7 -17v-452q0 -23 -22 -23q-10 0 -17.5 6.5t-7.5 18.5q0 74 -20.5 128t-77.5 58q-49 4 -125 6t-147 7q-84 4 -176 4v-498q0 -109 32.5 -153t130.5 -44h303q98 0 155.5 66.5t57.5 214.5 q0 12 7.5 18t15.5 6q23 0 23 -24q-2 -41 -2.5 -71.5t-0.5 -59.5v-58.5t3 -68.5q2 -41 -10.5 -60.5t-47.5 -19.5h-1061q-12 0 -18 7t-6 16zM461 1688q0 31 22.5 53t53.5 22t53 -22.5t22 -52.5q0 -31 -22.5 -53.5t-52.5 -22.5q-31 0 -53.5 22.5t-22.5 53.5zM692 1688 q0 31 22.5 53t53.5 22t53.5 -22.5t22.5 -52.5q0 -31 -22.5 -53.5t-53.5 -22.5t-53.5 22.5t-22.5 53.5z" />
<glyph unicode="&#xcc;" horiz-adv-x="638" d="M14 23q0 23 27 22q43 0 73.5 9t51 33t30 63.5t9.5 103.5v989q0 121 -36 165t-122 44q-12 0 -18 7t-6 18q0 20 24 20q66 -4 133.5 -7t136.5 -3q66 0 140.5 3t146.5 7q27 0 27 -22q0 -8 -6.5 -15.5t-18.5 -7.5q-39 0 -70.5 -7t-55 -29.5t-37 -63.5t-13.5 -109v-989 q0 -66 10.5 -107t33 -63.5t56 -30.5t78.5 -8q12 0 18.5 -7t6.5 -15q0 -23 -23 -23q-70 4 -146.5 7t-141.5 3q-66 0 -141 -3t-140 -7q-14 0 -20.5 7t-6.5 16zM123 1829q4 6 10 6h90q12 0 17 -6q12 -29 26.5 -59.5t27.5 -58.5t24.5 -50.5t17.5 -34.5q4 -10 -4.5 -14t-18.5 4 q-20 16 -50 46t-57.5 60.5t-50 57t-28.5 35.5q-8 8 -4 14z" />
<glyph unicode="&#xcd;" horiz-adv-x="638" d="M14 23q0 -8 6.5 -15.5t20.5 -7.5q66 4 140.5 7t140.5 3t142.5 -3t145.5 -7q23 0 23 23q0 8 -6 15t-19 7q-45 0 -78.5 8t-56 30.5t-33 63.5t-10.5 107v989q0 68 13.5 109t37 63.5t55 29.5t70.5 7q12 0 18.5 7t6.5 16q0 23 -27 22q-72 -4 -146.5 -7t-140.5 -3q-70 0 -137 3 t-133 7q-25 0 -24 -20q0 -10 6 -17.5t18 -7.5q86 0 122 -44t36 -165v-989q0 -63 -9.5 -103t-30 -64t-51 -33t-73.5 -9q-27 0 -27 -22zM319 1628l17.5 35t25 50.5t27.5 58t27 59.5q4 6 16 6h90q6 0 10.5 -6t-4.5 -14q-6 -8 -28.5 -35t-50 -57.5t-57.5 -60.5t-50 -46 q-10 -8 -18.5 -4t-4.5 14z" />
<glyph unicode="&#xce;" horiz-adv-x="638" d="M14 23q0 23 27 22q43 0 73.5 9t51 33t30 63.5t9.5 103.5v989q0 121 -36 165t-122 44q-12 0 -18 7t-6 18q0 20 24 20q66 -4 133.5 -7t136.5 -3q66 0 140.5 3t146.5 7q27 0 27 -22q0 -8 -6.5 -15.5t-18.5 -7.5q-39 0 -70.5 -7t-55 -29.5t-37 -63.5t-13.5 -109v-989 q0 -66 10.5 -107t33 -63.5t56 -30.5t78.5 -8q12 0 18.5 -7t6.5 -15q0 -23 -23 -23q-70 4 -146.5 7t-141.5 3q-66 0 -141 -3t-140 -7q-14 0 -20.5 7t-6.5 16zM131.5 1616q-4.5 8 5.5 18q37 29 79 72t65 96q4 10 12 10h67q8 0 9.5 -3t5.5 -7q20 -43 64 -91t79 -75q10 -8 9 -18 t-17 -10q-18 0 -47 17t-56.5 40t-51 44.5t-29.5 27.5q-6 -6 -29 -27.5t-50.5 -44.5t-54 -40t-42.5 -17q-14 0 -18.5 8z" />
<glyph unicode="&#xcf;" horiz-adv-x="638" d="M14 23q0 23 27 22q43 0 73.5 9t51 33t30 63.5t9.5 103.5v989q0 121 -36 165t-122 44q-12 0 -18 7t-6 18q0 20 24 20q66 -4 133.5 -7t136.5 -3q66 0 140.5 3t146.5 7q27 0 27 -22q0 -8 -6.5 -15.5t-18.5 -7.5q-39 0 -70.5 -7t-55 -29.5t-37 -63.5t-13.5 -109v-989 q0 -66 10.5 -107t33 -63.5t56 -30.5t78.5 -8q12 0 18.5 -7t6.5 -15q0 -23 -23 -23q-70 4 -146.5 7t-141.5 3q-66 0 -141 -3t-140 -7q-14 0 -20.5 7t-6.5 16zM131 1686q0 31 22.5 53t53.5 22t53.5 -22.5t22.5 -52.5q0 -31 -22.5 -53.5t-53.5 -22.5t-53.5 22.5t-22.5 53.5z M362 1686q0 31 23 53t53 22q31 0 53.5 -22.5t22.5 -52.5q0 -31 -22.5 -53.5t-53.5 -22.5t-53.5 22.5t-22.5 53.5z" />
<glyph unicode="&#xd0;" horiz-adv-x="1576" d="M-31 801.5q0 15.5 11.5 28t33.5 12.5h205v401q0 121 -36 165t-122 44q-12 0 -18 7t-6 18q0 20 24 20q72 -4 135.5 -7t133.5 -3q72 0 153.5 5t153.5 5q190 0 329.5 -40t235.5 -103.5t155.5 -144.5t92.5 -162.5t44 -156.5t11 -128q0 -195 -71.5 -339t-193.5 -239.5 t-284.5 -141.5t-345.5 -44q-74 0 -138 6t-138 6q-66 0 -139.5 -3t-139.5 -7q-14 0 -20 7t-6 16q0 23 26 22q43 0 74 9t51.5 33t29.5 63.5t9 103.5v508h-205q-23 0 -34 12t-11 27.5zM444 90q59 -16 131 -27.5t121 -11.5q152 0 258.5 64.5t174 165t98 223.5t30.5 239 q0 164 -32.5 293t-106.5 220.5t-193.5 139.5t-293.5 48q-23 0 -50.5 -1t-53 -2t-48 -3t-35.5 -4v-592h336q23 0 34 -12.5t11 -28t-11 -27.5t-34 -12h-336v-672z" />
<glyph unicode="&#xd1;" horiz-adv-x="1658" d="M14 23q0 23 27 22q43 0 73.5 9t51 33t30 63.5t9.5 103.5v989q0 121 -36 165t-122 44q-12 0 -18 7t-6 18q0 20 24 20q33 -2 56.5 -3t45 -3t45 -3t58.5 -1q39 0 95.5 3t105.5 7q86 -104 179 -219t183 -227.5t174 -218t151.5 -191.5t116 -146.5t66.5 -84.5v833 q0 121 -45 165t-131 44q-12 0 -18.5 7t-6.5 18q0 20 25 20q33 -2 59.5 -3t51 -3t51 -3t61.5 -1q33 0 56.5 1t47 3t49 3t62.5 3q27 0 27 -22q0 -8 -6.5 -15.5t-18.5 -7.5q-39 0 -70.5 -7t-55 -29.5t-37 -63.5t-13.5 -109v-1241q0 -10 -5 -19.5t-22 -9.5q-18 0 -34 23 l-1057 1317v-1059q0 -66 10 -107t32.5 -63.5t56.5 -30.5t79 -8q12 0 18.5 -7t6.5 -15q0 -23 -23 -23q-35 2 -60.5 4t-50 3l-49 2t-57.5 1q-63 0 -106.5 -3t-108.5 -7q-14 0 -20.5 7t-6.5 16zM686 1620q20 141 119 141q18 0 38.5 -11t42 -23.5t42 -23.5t37.5 -11 q23 0 41 20.5t26 40.5q6 16 15.5 12t7.5 -18q-8 -72 -39 -107.5t-80 -35.5q-20 0 -42 11t-42.5 23.5t-39.5 23.5t-36 11q-27 0 -40 -17.5t-23 -43.5q-6 -18 -18.5 -16.5t-8.5 24.5z" />
<glyph unicode="&#xd2;" horiz-adv-x="1597" d="M55 748q0 139 49.5 277t142.5 248.5t230 180.5t314 70q180 0 317 -70t230.5 -181.5t140.5 -249.5t47 -275q0 -160 -52.5 -301.5t-148.5 -246t-231 -166t-303 -61.5q-172 0 -308.5 61.5t-231.5 167t-145.5 246t-50.5 300.5zM305 748q0 -166 27.5 -300.5t87 -227.5 t151 -143t220.5 -50t221 52t151.5 147.5t87 227.5t27.5 294q0 150 -23.5 280.5t-81 229t-152 155.5t-233.5 57q-137 0 -230 -60t-149.5 -159.5t-80 -230.5t-23.5 -272zM604 1839q4 6 10 6h91q12 0 16 -6q12 -29 26.5 -59.5t27.5 -58t24.5 -50t17.5 -35.5q4 -10 -4 -14t-18 4 q-20 16 -50 46t-58 60.5t-50.5 57.5t-28.5 35q-8 8 -4 14z" />
<glyph unicode="&#xd3;" horiz-adv-x="1597" d="M55 748q0 -160 50.5 -300.5t145.5 -246t231.5 -167t308.5 -61.5q168 0 303 61.5t231 166t148.5 246t52.5 301.5q0 137 -47 275t-140.5 249.5t-230.5 181.5t-317 70q-176 0 -313.5 -70t-230.5 -180.5t-142.5 -248.5t-49.5 -277zM305 748q0 141 23.5 272t80 230.5 t149.5 159.5t230 60q139 0 233.5 -57t152 -155.5t81 -229.5t23.5 -280q0 -162 -27.5 -294t-87 -227.5t-151.5 -147.5t-221 -52t-220.5 50t-151 143t-87 227.5t-27.5 300.5zM782 1632l17.5 35t25 50.5t27.5 58t27 59.5q4 6 16 6h90q6 0 10 -6t-4 -14q-6 -8 -28.5 -35 t-50 -57.5t-57.5 -60.5t-50 -46q-10 -8 -18.5 -4t-4.5 14z" />
<glyph unicode="&#xd4;" horiz-adv-x="1597" d="M55 748q0 139 49.5 277t142.5 248.5t230 180.5t314 70q180 0 317 -70t230.5 -181.5t140.5 -249.5t47 -275q0 -160 -52.5 -301.5t-148.5 -246t-231 -166t-303 -61.5q-172 0 -308.5 61.5t-231.5 167t-145.5 246t-50.5 300.5zM305 748q0 -166 27.5 -300.5t87 -227.5 t151 -143t220.5 -50t221 52t151.5 147.5t87 227.5t27.5 294q0 150 -23.5 280.5t-81 229t-152 155.5t-233.5 57q-137 0 -230 -60t-149.5 -159.5t-80 -230.5t-23.5 -272zM594 1624q-4 8 6 18q37 29 79 72t64 96q4 10 13 11h67q8 0 9.5 -3t5.5 -8q20 -43 64 -91t79 -74 q10 -8 9 -18.5t-17 -10.5q-18 0 -47 17.5t-56.5 40t-51 44t-30.5 27.5q-6 -6 -28.5 -27.5t-50 -44t-54 -40t-43.5 -17.5q-14 0 -18 8z" />
<glyph unicode="&#xd5;" horiz-adv-x="1597" d="M55 748q0 139 49.5 277t142.5 248.5t230 180.5t314 70q180 0 317 -70t230.5 -181.5t140.5 -249.5t47 -275q0 -160 -52.5 -301.5t-148.5 -246t-231 -166t-303 -61.5q-172 0 -308.5 61.5t-231.5 167t-145.5 246t-50.5 300.5zM305 748q0 -166 27.5 -300.5t87 -227.5 t151 -143t220.5 -50t221 52t151.5 147.5t87 227.5t27.5 294q0 150 -23.5 280.5t-81 229t-152 155.5t-233.5 57q-137 0 -230 -60t-149.5 -159.5t-80 -230.5t-23.5 -272zM610 1634q20 141 119 142q18 0 38.5 -11.5t42 -23.5t42 -23.5t37.5 -11.5q23 0 41 20.5t26 40.5 q6 16 15.5 12t7.5 -18q-8 -72 -39 -107.5t-80 -35.5q-20 0 -41.5 11t-42 23.5t-40 24t-36.5 11.5q-27 0 -40 -17.5t-23 -44.5q-6 -18 -18.5 -16t-8.5 24z" />
<glyph unicode="&#xd6;" horiz-adv-x="1597" d="M55 748q0 139 49.5 277t142.5 248.5t230 180.5t314 70q180 0 317 -70t230.5 -181.5t140.5 -249.5t47 -275q0 -160 -52.5 -301.5t-148.5 -246t-231 -166t-303 -61.5q-172 0 -308.5 61.5t-231.5 167t-145.5 246t-50.5 300.5zM305 748q0 -166 27.5 -300.5t87 -227.5 t151 -143t220.5 -50t221 52t151.5 147.5t87 227.5t27.5 294q0 150 -23.5 280.5t-81 229t-152 155.5t-233.5 57q-137 0 -230 -60t-149.5 -159.5t-80 -230.5t-23.5 -272zM598 1698q0 31 22.5 53.5t53.5 22.5t53.5 -22.5t22.5 -53.5t-22.5 -53.5t-53.5 -22.5t-53.5 22.5 t-22.5 53.5zM829 1698q0 31 22.5 53.5t53.5 22.5t53.5 -22.5t22.5 -53.5t-22.5 -53.5t-53.5 -22.5t-53.5 22.5t-22.5 53.5z" />
<glyph unicode="&#xd7;" horiz-adv-x="770" d="M82 547l252 250l-242 241l55 56l242 -240l236 233l53 -55l-232 -235l242 -244l-55 -55l-244 243l-250 -249z" />
<glyph unicode="&#xd8;" horiz-adv-x="1613" d="M72 748q0 139 49 277t142 248.5t230.5 180.5t313.5 70q109 0 200 -25.5t169 -73.5q23 39 47 82t41 68h104q-23 -35 -57.5 -92.5t-63.5 -104.5q74 -57 129.5 -129.5t92 -155.5t55 -171t18.5 -174q0 -160 -52 -301.5t-148.5 -246t-231.5 -166t-303 -61.5 q-102 0 -190.5 21.5t-163.5 62.5q-23 -39 -43.5 -76.5t-42.5 -78.5h-109q31 53 61.5 102t61.5 96q-150 104 -229.5 274.5t-79.5 373.5zM322 748q0 -174 29.5 -310.5t92.5 -230.5q162 268 332 555t348 581q-57 59 -135 93t-184 34q-137 0 -230.5 -60t-149.5 -159.5 t-79.5 -230.5t-23.5 -272zM500 141q115 -115 307 -114q129 0 221 52t151.5 147.5t87 227.5t27.5 294q0 154 -25.5 290t-88.5 234q-184 -299 -353.5 -577.5t-326.5 -553.5z" />
<glyph unicode="&#xd9;" horiz-adv-x="1511" d="M-45 1477q0 20 25 20q66 -2 133 -6t137 -4q66 0 141.5 4t145.5 6q27 0 26 -22q0 -8 -6 -15.5t-18 -7.5q-39 0 -71 -7t-55.5 -29.5t-37 -63.5t-13.5 -109v-749q0 -109 19.5 -193t65 -140.5t118 -86t178.5 -29.5q68 0 145 17.5t143.5 66.5t109.5 138t43 233v739 q0 121 -45 167t-131 46q-12 0 -18.5 7t-6.5 18q0 8 6 15t19 5q59 -4 117.5 -7t93.5 -3q45 0 92 3t114 7q27 0 27 -22q0 -8 -6 -15.5t-19 -7.5q-39 0 -70.5 -7t-54 -30.5t-36 -65.5t-13.5 -110v-741q0 -141 -43 -240.5t-113.5 -163t-162.5 -92.5t-191 -29 q-299 0 -452.5 140.5t-153.5 390.5v739q0 121 -35.5 165t-121.5 44q-12 0 -18.5 7t-6.5 18zM584 1824.5q4 6.5 10 6.5h90q12 0 16 -6q12 -29 26.5 -59.5t28 -58.5t25 -50.5t17.5 -34.5q4 -10 -4.5 -14t-18.5 4q-20 16 -50 46t-57.5 60.5t-50 57t-28.5 34.5q-8 8 -4 14.5z " />
<glyph unicode="&#xda;" horiz-adv-x="1511" d="M-45 1477q0 -10 6 -17.5t19 -7.5q86 0 121.5 -44t35.5 -165v-739q0 -250 153.5 -390.5t452.5 -140.5q98 0 190.5 29t163 92.5t113.5 162.5t43 241v741q0 68 13.5 110t36 65.5t54.5 30.5t70 7q12 0 18.5 7t6.5 16q0 23 -27 22q-68 -4 -114.5 -7t-91.5 -3q-35 0 -93.5 3 t-117.5 7q-12 2 -18.5 -5t-6.5 -15q0 -10 6 -17.5t19 -7.5q86 0 131 -46t45 -167v-739q0 -143 -43 -232.5t-109.5 -138.5t-143.5 -66.5t-145 -17.5q-106 0 -178.5 29.5t-118 86t-65 140.5t-19.5 193v749q0 68 13.5 109t37 63.5t55.5 29.5t71 7q12 0 18 7t6 16q0 23 -26 22 q-70 -2 -146 -6t-141 -4q-70 0 -137.5 4t-132.5 6q-25 0 -25 -20zM782 1624q6 12 17.5 34.5t25 50.5t27.5 58.5t27 59.5q4 6 16 6h90q6 0 10 -6t-4 -15q-6 -8 -28.5 -34.5t-50 -57t-57.5 -60.5t-50 -46q-10 -8 -18.5 -4t-4.5 14z" />
<glyph unicode="&#xdb;" horiz-adv-x="1511" d="M-45 1477q0 20 25 20q66 -2 133 -6t137 -4q66 0 141.5 4t145.5 6q27 0 26 -22q0 -8 -6 -15.5t-18 -7.5q-39 0 -71 -7t-55.5 -29.5t-37 -63.5t-13.5 -109v-749q0 -109 19.5 -193t65 -140.5t118 -86t178.5 -29.5q68 0 145 17.5t143.5 66.5t109.5 138t43 233v739 q0 121 -45 167t-131 46q-12 0 -18.5 7t-6.5 18q0 8 6 15t19 5q59 -4 117.5 -7t93.5 -3q45 0 92 3t114 7q27 0 27 -22q0 -8 -6 -15.5t-19 -7.5q-39 0 -70.5 -7t-54 -30.5t-36 -65.5t-13.5 -110v-741q0 -141 -43 -240.5t-113.5 -163t-162.5 -92.5t-191 -29 q-299 0 -452.5 140.5t-153.5 390.5v739q0 121 -35.5 165t-121.5 44q-12 0 -18.5 7t-6.5 18zM590 1612q-4 8 6 18q37 29 79 72t64 96q4 10 13 10h67q8 0 9 -3t6 -7q20 -43 64 -91t79 -75q10 -8 9 -18t-17 -10q-18 0 -47 17t-56.5 39.5t-51 44t-30.5 28.5q-6 -6 -28.5 -28 t-50 -44.5t-54 -39.5t-43.5 -17q-14 0 -18 8z" />
<glyph unicode="&#xdc;" horiz-adv-x="1511" d="M-45 1477q0 20 25 20q66 -2 133 -6t137 -4q66 0 141.5 4t145.5 6q27 0 26 -22q0 -8 -6 -15.5t-18 -7.5q-39 0 -71 -7t-55.5 -29.5t-37 -63.5t-13.5 -109v-749q0 -109 19.5 -193t65 -140.5t118 -86t178.5 -29.5q68 0 145 17.5t143.5 66.5t109.5 138t43 233v739 q0 121 -45 167t-131 46q-12 0 -18.5 7t-6.5 18q0 8 6 15t19 5q59 -4 117.5 -7t93.5 -3q45 0 92 3t114 7q27 0 27 -22q0 -8 -6 -15.5t-19 -7.5q-39 0 -70.5 -7t-54 -30.5t-36 -65.5t-13.5 -110v-741q0 -141 -43 -240.5t-113.5 -163t-162.5 -92.5t-191 -29 q-299 0 -452.5 140.5t-153.5 390.5v739q0 121 -35.5 165t-121.5 44q-12 0 -18.5 7t-6.5 18zM586 1700q0 31 22.5 53.5t53.5 22.5t53 -22.5t22 -53.5t-22.5 -53.5t-52.5 -22.5q-31 0 -53.5 22.5t-22.5 53.5zM817 1700q0 31 22.5 53.5t53.5 22.5t53.5 -22.5t22.5 -53.5 t-22.5 -53.5t-53.5 -22.5t-53.5 22.5t-22.5 53.5z" />
<glyph unicode="&#xdd;" horiz-adv-x="1423" d="M14 1475q0 -10 7.5 -18.5t19.5 -8.5q35 -2 61.5 -12.5t49 -31t45 -51t49.5 -71.5q76 -115 163 -257t212 -335v-440q0 -123 -40 -164t-126 -41q-27 0 -27 -22q0 -8 6 -15.5t21 -7.5q66 4 140.5 7t139.5 3q66 0 142.5 -3t146.5 -7q23 0 23 23q0 8 -6.5 15t-18.5 7 q-45 0 -80 8t-57.5 30.5t-33.5 63.5t-11 107v438l346 615q41 76 89 107.5t107 33.5q16 0 23.5 7t7.5 18q0 10 -8 18t-25 6q-57 -4 -95 -5t-89 -1q-57 0 -120.5 1t-121.5 5q-16 2 -23 -5t-7 -17t8 -18.5t24 -8.5q104 -2 141.5 -45t-7.5 -129q-25 -47 -58 -107.5t-69.5 -126 t-75.5 -133t-76 -129.5q-43 63 -91 138t-93 148t-84 137.5t-64 105.5q-39 63 0 102t125 39q29 0 29 25q0 10 -8.5 18t-22.5 6q-72 -4 -149.5 -7t-155.5 -3q-66 0 -132.5 3t-123.5 7q-27 0 -27 -22zM752 1630q6 12 17 35t24.5 50.5t28 58t26.5 59.5q4 6 16 6h90q6 0 10.5 -6 t-3.5 -14q-6 -8 -29 -35t-50.5 -57.5t-57.5 -60.5t-50 -46q-10 -8 -18 -4t-4 14z" />
<glyph unicode="&#xde;" horiz-adv-x="1148" d="M41 23q0 23 27 22q43 0 73.5 9t51 33t29.5 63.5t9 103.5v989q0 121 -35.5 165t-121.5 44q-12 0 -18.5 7t-6.5 18q0 20 25 20q66 -4 133 -7t137 -3q66 0 140.5 3t146.5 7q27 0 26 -22q0 -8 -6 -15.5t-18 -7.5q-39 0 -71 -7t-55.5 -29.5t-36.5 -63.5t-13 -109v-57 q35 2 78 4t110 4q115 4 213 -22.5t170 -78t112 -127t40 -173.5q0 -121 -48.5 -205t-125 -135.5t-175 -74t-198.5 -22.5q-63 0 -105.5 6.5t-70.5 12.5v-121q0 -61 11 -102t34.5 -65t61.5 -33t89 -9q29 0 29 -22q0 -23 -27 -23q-68 4 -147.5 7t-151.5 3q-66 0 -144.5 -3 t-143.5 -7q-14 0 -20.5 7t-6.5 16zM457 430q39 -10 86 -15t86 -5q74 0 133 19.5t100 64.5t62.5 118.5t21.5 180.5q0 166 -79.5 260t-239.5 94q-53 0 -101.5 -7t-68.5 -16v-694z" />
<glyph unicode="&#xdf;" horiz-adv-x="1720" d="M72 842q0 61 28.5 115.5t78.5 95.5t119 65.5t151 24.5q76 0 146.5 -19.5t106.5 -36.5q10 -4 19.5 -13t9.5 -27q-4 -51 -4 -86t4 -91q0 -20 -22 -20q-20 0 -21 22q-8 115 -76.5 168.5t-162.5 53.5q-49 0 -96.5 -11.5t-83.5 -36t-58.5 -61.5t-22.5 -86q0 -72 48.5 -116 t122 -77.5t157.5 -64.5t158 -73t122 -102t48 -157q0 -86 -36 -148.5t-94.5 -102.5t-134 -59t-155.5 -19q-133 0 -212 30.5t-112 48.5q-23 12 -20 39q4 47 4 86t-4 99q0 10 7 16t15 6q18 0 23 -20q6 -39 22.5 -84t49 -83t88 -63.5t139.5 -25.5q53 0 103.5 12t90 36.5 t64.5 63.5t25 92q0 78 -47.5 125.5t-118 82t-152.5 63t-152.5 70.5t-117.5 104.5t-47 163.5zM877 842q0 61 28.5 115.5t78.5 95.5t118.5 65.5t150.5 24.5q76 0 146.5 -19.5t107.5 -36.5q10 -4 19.5 -13t9.5 -27q-4 -51 -4 -86t4 -91q0 -20 -23 -20q-20 0 -20 22 q-8 115 -76.5 168.5t-163.5 53.5q-49 0 -96 -11.5t-83 -36t-58.5 -61.5t-22.5 -86q0 -72 48.5 -116t122 -77.5t157.5 -64.5t157.5 -73t122 -102t48.5 -157q0 -86 -36 -148.5t-94.5 -102.5t-134 -59t-155.5 -19q-133 0 -212 30.5t-112 48.5q-23 12 -20 39q4 47 4 86t-4 99 q0 10 7 16t15 6q18 0 23 -20q6 -39 22.5 -84t49 -83t88 -63.5t139.5 -25.5q53 0 103 12t90 36.5t64.5 63.5t24.5 92q0 78 -47 125.5t-117.5 82t-152.5 63t-152.5 70.5t-117.5 104.5t-47 163.5z" />
<glyph unicode="&#xe0;" d="M-6 23q0 20 29 20q43 0 79.5 26.5t61.5 86.5q98 225 194.5 459.5t188.5 474.5q6 16 13 32.5t22 16.5q16 0 22 -13.5t17 -40.5q20 -49 47.5 -114.5t59.5 -139t65.5 -150.5t64.5 -149q74 -170 154 -352q29 -66 65.5 -101.5t87.5 -35.5q27 0 27 -23q0 -20 -23 -20 q-47 4 -103 5t-105 1q-59 0 -110.5 -1t-107.5 -5q-25 0 -24 23q0 20 24 20q66 0 87.5 34t3.5 77l-146 340h-317q-33 -78 -67 -159t-64 -159q-23 -59 2.5 -96t95.5 -37q31 0 31 -20q0 -23 -27 -23q-47 4 -87 5t-83 1q-41 0 -71.5 -1t-77.5 -5q-10 0 -19.5 5t-9.5 18z M365 1460q4 6 10 6h90q12 0 16 -6q12 -29 26.5 -59.5t28 -58t24.5 -50t18 -35.5q4 -10 -4.5 -14t-18.5 4q-20 16 -50 46t-57.5 60.5t-50 57.5t-28.5 35q-8 8 -4 14zM389 545h279q-35 82 -72 164t-72 161z" />
<glyph unicode="&#xe1;" d="M-6 23q0 -12 9 -17.5t20 -5.5q47 4 77.5 5t71.5 1q43 0 83 -1t87 -5q27 0 27 23q0 20 -31 20q-70 0 -95.5 37t-2.5 96q31 78 64.5 159t66.5 159h317l146 -340q18 -43 -3.5 -77t-87.5 -34q-25 0 -24 -20q0 -23 24 -23q55 4 107 5t111 1q49 0 105 -1t103 -5q23 0 23 20 q0 23 -27 23q-51 0 -88 36t-65 101q-80 182 -154 352q-31 72 -64.5 149t-65.5 150.5t-59.5 139t-47.5 114.5q-10 27 -16.5 40.5t-22.5 13.5q-14 0 -21.5 -16.5t-13.5 -32.5q-92 -240 -188.5 -474.5t-194.5 -459.5q-25 -59 -61.5 -86t-79.5 -27q-29 0 -29 -20zM389 545 l135 325q35 -80 72 -161.5t72 -163.5h-279zM561 1257l17.5 35t24.5 50.5t27.5 58.5t26.5 59q4 6 17 6h90q6 0 10 -6t-4 -14q-6 -8 -28.5 -35t-50 -57.5t-57.5 -60.5t-50 -46q-10 -8 -18.5 -4t-4.5 14z" />
<glyph unicode="&#xe2;" d="M-6 23q0 20 29 20q43 0 79.5 26.5t61.5 86.5q98 225 194.5 459.5t188.5 474.5q6 16 13 32.5t22 16.5q16 0 22 -13.5t17 -40.5q20 -49 47.5 -114.5t59.5 -139t65.5 -150.5t64.5 -149q74 -170 154 -352q29 -66 65.5 -101.5t87.5 -35.5q27 0 27 -23q0 -20 -23 -20 q-47 4 -103 5t-105 1q-59 0 -110.5 -1t-107.5 -5q-25 0 -24 23q0 20 24 20q66 0 87.5 34t3.5 77l-146 340h-317q-33 -78 -67 -159t-64 -159q-23 -59 2.5 -96t95.5 -37q31 0 31 -20q0 -23 -27 -23q-47 4 -87 5t-83 1q-41 0 -71.5 -1t-77.5 -5q-10 0 -19.5 5t-9.5 18z M385 1229q-4 8 6 18q37 29 79 72t65 96q4 10 12 10h67q8 0 9.5 -3t5.5 -7q20 -43 64 -91t79 -75q10 -8 9 -18t-17 -10q-18 0 -47 17t-56.5 39.5t-51 44t-29.5 28.5q-6 -6 -29 -28t-50.5 -44.5t-54 -39.5t-43.5 -17q-14 0 -18 8zM389 545h279q-35 82 -72 164t-72 161z" />
<glyph unicode="&#xe3;" d="M-6 23q0 20 29 20q43 0 79.5 26.5t61.5 86.5q98 225 194.5 459.5t188.5 474.5q6 16 13 32.5t22 16.5q16 0 22 -13.5t17 -40.5q20 -49 47.5 -114.5t59.5 -139t65.5 -150.5t64.5 -149q74 -170 154 -352q29 -66 65.5 -101.5t87.5 -35.5q27 0 27 -23q0 -20 -23 -20 q-47 4 -103 5t-105 1q-59 0 -110.5 -1t-107.5 -5q-25 0 -24 23q0 20 24 20q66 0 87.5 34t3.5 77l-146 340h-317q-33 -78 -67 -159t-64 -159q-23 -59 2.5 -96t95.5 -37q31 0 31 -20q0 -23 -27 -23q-47 4 -87 5t-83 1q-41 0 -71.5 -1t-77.5 -5q-10 0 -19.5 5t-9.5 18zM389 545 h279q-35 82 -72 164t-72 161zM401 1241q20 141 119 141q18 0 39 -11t42.5 -23.5t42 -23.5t36.5 -11q23 0 41 20.5t27 40.5q6 16 15 12t7 -18q-8 -72 -39 -107.5t-80 -35.5q-20 0 -41.5 11t-42 23.5t-40 23.5t-35.5 11q-27 0 -40.5 -17t-23.5 -44q-6 -18 -18.5 -16t-8.5 24z " />
<glyph unicode="&#xe4;" d="M-6 23q0 20 29 20q43 0 79.5 26.5t61.5 86.5q98 225 194.5 459.5t188.5 474.5q6 16 13 32.5t22 16.5q16 0 22 -13.5t17 -40.5q20 -49 47.5 -114.5t59.5 -139t65.5 -150.5t64.5 -149q74 -170 154 -352q29 -66 65.5 -101.5t87.5 -35.5q27 0 27 -23q0 -20 -23 -20 q-47 4 -103 5t-105 1q-59 0 -110.5 -1t-107.5 -5q-25 0 -24 23q0 20 24 20q66 0 87.5 34t3.5 77l-146 340h-317q-33 -78 -67 -159t-64 -159q-23 -59 2.5 -96t95.5 -37q31 0 31 -20q0 -23 -27 -23q-47 4 -87 5t-83 1q-41 0 -71.5 -1t-77.5 -5q-10 0 -19.5 5t-9.5 18zM389 545 h279q-35 82 -72 164t-72 161zM391 1311q0 31 22.5 53t53.5 22t53.5 -22.5t22.5 -52.5q0 -31 -22.5 -53.5t-53.5 -22.5t-53.5 22.5t-22.5 53.5zM623 1311q0 31 22.5 53t52.5 22q31 0 53.5 -22.5t22.5 -52.5q0 -31 -22.5 -53.5t-53.5 -22.5t-53 22.5t-22 53.5z" />
<glyph unicode="&#xe5;" d="M-6 23q0 20 29 20q43 0 79.5 26.5t61.5 86.5q98 225 194.5 459.5t188.5 474.5q6 16 13 32.5t22 16.5q16 0 22 -13.5t17 -40.5q20 -49 47.5 -114.5t59.5 -139t65.5 -150.5t64.5 -149q74 -170 154 -352q29 -66 65.5 -101.5t87.5 -35.5q27 0 27 -23q0 -20 -23 -20 q-47 4 -103 5t-105 1q-59 0 -110.5 -1t-107.5 -5q-25 0 -24 23q0 20 24 20q66 0 87.5 34t3.5 77l-146 340h-317q-33 -78 -67 -159t-64 -159q-23 -59 2.5 -96t95.5 -37q31 0 31 -20q0 -23 -27 -23q-47 4 -87 5t-83 1q-41 0 -71.5 -1t-77.5 -5q-10 0 -19.5 5t-9.5 18zM389 545 h279q-35 82 -72 164t-72 161zM453 1362q0 53 36.5 90t90.5 37q53 0 90 -37t37 -90t-37 -90t-90 -37t-90 37t-37 90zM496 1362q0 -35 24.5 -60.5t59.5 -25.5t60.5 25.5t25.5 60.5t-25.5 59.5t-60.5 24.5t-59.5 -24.5t-24.5 -59.5z" />
<glyph unicode="&#xe6;" horiz-adv-x="1710" d="M-41 20q0 23 33 23q43 0 92 26.5t98 86.5q180 209 358.5 426t356.5 440q-12 33 -37.5 45t-68.5 12q-10 0 -16.5 7.5t-6.5 15.5q0 20 23 20h790q23 0 31 -15t8 -32q-2 -31 -2 -56.5v-47.5v-48.5t2 -56.5q0 -20 -21 -20q-20 0 -20 20q0 96 -34 150.5t-124 54.5h-327v-467 q55 2 112 6q49 4 111.5 5t122.5 6q41 2 53 38.5t12 88.5q0 23 21 22q23 0 22 -22v-336q0 -23 -20 -23q-8 0 -15.5 6t-7.5 17q0 53 -16 93t-55 42q-61 4 -123 6t-109 4q-55 2 -108 2v-366q0 -78 24.5 -110t95.5 -32h234q72 0 116 48t44 157q0 23 20 23t21 -23 q-2 -35 -2 -59.5v-49.5v-39.5t2 -54.5q0 -53 -47 -53h-818q-10 0 -16 7t-6 13q0 23 22 23q43 0 68 10t38 29.5t16 47.5t3 63v301h-364q-66 -78 -133.5 -159t-128.5 -159q-37 -45 -37 -82q0 -51 80 -51q25 0 24 -23q0 -20 -28 -20q-47 4 -98.5 5t-94.5 1q-41 0 -71.5 -3 t-77.5 -3q-20 0 -21 20zM586 545h323v387v16z" />
<glyph unicode="&#xe7;" horiz-adv-x="1228" d="M76 553q0 123 49 230.5t135 187.5t200.5 126t244.5 46q115 0 186.5 -17.5t105.5 -31.5q27 -10 41.5 -18.5t20.5 -17.5t7 -21.5t1 -32.5v-77t2 -87q0 -23 -20 -23q-16 0 -21 25q-14 113 -99 182.5t-227 69.5q-98 0 -177 -38t-134 -107.5t-85 -170t-30 -223.5 q0 -111 19.5 -206t68 -166.5t127 -112.5t197.5 -41q84 0 151.5 22.5t117 64.5t79 99t37.5 127q4 25 23 25q23 0 22 -25q-4 -49 -3 -90t3 -90q2 -14 -7 -25.5t-21 -23.5q-72 -59 -174.5 -96t-227.5 -37q-137 0 -250.5 40.5t-193.5 115.5t-124 180.5t-44 236.5zM492.5 -288 q3.5 7 12.5 11.5t19 0.5q14 -4 42 -11.5t52 -7.5q33 0 69 19.5t36 60.5q0 33 -25.5 49t-54.5 16q-33 0 -61 -18l-9 6l72 158h51l-49 -109q29 6 51 7q49 0 87 -28t38 -79q0 -35 -18.5 -58.5t-47 -39t-63.5 -22.5t-65 -7q-63 0 -119 23q-14 6 -17.5 14t0 15z" />
<glyph unicode="&#xe8;" horiz-adv-x="985" d="M10 20q0 23 23 23q43 0 67.5 10t38 29.5t16.5 47.5t3 63v739q0 86 -27 116.5t-92 30.5q-10 0 -16.5 7.5t-6.5 15.5q0 20 23 20h790q23 0 31 -15t8 -32q-2 -31 -2 -56.5v-49v-48t2 -55.5q0 -20 -20 -20t-21 20q0 96 -33.5 150.5t-123.5 54.5h-328v-467q55 2 113 6 q49 4 111.5 5t121.5 6q41 2 53.5 38.5t12.5 88.5q0 23 20 22q23 0 23 -22v-336q0 -23 -21 -23q-8 0 -15 6t-7 17q0 53 -16.5 93t-55.5 42q-61 4 -122.5 6t-108.5 4q-55 2 -109 2v-366q0 -78 24.5 -110t96.5 -32h233q72 0 116 48t44 157q0 23 21 23q20 0 20 -23 q-2 -59 -2 -96t2 -97q2 -33 -8 -48t-39 -15h-817q-10 0 -16.5 7t-6.5 13zM350 1460q4 6 10 6h91q12 0 16 -6q12 -29 26.5 -59.5t28 -58t24.5 -50t17 -35.5q4 -10 -4 -14t-18 4q-20 16 -50 46t-57.5 60.5t-50.5 57.5t-29 35q-8 8 -4 14z" />
<glyph unicode="&#xe9;" horiz-adv-x="985" d="M10 20q0 -6 6.5 -13t16.5 -7h817q29 0 39 15.5t8 47.5q-2 59 -2 96.5t2 96.5q0 23 -20 23t-21 -23q0 -109 -44 -157t-116 -48h-233q-72 0 -96.5 32t-24.5 110v366q53 0 109 -2q47 -2 108.5 -4t122.5 -6q39 -2 55.5 -42t16.5 -93q0 -10 7 -16.5t15 -6.5q20 0 21 23v336 q0 23 -23 22q-20 0 -20 -22q0 -51 -12.5 -88t-53.5 -39q-59 -4 -121.5 -5.5t-111.5 -5.5q-57 -4 -113 -6v467h328q90 0 123.5 -54t33.5 -151q0 -20 21 -20q20 0 20 20q-2 31 -2 55.5v48v49t2 56.5q0 16 -8 31.5t-31 15.5h-790q-23 0 -23 -20q0 -8 6.5 -15.5t16.5 -7.5 q66 0 92.5 -30.5t26.5 -116.5v-739q0 -35 -3 -63t-16.5 -47.5t-38 -29.5t-67.5 -10q-23 0 -23 -23zM514 1257l17.5 35t24.5 50.5t27.5 58.5t26.5 59q4 6 17 6h90q6 0 10 -6t-4 -14q-6 -8 -28.5 -35t-50.5 -57.5t-57.5 -60.5t-49.5 -46q-10 -8 -18.5 -4t-4.5 14z" />
<glyph unicode="&#xea;" horiz-adv-x="985" d="M10 20q0 23 23 23q43 0 67.5 10t38 29.5t16.5 47.5t3 63v739q0 86 -27 116.5t-92 30.5q-10 0 -16.5 7.5t-6.5 15.5q0 20 23 20h790q23 0 31 -15t8 -32q-2 -31 -2 -56.5v-49v-48t2 -55.5q0 -20 -20 -20t-21 20q0 96 -33.5 150.5t-123.5 54.5h-328v-467q55 2 113 6 q49 4 111.5 5t121.5 6q41 2 53.5 38.5t12.5 88.5q0 23 20 22q23 0 23 -22v-336q0 -23 -21 -23q-8 0 -15 6t-7 17q0 53 -16.5 93t-55.5 42q-61 4 -122.5 6t-108.5 4q-55 2 -109 2v-366q0 -78 24.5 -110t96.5 -32h233q72 0 116 48t44 157q0 23 21 23q20 0 20 -23 q-2 -59 -2 -96t2 -97q2 -33 -8 -48t-39 -15h-817q-10 0 -16.5 7t-6.5 13zM321.5 1235q-4.5 8 6.5 18q37 29 79 72t64 96q4 10 12 11h68q8 0 9 -3.5t5 -7.5q20 -43 64.5 -91t79.5 -75q10 -8 8.5 -18t-17.5 -10q-18 0 -46.5 17.5t-56.5 40t-51.5 44t-29.5 27.5 q-6 -6 -28.5 -27.5t-50 -44t-54.5 -40t-43 -17.5q-14 0 -18.5 8z" />
<glyph unicode="&#xeb;" horiz-adv-x="985" d="M10 20q0 23 23 23q43 0 67.5 10t38 29.5t16.5 47.5t3 63v739q0 86 -27 116.5t-92 30.5q-10 0 -16.5 7.5t-6.5 15.5q0 20 23 20h790q23 0 31 -15t8 -32q-2 -31 -2 -56.5v-49v-48t2 -55.5q0 -20 -20 -20t-21 20q0 96 -33.5 150.5t-123.5 54.5h-328v-467q55 2 113 6 q49 4 111.5 5t121.5 6q41 2 53.5 38.5t12.5 88.5q0 23 20 22q23 0 23 -22v-336q0 -23 -21 -23q-8 0 -15 6t-7 17q0 53 -16.5 93t-55.5 42q-61 4 -122.5 6t-108.5 4q-55 2 -109 2v-366q0 -78 24.5 -110t96.5 -32h233q72 0 116 48t44 157q0 23 21 23q20 0 20 -23 q-2 -59 -2 -96t2 -97q2 -33 -8 -48t-39 -15h-817q-10 0 -16.5 7t-6.5 13zM330 1315q0 31 22.5 53.5t53.5 22.5t53 -22.5t22 -53.5t-22.5 -53.5t-52.5 -22.5q-31 0 -53.5 22.5t-22.5 53.5zM561 1315q0 31 22.5 53.5t53.5 22.5t53.5 -22.5t22.5 -53.5t-22.5 -53.5t-53.5 -22.5 t-53.5 22.5t-22.5 53.5z" />
<glyph unicode="&#xec;" horiz-adv-x="528" d="M27 20q0 23 26 23q66 0 92.5 29.5t26.5 120.5v735q0 88 -24.5 119.5t-90.5 31.5q-25 0 -24 23q0 20 24 20q102 -6 209 -6q49 0 109.5 1t111.5 5q25 0 25 -20q0 -8 -6 -15.5t-17 -7.5q-29 0 -53 -5t-41.5 -21.5t-28 -46t-10.5 -78.5v-735q0 -94 31 -122t100 -28 q25 0 25 -23q0 -20 -25 -20q-53 4 -110.5 5t-108.5 1q-49 0 -104 -1t-109 -5q-14 -2 -21 4t-7 16zM76 1460q4 6 10 6h90q12 0 17 -6q12 -29 26 -59.5t27.5 -58t25 -50t17.5 -35.5q4 -10 -4.5 -14t-18.5 4q-20 16 -50 46t-57.5 60.5t-50 57.5t-28.5 35q-8 8 -4 14z" />
<glyph unicode="&#xed;" horiz-adv-x="528" d="M27 20q0 -10 7 -16t21 -4q53 4 108.5 5t104.5 1q51 0 108.5 -1t110.5 -5q25 0 25 20q0 23 -25 23q-70 0 -100.5 27.5t-30.5 122.5v735q0 49 10.5 78.5t28 46t42 21.5t52.5 5q10 0 16.5 7.5t6.5 15.5q0 20 -25 20q-51 -4 -111.5 -5t-109.5 -1q-106 0 -209 6q-25 0 -24 -20 q0 -23 24 -23q66 0 90.5 -31.5t24.5 -119.5v-735q0 -90 -26.5 -120t-92.5 -30q-27 0 -26 -23zM258 1257l17.5 35t24.5 50.5t27.5 58.5t26.5 59q4 6 17 6h90q6 0 10 -6t-4 -14q-6 -8 -28.5 -35t-50.5 -57.5t-57.5 -60.5t-49.5 -46q-10 -8 -18.5 -4t-4.5 14z" />
<glyph unicode="&#xee;" horiz-adv-x="528" d="M27 20q0 23 26 23q66 0 92.5 29.5t26.5 120.5v735q0 88 -24.5 119.5t-90.5 31.5q-25 0 -24 23q0 20 24 20q102 -6 209 -6q49 0 109.5 1t111.5 5q25 0 25 -20q0 -8 -6 -15.5t-17 -7.5q-29 0 -53 -5t-41.5 -21.5t-28 -46t-10.5 -78.5v-735q0 -94 31 -122t100 -28 q25 0 25 -23q0 -20 -25 -20q-53 4 -110.5 5t-108.5 1q-49 0 -104 -1t-109 -5q-14 -2 -21 4t-7 16zM78 1231q-4 8 6 18q37 29 79 72t64 96q4 10 13 10h67q8 0 9 -3t6 -7q20 -43 64 -91t79 -75q10 -8 9 -18t-17 -10q-18 0 -47 17t-56.5 40t-51 44.5t-30.5 27.5 q-6 -6 -28.5 -27.5t-50 -44.5t-54 -40t-43.5 -17q-14 0 -18 8z" />
<glyph unicode="&#xef;" horiz-adv-x="528" d="M27 20q0 23 26 23q66 0 92.5 29.5t26.5 120.5v735q0 88 -24.5 119.5t-90.5 31.5q-25 0 -24 23q0 20 24 20q102 -6 209 -6q49 0 109.5 1t111.5 5q25 0 25 -20q0 -8 -6 -15.5t-17 -7.5q-29 0 -53 -5t-41.5 -21.5t-28 -46t-10.5 -78.5v-735q0 -94 31 -122t100 -28 q25 0 25 -23q0 -20 -25 -20q-53 4 -110.5 5t-108.5 1q-49 0 -104 -1t-109 -5q-14 -2 -21 4t-7 16zM78 1311q0 31 22.5 53t53.5 22t53 -22.5t22 -52.5q0 -31 -22.5 -53.5t-52.5 -22.5q-31 0 -53.5 22.5t-22.5 53.5zM309 1311q0 31 22.5 53t53.5 22t53.5 -22.5t22.5 -52.5 q0 -31 -22.5 -53.5t-53.5 -22.5t-53.5 22.5t-22.5 53.5z" />
<glyph unicode="&#xf0;" horiz-adv-x="1245" d="M10 600q0 12 9.5 22.5t27.5 10.5h139v295q0 88 -24.5 119.5t-89.5 31.5q-12 0 -18.5 7.5t-6.5 15.5q0 20 25 20q57 -4 104 -6t100 -2q55 0 119 4t119 4q147 0 253.5 -29.5t181.5 -77.5t121 -108.5t71.5 -122t34 -118t8.5 -97.5q0 -145 -55.5 -252.5t-149.5 -179 t-219 -106.5t-266 -33q-55 0 -105.5 6t-107.5 4q-51 0 -107.5 -2t-105.5 -6q-27 0 -27 20q0 23 27 23q66 0 92 29.5t26 120.5v374h-139q-18 0 -27.5 10.5t-9.5 22.5zM371 72q45 -12 98 -18.5t90 -6.5q117 0 198 47t132 121t74.5 165t23.5 177q0 121 -24.5 216t-81 161.5 t-147.5 102.5t-224 36q-37 0 -79 -2t-60 -4v-434h270q18 0 27.5 -10.5t9.5 -22.5t-9.5 -22.5t-27.5 -10.5h-270v-495z" />
<glyph unicode="&#xf1;" horiz-adv-x="1349" d="M61 20q0 23 29 23q66 0 101.5 29.5t35.5 120.5v735q0 88 -33.5 119.5t-99.5 31.5q-12 0 -18 7.5t-6 15.5t6 15t18 5q45 -4 81 -5t87 -1q29 0 74 1t84 5q66 -78 137.5 -163t142 -169.5t136 -164.5t119 -144.5t91 -110.5t52.5 -65v623q0 88 -39 119.5t-105 31.5 q-23 0 -22 23q0 20 22 20q47 -4 85 -5t91 -1q51 0 87 1t86 5q23 0 22 -20q0 -8 -5 -15.5t-15 -7.5q-29 0 -55.5 -5t-47 -21.5t-33 -46t-12.5 -78.5v-922q0 -10 -4 -18t-20 -8q-12 0 -29 18l-817 983v-788q0 -94 37.5 -122t107.5 -28q25 0 25 -23q0 -20 -23 -20q-49 4 -87 5 t-89 1q-47 0 -84 -1t-84 -5q-14 -2 -21.5 4t-7.5 16zM535 1249q20 141 118 142q18 0 39 -11.5t42.5 -24t42 -23.5t36.5 -11q23 0 41 20.5t27 40.5q6 16 15 12t7 -18q-8 -72 -38.5 -107.5t-80.5 -35.5q-20 0 -41.5 11t-42 23.5t-40 24t-35.5 11.5q-27 0 -40.5 -17.5 t-23.5 -44.5q-6 -18 -18.5 -16t-7.5 24z" />
<glyph unicode="&#xf2;" horiz-adv-x="1310" d="M80 561q0 104 38 208.5t110.5 187.5t178 134.5t242.5 51.5q139 0 245.5 -51.5t178.5 -134.5t109 -185t37 -207q0 -119 -41 -225.5t-115 -186t-179.5 -126.5t-234.5 -47q-133 0 -238.5 46t-179 125.5t-112.5 185t-39 224.5zM279 559q0 -246 87 -388t283 -142 q98 0 168 35.5t114 103.5t65.5 163t21.5 214q0 111 -18.5 211t-61.5 175t-114 119t-177 44q-104 0 -175 -44t-114 -118t-61 -171t-18 -202zM455 1460q4 6 10 6h90q12 0 16 -6q12 -29 26.5 -59.5t28 -58t25 -50t17.5 -35.5q4 -10 -4.5 -14t-18.5 4q-20 16 -50 46t-57.5 60.5 t-50 57.5t-28.5 35q-8 8 -4 14z" />
<glyph unicode="&#xf3;" horiz-adv-x="1310" d="M80 561q0 -119 39 -224.5t112.5 -185t179 -125.5t238.5 -46q129 0 234.5 47t179.5 126.5t115 186t41 225.5q0 104 -37 206.5t-109 185.5t-178.5 134.5t-245.5 51.5q-137 0 -242.5 -51.5t-178 -134.5t-110.5 -187t-38 -209zM279 559q0 104 18 201.5t61 171.5t114 118 t175 44q106 0 177 -44t114 -119t61.5 -175.5t18.5 -210.5q0 -119 -21.5 -214t-65.5 -163t-113.5 -103.5t-168.5 -35.5q-197 0 -283.5 142t-86.5 388zM635 1257l17.5 35t24.5 50.5t27.5 58.5t26.5 59q4 6 17 6h90q6 0 10 -6t-4 -14q-6 -8 -28.5 -35t-50.5 -57.5t-58 -60.5 t-50 -46q-10 -8 -18 -4t-4 14z" />
<glyph unicode="&#xf4;" horiz-adv-x="1310" d="M80 561q0 104 38 208.5t110.5 187.5t178 134.5t242.5 51.5q139 0 245.5 -51.5t178.5 -134.5t109 -185t37 -207q0 -119 -41 -225.5t-115 -186t-179.5 -126.5t-234.5 -47q-133 0 -238.5 46t-179 125.5t-112.5 185t-39 224.5zM279 559q0 -246 87 -388t283 -142 q98 0 168 35.5t114 103.5t65.5 163t21.5 214q0 111 -18.5 211t-61.5 175t-114 119t-177 44q-104 0 -175 -44t-114 -118t-61 -171t-18 -202zM457 1233q-4 8 6 18q37 29 79 72t64 96q4 10 12 11h68q8 0 9 -3.5t5 -7.5q20 -43 64.5 -91t79.5 -75q10 -8 9 -18t-17 -10 q-18 0 -47 17.5t-56.5 40t-51.5 44t-30 27.5q-6 -6 -28.5 -27.5t-50 -44t-54 -40t-43.5 -17.5q-14 0 -18 8z" />
<glyph unicode="&#xf5;" horiz-adv-x="1310" d="M80 561q0 104 38 208.5t110.5 187.5t178 134.5t242.5 51.5q139 0 245.5 -51.5t178.5 -134.5t109 -185t37 -207q0 -119 -41 -225.5t-115 -186t-179.5 -126.5t-234.5 -47q-133 0 -238.5 46t-179 125.5t-112.5 185t-39 224.5zM279 559q0 -246 87 -388t283 -142 q98 0 168 35.5t114 103.5t65.5 163t21.5 214q0 111 -18.5 211t-61.5 175t-114 119t-177 44q-104 0 -175 -44t-114 -118t-61 -171t-18 -202zM467 1253q20 141 119 142q18 0 38.5 -11.5t42 -23.5t42 -23.5t36.5 -11.5q23 0 41.5 20.5t26.5 40.5q6 16 15.5 12t7.5 -18 q-8 -72 -39 -107.5t-80 -35.5q-20 0 -42 11.5t-42.5 23.5t-40 23.5t-35.5 11.5q-27 0 -40 -17.5t-23 -44.5q-6 -18 -18.5 -16t-8.5 24z" />
<glyph unicode="&#xf6;" horiz-adv-x="1310" d="M80 561q0 104 38 208.5t110.5 187.5t178 134.5t242.5 51.5q139 0 245.5 -51.5t178.5 -134.5t109 -185t37 -207q0 -119 -41 -225.5t-115 -186t-179.5 -126.5t-234.5 -47q-133 0 -238.5 46t-179 125.5t-112.5 185t-39 224.5zM279 559q0 -246 87 -388t283 -142 q98 0 168 35.5t114 103.5t65.5 163t21.5 214q0 111 -18.5 211t-61.5 175t-114 119t-177 44q-104 0 -175 -44t-114 -118t-61 -171t-18 -202zM469 1311q0 31 22.5 53t53.5 22t53.5 -22.5t22.5 -52.5q0 -31 -23 -53.5t-53 -22.5q-31 0 -53.5 22.5t-22.5 53.5zM700 1311 q0 31 22.5 53t53.5 22t53.5 -22.5t22.5 -52.5q0 -31 -22.5 -53.5t-53.5 -22.5t-53.5 22.5t-22.5 53.5z" />
<glyph unicode="&#xf7;" horiz-adv-x="927" d="M82 770v80h764v-80h-764zM358 567q0 43 30 73t75 30t74.5 -29t29.5 -74t-29.5 -74.5t-74.5 -29.5q-43 0 -74 31.5t-31 72.5zM358 1057q0 43 30 72.5t75 29.5t74.5 -29.5t29.5 -72.5q0 -45 -29.5 -75t-74.5 -30q-43 0 -74 31t-31 74z" />
<glyph unicode="&#xf8;" horiz-adv-x="1282" d="M72 561q0 104 37.5 208.5t110.5 187.5t178.5 134.5t242.5 51.5q70 0 130 -13.5t114 -37.5v2q14 27 28.5 53.5t28.5 54.5h88q-18 -35 -39.5 -72.5t-38.5 -68.5l-2 -4q129 -84 194.5 -218t65.5 -274q0 -119 -41 -225.5t-114.5 -186t-179 -126.5t-234.5 -47q-70 0 -132.5 13 t-115.5 36q-16 -31 -31.5 -64t-25.5 -55h-92q18 39 40.5 78t45.5 75q-125 78 -191.5 209t-66.5 289zM270 559q0 -135 26 -239.5t79 -174.5q57 104 119.5 218t125 229t122 225.5t110.5 206.5q-86 70 -213 70q-104 0 -175 -44t-114 -118t-61.5 -171t-18.5 -202zM426 94 q84 -66 215 -65q98 0 168 35.5t114 103.5t65.5 163t21.5 214q0 129 -24.5 240.5t-84.5 187.5q-117 -209 -240.5 -434.5t-234.5 -444.5z" />
<glyph unicode="&#xf9;" horiz-adv-x="1226" d="M31 1102q0 20 22 20q51 0 105.5 -3t107.5 -3q51 0 109.5 1t111.5 5q25 0 25 -20q0 -8 -6 -15.5t-17 -7.5q-29 0 -53 -5t-41.5 -21.5t-28 -46t-10.5 -78.5v-553q0 -160 63.5 -244t225.5 -84q51 0 108.5 12.5t105.5 48t80 101t32 170.5v545q0 90 -34 122.5t-97 32.5 q-25 0 -25 23q0 8 5 15t20 5q20 -2 44.5 -3t48 -2t43 -1h32.5q35 0 77.5 1t85.5 5q12 2 18.5 -5t6.5 -15t-6 -15.5t-16 -7.5q-29 0 -53.5 -5t-42 -22.5t-27 -48t-9.5 -79.5v-551q0 -104 -32.5 -179t-88 -123t-127 -69.5t-149.5 -21.5q-231 0 -352 106.5t-121 292.5v549 q0 88 -26.5 119.5t-92.5 31.5q-10 0 -16 7.5t-6 15.5zM475 1460q4 6 10 6h90q12 0 17 -6q12 -29 26.5 -59.5t27.5 -58t24.5 -50t17.5 -35.5q4 -10 -4 -14t-18 4q-20 16 -50 46t-58 60.5t-50.5 57.5t-28.5 35q-8 8 -4 14z" />
<glyph unicode="&#xfa;" horiz-adv-x="1226" d="M31 1102q0 -8 6 -15.5t16 -7.5q66 0 92.5 -31.5t26.5 -119.5v-549q0 -186 121 -292.5t352 -106.5q78 0 149.5 21.5t127 69.5t88 122.5t32.5 179.5v551q0 49 9.5 79.5t27 48t42 22.5t53.5 5q10 0 16 7.5t6 15.5t-6 15t-19 5q-43 -4 -86 -5t-77 -1h-32t-43.5 1t-48 2 t-44.5 3q-14 2 -19.5 -5t-5.5 -15q0 -23 25 -23q63 0 97 -32.5t34 -122.5v-545q0 -104 -32 -170t-80 -101.5t-105.5 -48t-108.5 -12.5q-162 0 -225.5 84t-63.5 244v553q0 49 10.5 78.5t28 46t42 21.5t52.5 5q10 0 16.5 7.5t6.5 15.5q0 20 -25 20q-53 -4 -111.5 -5t-109.5 -1 q-53 0 -107.5 3t-105.5 3q-23 0 -22 -20zM664 1253q6 12 17 35t24.5 50.5t28 58t26.5 59.5q4 6 16 6h90q6 0 10.5 -6t-4.5 -14q-6 -8 -28.5 -35t-50 -57.5t-57.5 -60.5t-50 -46q-10 -8 -18.5 -4t-3.5 14z" />
<glyph unicode="&#xfb;" horiz-adv-x="1226" d="M31 1102q0 20 22 20q51 0 105.5 -3t107.5 -3q51 0 109.5 1t111.5 5q25 0 25 -20q0 -8 -6 -15.5t-17 -7.5q-29 0 -53 -5t-41.5 -21.5t-28 -46t-10.5 -78.5v-553q0 -160 63.5 -244t225.5 -84q51 0 108.5 12.5t105.5 48t80 101t32 170.5v545q0 90 -34 122.5t-97 32.5 q-25 0 -25 23q0 8 5 15t20 5q20 -2 44.5 -3t48 -2t43 -1h32.5q35 0 77.5 1t85.5 5q12 2 18.5 -5t6.5 -15t-6 -15.5t-16 -7.5q-29 0 -53.5 -5t-42 -22.5t-27 -48t-9.5 -79.5v-551q0 -104 -32.5 -179t-88 -123t-127 -69.5t-149.5 -21.5q-231 0 -352 106.5t-121 292.5v549 q0 88 -26.5 119.5t-92.5 31.5q-10 0 -16 7.5t-6 15.5zM475.5 1237q-4.5 8 5.5 18q37 29 79 72t65 96q4 10 12 11h68q8 0 9 -3.5t5 -7.5q20 -43 64 -91t79 -75q10 -8 9 -18t-17 -10q-18 0 -47 17.5t-56.5 40t-51 44t-29.5 27.5q-6 -6 -29 -27.5t-50.5 -44t-54 -40 t-42.5 -17.5q-14 0 -18.5 8z" />
<glyph unicode="&#xfc;" horiz-adv-x="1226" d="M31 1102q0 20 22 20q51 0 105.5 -3t107.5 -3q51 0 109.5 1t111.5 5q25 0 25 -20q0 -8 -6 -15.5t-17 -7.5q-29 0 -53 -5t-41.5 -21.5t-28 -46t-10.5 -78.5v-553q0 -160 63.5 -244t225.5 -84q51 0 108.5 12.5t105.5 48t80 101t32 170.5v545q0 90 -34 122.5t-97 32.5 q-25 0 -25 23q0 8 5 15t20 5q20 -2 44.5 -3t48 -2t43 -1h32.5q35 0 77.5 1t85.5 5q12 2 18.5 -5t6.5 -15t-6 -15.5t-16 -7.5q-29 0 -53.5 -5t-42 -22.5t-27 -48t-9.5 -79.5v-551q0 -104 -32.5 -179t-88 -123t-127 -69.5t-149.5 -21.5q-231 0 -352 106.5t-121 292.5v549 q0 88 -26.5 119.5t-92.5 31.5q-10 0 -16 7.5t-6 15.5zM481 1305q0 31 22.5 53t53.5 22t53.5 -22.5t22.5 -52.5q0 -31 -22.5 -53.5t-53.5 -22.5t-53.5 22.5t-22.5 53.5zM713 1305q0 31 22.5 53t52.5 22q31 0 53.5 -22.5t22.5 -52.5q0 -31 -22.5 -53.5t-53.5 -22.5t-53 22.5 t-22 53.5z" />
<glyph unicode="&#xfd;" horiz-adv-x="1138" d="M47 1106q0 -25 27 -25q49 -4 80.5 -34.5t72.5 -88.5q72 -111 137.5 -216t145.5 -228v-324q0 -88 -28.5 -117.5t-94.5 -29.5q-25 0 -25 -23q0 -20 25 -20q51 4 108.5 6t106.5 2t110.5 -2t114.5 -6q25 0 25 20q0 8 -6 15.5t-19 7.5q-70 0 -103.5 27.5t-33.5 122.5v321 l275 463q33 53 63.5 77.5t75.5 26.5q29 0 29 23q0 27 -29 22q-47 -4 -76 -5t-67 -1q-86 0 -173 6q-29 4 -28 -20q0 -10 6 -17.5t25 -7.5q76 -2 98 -39.5t-2 -85.5q-18 -35 -44 -81t-55.5 -96t-60.5 -101t-59 -98q-59 90 -119 187t-127 204q-29 47 -2.5 78.5t86.5 31.5 q27 0 26 23q0 12 -8 17t-18 5q-111 -6 -238 -6q-92 0 -194 6q-27 0 -27 -20zM641 1257l17.5 35t24.5 50.5t27.5 58.5t26.5 59q4 6 17 6h90q6 0 10 -6t-4 -14q-6 -8 -28.5 -35t-50.5 -57.5t-57.5 -60.5t-49.5 -46q-10 -8 -18.5 -4t-4.5 14z" />
<glyph unicode="&#xfe;" horiz-adv-x="942" d="M41 20q0 23 25 23q66 0 92 29.5t26 120.5v735q0 88 -24.5 119.5t-89.5 31.5q-25 0 -25 23q0 20 25 20q102 -6 209 -6q49 0 109.5 1t111.5 5q25 0 24 -20q0 -8 -6 -15.5t-16 -7.5q-29 0 -53.5 -5t-42 -21.5t-27.5 -46t-10 -78.5v-54q31 2 64.5 3.5t76.5 3.5 q90 2 165 -17.5t130 -58.5t86 -96.5t31 -128.5q0 -92 -37 -156t-96.5 -101.5t-135 -55t-153.5 -17.5q-47 0 -78 4t-53 8v-69q0 -90 33.5 -120t113.5 -30q27 0 27 -23q0 -20 -27 -20q-55 4 -115.5 5t-115.5 1q-49 0 -107.5 -1t-111.5 -5q-25 0 -25 20zM369 309 q29 -6 63.5 -10t63.5 -4q115 0 178 62.5t63 222.5q0 119 -60 188.5t-183 69.5q-35 0 -71 -5.5t-54 -11.5v-512z" />
<glyph unicode="&#xff;" horiz-adv-x="1138" d="M47 1106q0 20 27 20q102 -6 194 -6q127 0 238 6q10 0 18 -5t8 -17q0 -23 -26 -23q-59 0 -86 -31.5t2 -78.5q68 -106 127 -203.5t119 -187.5q29 47 59.5 98t60 101t55 96.5t44.5 80.5q25 47 2 85t-98 40q-18 0 -24.5 7.5t-6.5 17.5q0 25 28 20q86 -6 173 -6q39 0 67.5 1 t75.5 5q29 4 29 -22q0 -23 -29 -23q-45 -2 -76 -26.5t-63 -77.5l-275 -463v-321q0 -94 34 -122t103 -28q12 0 18.5 -7t6.5 -16q0 -20 -25 -20q-53 4 -114.5 6t-110.5 2t-106.5 -2t-108.5 -6q-25 0 -25 20q0 23 25 23q66 0 94.5 29.5t28.5 117.5v324q-80 123 -145.5 228.5 t-137.5 215.5q-41 57 -72.5 88t-80.5 35q-27 0 -27 25zM459 1313q0 31 22.5 53.5t53.5 22.5t53 -23t22 -53q0 -31 -22.5 -53.5t-52.5 -22.5q-31 0 -53.5 22.5t-22.5 53.5zM690 1313q0 31 22.5 53.5t53.5 22.5t53.5 -23t22.5 -53q0 -31 -22.5 -53.5t-53.5 -22.5t-53.5 22.5 t-22.5 53.5z" />
<glyph unicode="&#x152;" horiz-adv-x="2101" d="M72 748q0 139 49 277t142 248.5t230.5 180.5t313.5 70q53 0 104.5 -7.5t98.5 -19.5h944q35 0 42 -15.5t5 -41.5q-2 -43 -2 -77v-64.5t1 -63.5t1 -76q0 -23 -23 -22q-8 0 -15 6t-7 16q0 131 -43 206t-162 75h-436v-637q78 0 158 4q68 4 147.5 8t151.5 8q55 4 72.5 54.5 t17.5 121.5q0 10 7 16.5t15 6.5q10 0 17.5 -6t7.5 -17v-452q0 -23 -23 -23q-10 0 -17 6.5t-7 18.5q0 74 -20.5 128t-78.5 58q-49 4 -124.5 6t-147.5 7q-84 4 -176 4v-498q0 -109 32.5 -153t131.5 -44h303q98 0 155.5 66.5t57.5 214.5q0 12 7 18t15 6q23 0 23 -24 q-2 -41 -2 -71.5v-59.5v-58.5t2 -68.5q2 -41 -10.5 -60.5t-47.5 -19.5h-968q-47 -12 -99.5 -19.5t-107.5 -7.5q-172 0 -308.5 61.5t-231.5 167t-145 246t-50 300.5zM322 748q0 -166 27.5 -300.5t87 -227.5t150.5 -143t220 -50q88 0 157.5 24.5t125.5 71.5v1255 q-111 92 -285 92q-137 0 -230.5 -60t-149.5 -159.5t-79.5 -230.5t-23.5 -272z" />
<glyph unicode="&#x153;" horiz-adv-x="1699" d="M72 561q0 104 37.5 208.5t110.5 187.5t178.5 134.5t242.5 51.5q43 0 84 -5t78 -16h766q23 0 31 -15t8 -32q-2 -31 -2 -56.5v-49v-48t2 -55.5q0 -20 -21 -20q-20 0 -20 20q0 96 -34 150.5t-124 54.5h-328v-467q55 2 113 6q49 4 111.5 5t121.5 6q41 2 53.5 38.5t12.5 88.5 q0 23 20 22q23 0 23 -22v-336q0 -23 -20 -23q-8 0 -15.5 6t-7.5 17q0 53 -16.5 93t-55.5 42q-61 4 -122.5 6t-108.5 4q-55 2 -109 2v-366q0 -78 24.5 -110t96.5 -32h234q72 0 115.5 48t43.5 157q0 23 21 23q20 0 20 -23q-2 -59 -2 -96t2 -97q2 -33 -8 -48t-39 -15h-790 q-37 -10 -77 -15t-81 -5q-133 0 -238.5 46t-179 125.5t-112.5 185t-39 224.5zM270 559q0 -246 87 -388t284 -142q168 0 256 90v874q-88 101 -258 101q-104 0 -175 -44t-114 -118t-61.5 -171t-18.5 -202z" />
<glyph unicode="&#x178;" horiz-adv-x="1423" d="M14 1475q0 23 27 22q57 -4 123.5 -7t132.5 -3q78 0 155.5 3t149.5 7q14 2 22.5 -6t8.5 -18q0 -25 -29 -25q-86 0 -125 -39t0 -102q25 -41 64 -105.5t84 -137.5t93 -147.5t91 -138.5q37 61 76 129t75.5 133.5t69.5 126t58 107.5q45 86 8 129t-142 45q-16 0 -24 8t-8 19 q0 10 7 17t23 5q57 -4 121 -5t121 -1q51 0 89 1t95 5q16 2 24.5 -6t8.5 -18t-7 -17.5t-24 -7.5q-59 -2 -107 -34t-89 -107l-346 -615v-438q0 -66 11 -107t33.5 -63.5t57.5 -30.5t80 -8q12 0 18.5 -7t6.5 -15q0 -23 -23 -23q-70 4 -146.5 7t-142.5 3t-140.5 -3t-139.5 -7 q-14 0 -20.5 7t-6.5 16q0 23 27 22q86 0 126 41t40 164v440q-125 193 -212 335t-163 257q-27 41 -49.5 71.5t-45 51t-49 31t-61.5 12.5q-12 0 -19.5 8t-7.5 19zM596 1692q0 31 22.5 53t53.5 22t53.5 -22.5t22.5 -52.5q0 -31 -23 -53.5t-53 -22.5q-31 0 -53.5 22.5 t-22.5 53.5zM827 1692q0 31 22.5 53t53.5 22t53.5 -22.5t22.5 -52.5q0 -31 -22.5 -53.5t-53.5 -22.5t-53.5 22.5t-22.5 53.5z" />
<glyph unicode="&#x2c6;" d="M362.5 1222.5q-4.5 8.5 6.5 18.5q37 29 78.5 72t64.5 96q4 10 12 10h68q8 0 9 -3t5 -7q20 -43 64.5 -91t79.5 -75q10 -8 8.5 -18.5t-17.5 -10.5q-18 0 -46.5 17.5t-56.5 40t-51.5 44t-29.5 27.5q-6 -6 -28.5 -27.5t-50 -44t-54.5 -40t-43 -17.5q-14 0 -18.5 8.5z" />
<glyph unicode="&#x2dc;" d="M369 1241q20 141 118 141q18 0 39 -11t42.5 -23.5t42 -23.5t36.5 -11q23 0 41.5 20.5t26.5 40.5q6 16 15 12t7 -18q-8 -72 -38.5 -107.5t-80.5 -35.5q-20 0 -41.5 11t-42 23.5t-40 23.5t-35.5 11q-27 0 -40 -17t-24 -44q-6 -18 -18 -16t-8 24z" />
<glyph unicode="&#x2000;" horiz-adv-x="933" />
<glyph unicode="&#x2001;" horiz-adv-x="1866" />
<glyph unicode="&#x2002;" horiz-adv-x="933" />
<glyph unicode="&#x2003;" horiz-adv-x="1866" />
<glyph unicode="&#x2004;" horiz-adv-x="622" />
<glyph unicode="&#x2005;" horiz-adv-x="466" />
<glyph unicode="&#x2006;" horiz-adv-x="311" />
<glyph unicode="&#x2007;" horiz-adv-x="311" />
<glyph unicode="&#x2008;" horiz-adv-x="233" />
<glyph unicode="&#x2009;" horiz-adv-x="373" />
<glyph unicode="&#x200a;" horiz-adv-x="103" />
<glyph unicode="&#x2010;" horiz-adv-x="663" d="M65 583.5q-6 18.5 1.5 40t26 40t44.5 18.5h432q25 0 30 -18.5t-2 -40t-23.5 -40t-38.5 -18.5h-441q-23 0 -29 18.5z" />
<glyph unicode="&#x2011;" horiz-adv-x="663" d="M65 583.5q-6 18.5 1.5 40t26 40t44.5 18.5h432q25 0 30 -18.5t-2 -40t-23.5 -40t-38.5 -18.5h-441q-23 0 -29 18.5z" />
<glyph unicode="&#x2012;" horiz-adv-x="663" d="M65 583.5q-6 18.5 1.5 40t26 40t44.5 18.5h432q25 0 30 -18.5t-2 -40t-23.5 -40t-38.5 -18.5h-441q-23 0 -29 18.5z" />
<glyph unicode="&#x2013;" horiz-adv-x="948" d="M67.5 582.5q-10.5 17.5 1 38t39 38t68.5 17.5h662q37 0 45 -17.5t-3.5 -38t-37 -38t-58.5 -17.5h-673q-33 0 -43.5 17.5z" />
<glyph unicode="&#x2014;" horiz-adv-x="1536" d="M65 582.5q-6 17.5 1.5 39t26 39t44.5 17.5h1305q25 0 30 -17.5t-2.5 -39t-23.5 -39t-39 -17.5h-1313q-23 0 -29 17.5z" />
<glyph unicode="&#x2018;" horiz-adv-x="360" d="M61 1364q0 70 34 117t98 47q43 0 71.5 -27.5t28.5 -66.5q0 -88 -86 -88q-14 0 -20.5 2t-20.5 2t-22.5 -10.5t-8.5 -24.5q0 -49 35 -102.5t109 -82.5q27 -10 18 -27t-25 -11q-98 35 -154.5 110.5t-56.5 161.5z" />
<glyph unicode="&#x2019;" horiz-adv-x="350" d="M63.5 1098.5q-8.5 17.5 18.5 27.5q74 29 108.5 82.5t34.5 102.5q0 14 -8 24.5t-22 10.5t-20.5 -2.5t-20.5 -2.5q-86 0 -86 89q0 39 28.5 66.5t71.5 27.5q63 0 97 -47t34 -117q0 -86 -56.5 -162t-154.5 -111q-16 -6 -24.5 11.5z" />
<glyph unicode="&#x201a;" horiz-adv-x="337" d="M63.5 -234.5q-6.5 15.5 16.5 25.5q68 27 99.5 75t31.5 93q0 31 -29 31q-12 0 -18 -2t-21 -2q-35 0 -56 22.5t-21 57.5t25.5 60.5t66.5 25.5q57 0 87.5 -42t30.5 -106q0 -78 -51 -146.5t-139 -101.5q-16 -6 -22.5 9.5z" />
<glyph unicode="&#x201c;" horiz-adv-x="622" d="M61 1364q0 70 34 117t98 47q43 0 71.5 -27.5t28.5 -66.5q0 -88 -86 -88q-14 0 -20.5 2t-20.5 2t-22.5 -10.5t-8.5 -24.5q0 -49 35 -102.5t109 -82.5q27 -10 18 -27t-25 -11q-98 35 -154.5 110.5t-56.5 161.5zM324 1364q0 70 33.5 117t97.5 47q43 0 71.5 -27.5t28.5 -66.5 q0 -88 -86 -88q-14 0 -20.5 2t-20.5 2t-22.5 -10.5t-8.5 -24.5q0 -49 35 -102.5t109 -82.5q27 -10 18.5 -27t-24.5 -11q-98 35 -154.5 110.5t-56.5 161.5z" />
<glyph unicode="&#x201d;" horiz-adv-x="622" d="M63.5 1098.5q-8.5 17.5 18.5 27.5q74 29 108.5 82.5t34.5 102.5q0 14 -8 24.5t-22 10.5t-20.5 -2.5t-20.5 -2.5q-86 0 -86 89q0 39 28.5 66.5t71.5 27.5q63 0 97 -47t34 -117q0 -86 -56.5 -162t-154.5 -111q-16 -6 -24.5 11.5zM325.5 1098.5q-8.5 17.5 18.5 27.5 q74 29 108.5 82.5t34.5 102.5q0 14 -8 24.5t-22 10.5t-20.5 -2.5t-20.5 -2.5q-86 0 -86 89q0 39 28.5 66.5t71.5 27.5q63 0 97 -47t34 -117q0 -86 -56.5 -162t-154.5 -111q-16 -6 -24.5 11.5z" />
<glyph unicode="&#x201e;" horiz-adv-x="593" d="M63.5 -257q-8.5 17 18.5 28q74 29 108.5 82t34.5 102q0 14 -8 24.5t-22 10.5t-20.5 -2t-20.5 -2q-86 0 -86 88q0 39 28.5 66.5t71.5 27.5q63 0 97 -47t34 -117q0 -86 -56.5 -161.5t-154.5 -110.5q-16 -6 -24.5 11zM325.5 -257q-8.5 17 18.5 28q74 29 108.5 82t34.5 102 q0 14 -8 24.5t-22 10.5t-20.5 -2t-20.5 -2q-86 0 -86 88q0 39 28.5 66.5t71.5 27.5q63 0 97 -47t34 -117q0 -86 -56.5 -161.5t-154.5 -110.5q-16 -6 -24.5 11z" />
<glyph unicode="&#x2022;" horiz-adv-x="741" d="M205 782q0 70 47 118t117 48q72 0 120 -48t48 -118q0 -72 -48.5 -119t-119.5 -47q-70 0 -117 47t-47 119z" />
<glyph unicode="&#x2026;" horiz-adv-x="954" d="M51 96q0 47 31 79t78 32t78.5 -32t31.5 -79t-31.5 -77.5t-78.5 -30.5t-78 30.5t-31 77.5zM367 96q0 47 30.5 79t77.5 32t79 -32t32 -79t-32 -77.5t-79 -30.5t-77.5 30.5t-30.5 77.5zM684 96q0 47 30.5 79t78.5 32q47 0 78.5 -32t31.5 -79t-31.5 -77.5t-78.5 -30.5 t-78 30.5t-31 77.5z" />
<glyph unicode="&#x202f;" horiz-adv-x="373" />
<glyph unicode="&#x2039;" horiz-adv-x="483" d="M51 799q66 72 124 158.5t106 164.5q53 90 98 181q14 25 31 24q16 0 19 -14.5t-1 -30.5q-14 -43 -35.5 -99.5t-48.5 -121t-57.5 -131t-63.5 -131.5q66 -129 118 -258t83 -224q6 -16 2 -30.5t-18 -14.5q-17 0 -31 27q-45 90 -98 180q-45 78 -103.5 164t-124.5 156z" />
<glyph unicode="&#x203a;" horiz-adv-x="684" d="M255 1312.5q3 14.5 19 14.5t31 -24q47 -90 101 -181q47 -78 104 -165t123 -158q-63 -70 -122.5 -156t-104.5 -164q-54 -90 -99 -180q-12 -27 -31 -27q-14 0 -18 14.5t2 30.5q31 94 83 223.5t118 258.5q-33 66 -63.5 132t-57.5 130.5t-48.5 121t-35.5 99.5q-4 16 -1 30.5z " />
<glyph unicode="&#x205f;" horiz-adv-x="466" />
<glyph unicode="&#x20ac;" horiz-adv-x="1480" d="M-92 666q0 31 41 30h117q0 57 1 86t5 54h-123q-41 0 -41 32q0 31 41 31h133q29 135 101.5 249t178 198t237.5 131t280 47q76 0 131 -6.5t98 -15.5t78 -20.5t69 -23.5q33 -10 51.5 -20.5t26.5 -22.5t9 -29.5t1 -42.5v-102t5 -121q0 -25 -23 -24q-20 0 -22 26 q-10 164 -124 256t-302 92q-113 0 -206 -39.5t-164 -113.5t-117 -179.5t-62 -238.5h514q41 0 41 -31q0 -33 -41 -32h-520q-2 -23 -3.5 -51.5t-1.5 -88.5h353q41 0 41 -30q0 -33 -41 -33h-351q8 -129 40 -240.5t95.5 -192.5t162 -127t239.5 -46q111 0 200 30.5t154.5 87 t104.5 136t49 176.5q4 25 25 24q20 0 20 -24q-4 -70 -3 -124t3 -122q0 -18 -4 -28.5t-14 -18.5q-98 -86 -236.5 -138.5t-298.5 -52.5q-164 0 -301 46.5t-238.5 132.5t-165 207.5t-79.5 273.5h-123q-41 0 -41 33z" />
<glyph unicode="&#x2122;" horiz-adv-x="1972" d="M23 1298q4 49 3 93.5t-3 85.5q0 14 9 18t21 4q92 -2 181.5 -3t166.5 -1q80 0 169 1t182 3q12 0 21 -4t9 -18q-2 -41 -3 -85t3 -94q0 -18 -14 -18q-12 0 -12 16q-6 39 -16.5 68t-29 47.5t-48 27.5t-74.5 9h-117v-717q0 -82 32 -106.5t87 -24.5q14 0 14 -16q0 -4 -2 -8.5 t-10 -4.5q-43 2 -95.5 5.5t-93.5 3.5q-37 0 -87 -3.5t-93 -5.5q-10 0 -12 4.5t-2 8.5q0 16 14 16q51 0 79 25.5t28 105.5v717h-113q-88 0 -122 -37t-44 -115q-4 -16 -16 -16t-12 18zM780 584q0 16 17 16q53 0 81.5 25.5t32.5 105.5q4 86 11.5 195.5t13.5 208.5q8 115 16 233 q2 25 0 43.5t-13 32.5t-31.5 21.5t-55.5 7.5q-12 0 -12 12t14 12h54h71h71.5h59.5q74 -193 134.5 -361.5t133.5 -344.5q41 104 89.5 227t88.5 229q49 125 97 250h75.5h73.5h62.5h40.5q18 0 18 -12t-16 -12q-20 0 -37 -2.5t-29 -12.5t-17 -29.5t-3 -56.5l39 -641 q6 -80 33.5 -105.5t80.5 -25.5q18 0 19 -16q0 -4 -4 -8.5t-15 -4.5q-41 2 -84 5.5t-84 3.5q-39 0 -95 -3.5t-97 -5.5q-10 0 -14.5 4.5t-4.5 8.5q0 16 19 16q59 0 83.5 24.5t18.5 106.5l-43 696q-33 -86 -61.5 -156.5t-63.5 -160.5t-83 -216t-119 -321q-6 -10 -17 -10 q-12 0 -18 10q-66 160 -118 294t-92 237.5t-66.5 171t-39.5 92.5q-8 -123 -16 -240q-6 -100 -12 -208.5t-11 -188.5q-4 -82 23 -106.5t84 -24.5q12 0 12 -16q0 -4 -3 -8.5t-9 -4.5q-45 2 -75 5.5t-70 3.5q-39 0 -59.5 -3.5t-61.5 -5.5q-8 0 -12.5 4.5t-4.5 8.5z" />
<glyph unicode="&#xe000;" horiz-adv-x="1126" d="M0 0v1126h1126v-1126h-1126z" />
<glyph unicode="&#xfb01;" horiz-adv-x="1533" d="M41 20q0 23 27 23q66 0 92 29.5t26 120.5v739q0 86 -24.5 116.5t-89.5 30.5q-25 0 -25 23q0 20 25 20h786q29 0 34 -12t5 -35v-209q0 -20 -20 -20t-21 20q0 96 -32.5 150.5t-121.5 54.5h-331v-467q66 2 129 6q53 4 113.5 6t103.5 5q41 2 53 38.5t12 88.5q0 10 7.5 16 t15.5 6t15 -6t7 -16v-336q0 -23 -22 -23q-8 0 -15.5 6t-7.5 17q0 53 -15 92t-56 43q-82 6 -172 9t-168 3v-366q0 -94 31.5 -122t101.5 -28q25 0 24 -23q0 -20 -22 -20q-51 4 -111.5 5t-111.5 1t-109.5 -1t-105.5 -5q-12 -2 -19.5 4t-7.5 16zM1008 20q0 23 26 23 q66 0 92.5 29.5t26.5 120.5v735q0 88 -24.5 119.5t-90.5 31.5q-25 0 -24 23q0 20 24 20q102 -6 209 -6q49 0 109.5 1t111.5 5q25 0 25 -20q0 -8 -6 -15.5t-17 -7.5q-29 0 -53 -5t-41.5 -21.5t-28 -46t-10.5 -78.5v-735q0 -94 31 -122t100 -28q25 0 25 -23q0 -20 -25 -20 q-53 4 -110.5 5t-108.5 1q-49 0 -104 -1t-109 -5q-14 -2 -21 4t-7 16z" />
<glyph unicode="&#xfb02;" horiz-adv-x="1898" d="M41 20q0 23 27 23q66 0 92 29.5t26 120.5v739q0 86 -24.5 116.5t-89.5 30.5q-25 0 -25 23q0 20 25 20h786q29 0 34 -12t5 -35v-209q0 -20 -20 -20t-21 20q0 96 -32.5 150.5t-121.5 54.5h-331v-467q66 2 129 6q53 4 113.5 6t103.5 5q41 2 53 38.5t12 88.5q0 10 7.5 16 t15.5 6t15 -6t7 -16v-336q0 -23 -22 -23q-8 0 -15.5 6t-7.5 17q0 53 -15 92t-56 43q-82 6 -172 9t-168 3v-366q0 -94 31.5 -122t101.5 -28q25 0 24 -23q0 -20 -22 -20q-51 4 -111.5 5t-111.5 1t-109.5 -1t-105.5 -5q-12 -2 -19.5 4t-7.5 16zM1006 20q0 23 22 23 q43 0 67.5 10t38 29.5t16.5 47.5t3 63v739q0 86 -25.5 116.5t-91.5 30.5q-25 0 -24 23q0 20 26 20q59 -4 105.5 -5t97.5 -1t114.5 1t123.5 5q27 0 26 -20q0 -23 -24 -23q-76 0 -110 -27.5t-34 -123.5v-735q0 -78 27 -110t98 -32h197q78 0 130 53.5t69 151.5q4 23 20 23 q23 0 18 -25q-10 -61 -17 -107.5t-13 -105.5q-4 -16 -10.5 -28.5t-34.5 -12.5h-793q-23 0 -22 20z" />
</font>
</defs>
</svg>
