<?xml version="1.0" standalone="no"?>
<!DOCTYPE svg PUBLIC "-//W3C//DTD SVG 1.1//EN" "http://www.w3.org/Graphics/SVG/1.1/DTD/svg11.dtd" >
<svg xmlns="http://www.w3.org/2000/svg">
<metadata></metadata>
<defs>
<font id="ca_bnd_webbold" horiz-adv-x="1079" >
<font-face units-per-em="2048" ascent="1638" descent="-410" />
<missing-glyph horiz-adv-x="495" />
<glyph unicode="&#xfb01;" horiz-adv-x="1044" d="M61 842v213h91v110q0 126 88 214.5t213 88.5h145v-249h-145q-22 -5 -38 -25t-16 -45v-94h535v-1055h-248v842h-287v-842h-247v842h-91z" />
<glyph unicode="&#xfb02;" horiz-adv-x="1118" d="M61 842v213h91v110q0 126 88 214.5t213 88.5h153q136 0 229 -84t93 -227v-842q0 -22 16 -41.5t39 -27.5h94v-248h-96q-124 0 -212.5 89t-88.5 214v856q0 26 -23 44t-51 18h-153q-22 -5 -39 -25.5t-17 -44.5v-94h160v-213h-160v-842h-245v842h-91z" />
<glyph horiz-adv-x="0" />
<glyph horiz-adv-x="0" />
<glyph horiz-adv-x="682" />
<glyph unicode="&#xd;" horiz-adv-x="303" />
<glyph unicode=" "  horiz-adv-x="495" />
<glyph unicode="&#x09;" horiz-adv-x="495" />
<glyph unicode="&#xa0;" horiz-adv-x="495" />
<glyph unicode="!" horiz-adv-x="501" d="M113 125q0 61 40 99t99 38q58 0 97.5 -38.5t39.5 -98.5q0 -57 -40 -98t-97 -41q-58 0 -98.5 41t-40.5 98zM125 356v1112h252v-1112h-252z" />
<glyph unicode="&#x22;" horiz-adv-x="671" d="M41 1468v138h266v-138l-41 -251h-180zM365 1468v138h266v-138l-41 -251h-180z" />
<glyph unicode="#" horiz-adv-x="1681" d="M113 0v1468h231l373 -847v847h250v-1468h-232l-370 817v-817h-252zM1067 1024v176q0 114 82 194.5t194 80.5q109 0 193 -82.5t84 -198.5v-166q0 -112 -84 -193t-193 -81q-111 0 -193.5 80t-82.5 190zM1276 1055q0 -42 17 -69.5t50 -27.5q31 0 49.5 28.5t18.5 68.5v131 q0 35 -18.5 59.5t-49.5 24.5q-33 0 -50 -24t-17 -60v-131z" />
<glyph unicode="$" horiz-adv-x="1030" d="M82 1061q0 152 94.5 269t237.5 151v114h211v-122q137 -42 224 -167.5t87 -287.5l-250 -88v131q0 81 -61 135v-365q152 -64 237.5 -167t85.5 -263q0 -147 -91.5 -262t-231.5 -151v-121h-211v123q-140 39 -230 165t-90 291l248 91v-136q0 -91 72 -141v393 q-332 137 -332 408zM334 1061q0 -82 80 -139v288q-37 -24 -58.5 -63t-21.5 -86zM625 260q69 52 69 141q0 82 -69 148v-289z" />
<glyph unicode="%" horiz-adv-x="1460" d="M113 946v127q0 84 68 145.5t153 61.5q84 0 152.5 -63t68.5 -150v-119q0 -84 -68.5 -145.5t-152.5 -61.5q-85 0 -153 61t-68 144zM274 0l633 1468h248l-635 -1468h-246zM274 963q0 -31 15 -52.5t45 -21.5q28 0 43.5 22t15.5 52v106q0 26 -15.5 43.5t-43.5 17.5 q-30 0 -45 -17t-15 -44v-106zM905 406v126q0 84 68 145.5t153 61.5q84 0 153 -63t69 -150v-118q0 -84 -69 -145.5t-153 -61.5q-85 0 -153 61t-68 144zM1067 422q0 -31 14.5 -52.5t44.5 -21.5q28 0 44 22t16 52v106q0 26 -16 44t-44 18q-30 0 -44.5 -17.5t-14.5 -44.5v-106z " />
<glyph unicode="&#x26;" horiz-adv-x="1126" d="M113 403v23q0 179 123 305q-57 59 -90 136t-33 161v33q0 177 125.5 303.5t300.5 126.5q178 0 302 -138t124 -335l-250 -88v131q0 73 -51.5 124.5t-124.5 51.5q-72 0 -123 -51.5t-51 -124.5v-33q0 -73 62.5 -123.5t156.5 -50.5v-252q-94 0 -156.5 -51t-62.5 -125v-23 q0 -71 51 -122.5t123 -51.5q73 0 124.5 51.5t51.5 122.5v199h-47v252h346v-252h-49v-199q0 -174 -124.5 -300t-301.5 -126q-174 0 -300 126t-126 300z" />
<glyph unicode="'" horiz-adv-x="491" d="M113 1468v138h266v-138l-41 -251h-180z" />
<glyph unicode="(" horiz-adv-x="657" d="M113 289v893q0 116 65 214.5t176 156t242 57.5v-252q-97 0 -165.5 -51.5t-68.5 -124.5v-893q0 -74 68.5 -126t165.5 -52v-250q-131 0 -242 57.5t-176 156t-65 214.5z" />
<glyph unicode=")" horiz-adv-x="657" d="M61 111q97 0 165.5 52t68.5 126v893q0 73 -68.5 124.5t-165.5 51.5v252q131 0 242.5 -57.5t176.5 -156t65 -214.5v-893q0 -116 -65 -214.5t-176.5 -156t-242.5 -57.5v250z" />
<glyph unicode="*" horiz-adv-x="999" d="M72 610l184 119l-184 117l129 221l172 -127v242h254v-242l174 127l127 -221l-183 -117l183 -119l-127 -219l-174 127v-246h-254v242l-172 -125z" />
<glyph unicode="+" horiz-adv-x="954" d="M113 465v252h237v239h254v-239h238v-252h-238v-238h-254v238h-237z" />
<glyph unicode="," horiz-adv-x="501" d="M113 125q0 61 40 99t99 38q58 0 97.5 -38.5t39.5 -98.5q0 -22 -12 -76l-41 -178h-178l14 143q-59 45 -59 111z" />
<glyph unicode="-" horiz-adv-x="913" d="M113 473v236h688v-236h-688z" />
<glyph unicode="." horiz-adv-x="501" d="M113 125q0 61 40 99t99 38q58 0 97.5 -38.5t39.5 -98.5q0 -57 -40 -98t-97 -41q-58 0 -98.5 41t-40.5 98z" />
<glyph unicode="/" horiz-adv-x="1130" d="M113 0l632 1466h273l-633 -1466h-272z" />
<glyph unicode="0" d="M113 401v662q0 178 124.5 303t301.5 125t302.5 -125t125.5 -303v-662q0 -177 -125.5 -301.5t-302.5 -124.5t-301.5 124.5t-124.5 301.5zM360 401q0 -73 52.5 -124.5t126.5 -51.5t126 51.5t52 124.5v662q0 75 -52 126.5t-126 51.5t-126.5 -51.5t-52.5 -126.5v-662z" />
<glyph unicode="1" horiz-adv-x="1077" d="M283 1026v281l276 161h213v-1468h-250v1167z" />
<glyph unicode="2" horiz-adv-x="1077" d="M113 0v215l585 795q19 22 19 53q0 73 -52 124.5t-126 51.5q-72 0 -124.5 -51.5t-52.5 -124.5v-133l-249 98q0 192 124.5 327.5t301.5 135.5q179 0 302.5 -126.5t123.5 -307.5q0 -43 -18.5 -94.5t-49.5 -94.5l-444 -618h512v-250h-852z" />
<glyph unicode="3" horiz-adv-x="1077" d="M113 449l247 90v-136q0 -71 53 -122.5t126 -51.5q72 0 124 51.5t52 122.5v23q0 73 -69 124.5t-165 51.5v252q96 0 165 51t69 123v33q0 73 -52 124.5t-124 51.5q-74 0 -126.5 -51.5t-52.5 -124.5v-135l-247 98q0 126 57 233.5t155 170.5t214 63q177 0 301.5 -126.5 t124.5 -303.5v-33q0 -83 -33.5 -161t-91.5 -136q58 -60 91.5 -139.5t33.5 -165.5v-23q0 -174 -125 -300t-301 -126q-177 0 -301.5 138t-124.5 334z" />
<glyph unicode="4" horiz-adv-x="1077" d="M113 475v215l501 778h213v-739h138v-254h-138v-475h-235v475h-479zM414 729h178v272z" />
<glyph unicode="5" horiz-adv-x="1077" d="M113 422l247 117v-138q0 -71 53 -122.5t126 -51.5q72 0 124 51.5t52 122.5v168q0 72 -52 124t-124 52q-49 0 -115.5 -24.5t-99.5 -61.5l-211 64v745h821v-254h-574v-243q94 24 179 24q177 0 301.5 -124t124.5 -302v-168q0 -174 -125 -299t-301 -125t-301 131.5 t-125 313.5z" />
<glyph unicode="6" d="M113 408v655q0 177 124.5 303.5t301.5 126.5q149 0 267 -102.5t150 -260.5l-241 -67q0 73 -52 125.5t-124 52.5q-74 0 -126.5 -52.5t-52.5 -125.5v-143q97 38 179 38q176 0 301 -126.5t125 -301.5v-122q0 -177 -124.5 -302.5t-301.5 -125.5t-301.5 125.5t-124.5 302.5z M360 408q0 -74 53 -126.5t126 -52.5q72 0 124 53t52 126v122q0 71 -52 123t-124 52q-73 0 -126 -52t-53 -123v-122z" />
<glyph unicode="7" horiz-adv-x="1077" d="M113 1159v309h856v-204l-486 -1264h-272l467 1214h-313v-55h-252z" />
<glyph unicode="8" horiz-adv-x="1077" d="M113 401v25q0 178 125 303q-125 125 -125 297v33q0 179 124.5 305.5t301.5 126.5t301.5 -126.5t124.5 -305.5v-33q0 -178 -125 -297q58 -59 91.5 -139t33.5 -164v-25q0 -175 -125 -300.5t-301 -125.5t-301 125.5t-125 300.5zM362 401q0 -72 52.5 -124t124.5 -52 q73 0 125.5 52t52.5 124v25q0 72 -52 123t-126 51q-72 0 -124.5 -51t-52.5 -123v-25zM362 1026q0 -70 52.5 -121t124.5 -51q73 0 125.5 50.5t52.5 121.5v33q0 75 -52 126.5t-126 51.5q-73 0 -125 -52t-52 -126v-33z" />
<glyph unicode="9" horiz-adv-x="1077" d="M113 940v123q0 177 124.5 302.5t301.5 125.5t301.5 -125.5t124.5 -302.5v-655q0 -177 -124.5 -304t-301.5 -127q-144 0 -258.5 95.5t-155.5 249.5l237 86q0 -73 52.5 -126t124.5 -53q73 0 125.5 52.5t52.5 126.5v143q-99 -39 -178 -39q-176 0 -301 126.5t-125 301.5z M362 940q0 -71 52.5 -122.5t124.5 -51.5q73 0 125.5 51.5t52.5 122.5v123q0 73 -52.5 125.5t-125.5 52.5q-72 0 -124.5 -52.5t-52.5 -125.5v-123z" />
<glyph unicode=":" horiz-adv-x="501" d="M113 125q0 61 40 99t99 38q58 0 97.5 -38.5t39.5 -98.5q0 -57 -40 -98t-97 -41q-58 0 -98.5 41t-40.5 98zM113 698q0 61 40 100.5t99 39.5q58 0 97.5 -39.5t39.5 -100.5q0 -57 -40 -97t-97 -40q-58 0 -98.5 40t-40.5 97z" />
<glyph unicode=";" horiz-adv-x="501" d="M113 125q0 61 40 99t99 38q58 0 97.5 -38.5t39.5 -98.5q0 -22 -12 -76l-41 -178h-178l14 143q-59 45 -59 111zM113 698q0 61 40 100.5t99 39.5q58 0 97.5 -39.5t39.5 -100.5q0 -57 -40 -97t-97 -40q-58 0 -98.5 40t-40.5 97z" />
<glyph unicode="&#x3c;" horiz-adv-x="1085" d="M113 623v229l860 477v-291l-545 -301l545 -301v-291z" />
<glyph unicode="=" horiz-adv-x="987" d="M113 274v252h761v-252h-761zM113 657v252h761v-252h-761z" />
<glyph unicode="&#x3e;" horiz-adv-x="1085" d="M113 145v291l544 301l-544 301v291l860 -477v-229z" />
<glyph unicode="?" horiz-adv-x="974" d="M61 1028q0 192 124.5 327.5t301.5 135.5q179 0 302.5 -126.5t123.5 -307.5q0 -43 -18.5 -95.5t-48.5 -93.5l-113 -155q-73 -99 -97 -146.5t-24 -87.5v-123h-252v156q0 61 28 123.5t114 179.5q13 17 66 88t79 107q19 22 19 53q0 73 -52.5 124.5t-126.5 51.5 q-72 0 -124 -51.5t-52 -124.5v-133zM348 125q0 61 40 99t99 38q58 0 98 -38.5t40 -98.5q0 -57 -40.5 -98t-97.5 -41q-58 0 -98.5 41t-40.5 98z" />
<glyph unicode="@" horiz-adv-x="1247" d="M113 1174q171 112 370 112q308 0 480 -156.5t172 -470.5v-360q0 -143 -91 -228t-219 -85q-117 0 -161 47q-77 -47 -181 -47q-172 0 -263 89t-91 226q0 50 13.5 98.5t44.5 95.5t77 82.5t117 57.5t158 22h59q-9 101 -117 101q-93 0 -162 -92l-153 192q64 61 147.5 96 t169.5 35q174 0 263.5 -78t89.5 -252v-307q0 -68 -21 -133q28 0 58 19t30 43v395q0 189 -114 285t-306 96q-91 0 -229 -62zM360 311q0 -46 34 -73t89 -27q49 0 82 38t33 83v96h-74q-73 0 -118.5 -33t-45.5 -84z" />
<glyph unicode="A" horiz-adv-x="1032" d="M10 0l406 1468h200l406 -1468h-252l-100 362h-303l-105 -362h-252zM424 573h188l-94 359z" />
<glyph unicode="B" horiz-adv-x="1028" d="M113 0v1468h426q177 0 302.5 -124.5t125.5 -301.5q0 -87 -33 -167.5t-92 -141.5q125 -125 125 -307q0 -177 -125.5 -301.5t-302.5 -124.5h-426zM360 250h179q73 0 125.5 52t52.5 124q0 73 -52 124.5t-126 51.5h-179v-352zM360 860h179q73 0 125.5 54.5t52.5 127.5 q0 72 -52.5 123.5t-125.5 51.5h-179v-357z" />
<glyph unicode="C" horiz-adv-x="997" d="M82 403v658q0 179 124.5 304.5t301.5 125.5q116 0 214.5 -62.5t156 -171.5t57.5 -239l-250 -88v131q0 75 -52 126.5t-126 51.5t-126 -51.5t-52 -126.5v-658q0 -73 52 -125.5t126 -52.5t126 52.5t52 125.5v136l250 -99q0 -193 -125.5 -328t-302.5 -135q-176 0 -301 125.5 t-125 300.5z" />
<glyph unicode="D" d="M113 0v1468h426q177 0 302.5 -124.5t125.5 -301.5v-616q0 -177 -125.5 -301.5t-302.5 -124.5h-426zM360 250h179q73 0 125.5 52t52.5 124v616q0 72 -52.5 123.5t-125.5 51.5h-179v-967z" />
<glyph unicode="E" horiz-adv-x="1028" d="M113 0v1468h854v-251h-607v-359h467v-250h-467v-358h607v-250h-854z" />
<glyph unicode="F" horiz-adv-x="1028" d="M113 0v1468h854v-251h-607v-359h467v-250h-467v-608h-247z" />
<glyph unicode="G" horiz-adv-x="1048" d="M82 401v660q0 179 124.5 304.5t301.5 125.5q116 0 214.5 -62.5t156 -171.5t57.5 -239l-250 -88v131q0 75 -52 126.5t-126 51.5t-126 -51.5t-52 -126.5v-660q0 -73 52 -124.5t126 -51.5t126 51.5t52 124.5v181h-233v252h483v-433q0 -175 -125.5 -300.5t-302.5 -125.5 q-176 0 -301 125.5t-125 300.5z" />
<glyph unicode="H" d="M113 0v1468h247v-608h357v608h250v-1468h-250v610h-357v-610h-247z" />
<glyph unicode="I" horiz-adv-x="477" d="M113 0v1468h252v-1468h-252z" />
<glyph unicode="J" horiz-adv-x="1028" d="M61 446l248 91v-136q0 -73 52 -124.5t126 -51.5t126.5 51.5t52.5 124.5v1067h249v-1067q0 -175 -125.5 -300.5t-302.5 -125.5t-301.5 137t-124.5 334z" />
<glyph unicode="K" horiz-adv-x="1183" d="M117 0v1468h254v-618l438 618h299l-418 -600q51 -98 211 -405.5t240 -462.5h-312l-309 625l-149 -211v-414h-254z" />
<glyph unicode="L" horiz-adv-x="966" d="M113 0v1468h247v-1214h607v-254h-854z" />
<glyph unicode="M" horiz-adv-x="1251" d="M113 0v1468h219l295 -561l293 561h219v-1468h-252v885l-260 -484l-262 486v-887h-252z" />
<glyph unicode="N" d="M113 0v1468h231l373 -847v847h250v-1468h-232l-370 817v-817h-252z" />
<glyph unicode="O" horiz-adv-x="1017" d="M82 401v662q0 178 124.5 303t301.5 125t302.5 -125t125.5 -303v-662q0 -177 -125.5 -301.5t-302.5 -124.5t-301.5 124.5t-124.5 301.5zM330 401q0 -73 52 -124.5t126 -51.5t126 51.5t52 124.5v662q0 75 -52 126.5t-126 51.5t-126 -51.5t-52 -126.5v-662z" />
<glyph unicode="P" horiz-adv-x="1030" d="M113 0v1468h430q175 0 300.5 -124t125.5 -300q0 -178 -125.5 -303t-300.5 -125h-178v-616h-252zM365 866h178q71 0 122.5 52.5t51.5 125.5q0 72 -51.5 123.5t-122.5 51.5h-178v-353z" />
<glyph unicode="Q" horiz-adv-x="1073" d="M82 401v662q0 178 124.5 303t301.5 125t302.5 -125t125.5 -303v-662q0 -97 -42 -183t-114 -146q22 -13 51 -13q34 0 70 58l172 -78q-41 -91 -104 -126.5t-148 -35.5q-71 0 -127 29q-5 2 -35.5 18t-49 24.5t-48 17.5t-53.5 9q-177 0 -301.5 124.5t-124.5 301.5zM330 401 q0 -73 52 -124.5t126 -51.5t126 51.5t52 124.5v662q0 75 -52 126.5t-126 51.5t-126 -51.5t-52 -126.5v-662z" />
<glyph unicode="R" horiz-adv-x="1107" d="M113 0v1468h428q177 0 301.5 -124.5t124.5 -301.5q0 -123 -60 -223.5t-166 -154.5l346 -664h-311l-299 616h-115v-616h-249zM362 866h179q72 0 123 52t51 124t-51 123.5t-123 51.5h-179v-351z" />
<glyph unicode="S" horiz-adv-x="1030" d="M82 1061q0 178 125.5 304t300.5 126q117 0 215.5 -62.5t155.5 -171.5t57 -239l-250 -88v131q0 75 -52 126.5t-126 51.5q-72 0 -123 -51.5t-51 -126.5q0 -49 30 -89t72 -63.5t101 -44.5q92 -30 162.5 -68t128.5 -92.5t89 -131t31 -171.5q0 -175 -125.5 -300.5 t-302.5 -125.5t-301.5 137t-124.5 334l248 91v-136q0 -73 52 -124.5t126 -51.5q72 0 123 51.5t51 124.5q0 69 -49.5 128t-142.5 92q-62 21 -112 42.5t-110.5 60t-101 83t-68.5 111t-28 143.5z" />
<glyph unicode="T" horiz-adv-x="894" d="M20 1217v251h854v-251h-284v-1217h-252v1217h-318z" />
<glyph unicode="U" d="M113 401v1067h247v-1067q0 -73 52.5 -124.5t126.5 -51.5t126 51.5t52 124.5v1067h250v-1067q0 -175 -125.5 -300.5t-302.5 -125.5q-176 0 -301 125.5t-125 300.5z" />
<glyph unicode="V" horiz-adv-x="1171" d="M10 1468h279l297 -999q234 778 299 999h276l-463 -1468h-227z" />
<glyph unicode="W" horiz-adv-x="1536" d="M10 1468h269l172 -882l215 882h206l218 -886l172 886h264l-314 -1468h-223l-223 885l-223 -885h-224z" />
<glyph unicode="X" horiz-adv-x="1015" d="M10 0l361 774l-322 694h285l166 -383l162 383h284l-311 -690l371 -778h-275l-225 473l-221 -473h-275z" />
<glyph unicode="Y" horiz-adv-x="1081" d="M10 1468h281l250 -507l250 507h280l-403 -811v-657h-254v657z" />
<glyph unicode="Z" horiz-adv-x="935" d="M41 0v209l547 1016h-529v243h836v-211l-545 -1013h545v-244h-854z" />
<glyph unicode="[" horiz-adv-x="593" d="M113 -162v1794h368v-254h-119v-1286h119v-254h-368z" />
<glyph unicode="\" horiz-adv-x="1130" d="M113 1466h272l633 -1466h-273z" />
<glyph unicode="]" horiz-adv-x="593" d="M113 92h118v1286h-118v254h368v-1794h-368v254z" />
<glyph unicode="^" horiz-adv-x="1181" d="M113 846l381 616h194l381 -616h-285l-194 295l-195 -295h-282z" />
<glyph unicode="_" horiz-adv-x="829" d="M-10 -61h850v-252h-850v252z" />
<glyph unicode="`" horiz-adv-x="598" d="M113 1372l252 115l120 -371l-166 -74z" />
<glyph unicode="a" horiz-adv-x="999" d="M61 301q0 50 12.5 98.5t42 96t74 82.5t114.5 57t157 22h178v64q0 66 -36 91.5t-128 25.5q-151 0 -221 -95l-156 193q144 133 377 133q202 0 307 -82t105 -270v-717h-248v90h-21q-20 -27 -31 -40t-33.5 -31t-51.5 -25.5t-68 -7.5q-178 0 -275.5 88.5t-97.5 226.5zM299 311 q0 -100 162 -100q82 0 130 33t48 88v94h-190q-72 0 -111 -31.5t-39 -83.5z" />
<glyph unicode="b" horiz-adv-x="983" d="M113 0v1468h245v-503h21q15 22 24 33.5t25.5 27.5t33.5 23.5t43 13.5t58 6q153 0 250.5 -103t97.5 -300v-279q0 -166 -117.5 -283.5t-281.5 -117.5q-87 0 -152 32v-18h-247zM360 371q0 -64 45 -108t107 -44q64 0 108 44.5t44 109.5v309q0 64 -44.5 108t-109.5 44 q-63 0 -106.5 -44t-43.5 -108v-311z" />
<glyph unicode="c" horiz-adv-x="937" d="M82 385v285q0 167 116.5 283t282.5 116q137 0 246.5 -95.5t146.5 -244.5l-237 -84q-5 80 -50 136.5t-106 56.5q-63 0 -107 -45t-44 -109v-295q0 -67 44.5 -118.5t106.5 -51.5q58 0 103.5 58t54.5 137l238 -86q-37 -148 -148 -245t-248 -97q-165 0 -282 118t-117 281z" />
<glyph unicode="d" horiz-adv-x="962" d="M82 391v279q0 167 117 283t282 116q79 0 152 -31v430h248v-1468h-246v90h-21q-20 -27 -31 -40t-33.5 -31t-51.5 -25.5t-68 -7.5q-153 0 -250.5 104t-97.5 301zM330 377q0 -65 44.5 -110.5t108.5 -45.5q63 0 107.5 45.5t44.5 110.5v311q0 62 -46 106t-108 44 q-63 0 -107 -45t-44 -109v-307z" />
<glyph unicode="e" horiz-adv-x="931" d="M72 385v285q0 167 116 283t281 116q159 0 280 -120t121 -279v-228h-553v-53q0 -67 45 -118.5t107 -51.5q45 0 88.5 40t65.5 101l231 -81q-52 -130 -157 -211.5t-228 -81.5q-164 0 -280.5 118t-116.5 281zM317 627h306v69q0 61 -45 101.5t-109 40.5t-108 -40.5t-44 -101.5 v-69z" />
<glyph unicode="f" horiz-adv-x="636" d="M61 842v213h89v110q0 126 89 214.5t214 88.5h143v-249h-143q-22 -5 -39 -25.5t-17 -44.5v-94h199v-213h-199v-842h-247v842h-89z" />
<glyph unicode="g" horiz-adv-x="942" d="M61 387v279q0 196 97 299.5t250 103.5q32 0 58 -6t43 -13.5t33.5 -23.5t25.5 -27.5t24 -33.5h20v90h248v-1035q0 -163 -117.5 -281t-281.5 -118q-94 0 -182 50t-154 136l192 152q30 -45 69 -73.5t75 -28.5q61 0 104.5 50t46.5 120q-87 -41 -153 -41q-164 0 -281 117.5 t-117 283.5zM307 373q0 -64 44.5 -109t107.5 -45t108 43.5t45 106.5v311q0 64 -44 109t-107 45t-108.5 -45t-45.5 -109v-307z" />
<glyph unicode="h" horiz-adv-x="995" d="M113 0v1468h247v-503h21q15 22 24 33.5t25.5 27.5t33.5 23.5t43 13.5t58 6q153 0 250.5 -103t97.5 -300v-666h-247v682q0 64 -45.5 109t-108.5 45t-107.5 -45t-44.5 -109v-682h-247z" />
<glyph unicode="i" horiz-adv-x="473" d="M100 1331q0 61 40 99t100 38q58 0 97.5 -38.5t39.5 -98.5q0 -57 -40 -98t-97 -41q-58 0 -99 41t-41 98zM113 0h247v1055h-247v-1055z" />
<glyph unicode="j" horiz-adv-x="471" d="M-84 -117v-248h143q124 0 212.5 90t88.5 216v1114h-247v-1102q0 -22 -17 -42t-39 -28h-141zM98 1331q0 61 40 99t100 38q58 0 97.5 -38.5t39.5 -98.5q0 -57 -40 -98t-97 -41q-58 0 -99 41t-41 98z" />
<glyph unicode="k" horiz-adv-x="948" d="M113 0v1468h247v-731l232 318h311l-344 -432l379 -623h-293l-239 426l-46 -53v-373h-247z" />
<glyph unicode="l" horiz-adv-x="550" d="M113 301v1167h247v-1153q0 -28 17 -48.5t39 -20.5h94v-248h-96q-124 0 -212.5 89t-88.5 214z" />
<glyph unicode="m" horiz-adv-x="1564" d="M113 0v1055h245v-90h21q15 22 24 33.5t25.5 27.5t33.5 23.5t43 13.5t58 6q171 0 262 -119q99 119 289 119q63 0 123 -25t111 -73t82.5 -127.5t31.5 -177.5v-666h-248v682q0 64 -44 109t-107 45q-64 0 -108 -44.5t-44 -109.5v-682h-247v682q0 64 -45.5 109t-108.5 45 t-106.5 -44.5t-43.5 -109.5v-682h-247z" />
<glyph unicode="n" horiz-adv-x="1013" d="M113 0v1055h245v-90h21q15 22 24 33.5t25.5 27.5t33.5 23.5t43 13.5t58 6q153 0 250.5 -103t97.5 -300v-666h-247v682q0 64 -45 109t-109 45q-63 0 -106.5 -44.5t-43.5 -109.5v-682h-247z" />
<glyph unicode="o" horiz-adv-x="942" d="M72 385v283q0 167 116 284t281 117q166 0 283.5 -121t117.5 -295v-258q0 -169 -117.5 -289t-283.5 -120q-164 0 -280.5 118t-116.5 281zM319 387q0 -66 44 -117t106 -51q63 0 108.5 51t45.5 117v297q0 64 -44.5 108t-109.5 44q-63 0 -106.5 -44t-43.5 -108v-297z" />
<glyph unicode="p" horiz-adv-x="993" d="M113 -365v1420h247v-90h19q15 22 24 33.5t25.5 27.5t33.5 23.5t43 13.5t58 6q153 0 250.5 -103.5t97.5 -299.5v-279q0 -166 -116.5 -283.5t-282.5 -117.5q-87 0 -152 32v-383h-247zM360 369q0 -62 45 -106t107 -44q64 0 108 44.5t44 109.5v307q0 64 -44.5 109t-107.5 45 q-64 0 -108 -44.5t-44 -109.5v-311z" />
<glyph unicode="q" horiz-adv-x="962" d="M82 389v279q0 167 116 284t281 117q73 0 154 -31v17h248v-1420h-248v455h-21q-20 -27 -31 -40t-33.5 -31t-51.5 -25.5t-68 -7.5q-153 0 -249.5 103t-96.5 300zM328 375q0 -64 45 -109t108 -45t107.5 45t44.5 109v311q0 64 -45 107t-109 43q-63 0 -107 -44t-44 -110v-307z " />
<glyph unicode="r" horiz-adv-x="755" d="M113 0v1055h247v-90h21q15 22 24 33.5t25.5 27.5t33.5 23.5t43 13.5t58 6q92 0 191 -51l-111 -244q-83 60 -133 60q-63 0 -107.5 -44t-44.5 -108v-682h-247z" />
<glyph unicode="s" horiz-adv-x="946" d="M61 141l158 162q43 -35 108 -59.5t128 -24.5q95 0 138.5 25t43.5 84q-3 25 -17 43t-31.5 26.5t-46.5 13.5t-49.5 5.5t-54.5 0.5t-49 1q-126 6 -210.5 87t-84.5 206q0 190 104.5 274t305.5 84q230 0 366 -133l-155 -193q-38 52 -88.5 72.5t-122.5 20.5q-89 0 -126 -25 t-38 -88q2 -13 6.5 -23.5t14 -18t18 -13.5t25 -9.5t28 -6t34 -4t35.5 -2t40 -1.5t41 -2q145 -6 224 -94t79 -215q0 -98 -30 -167t-89 -108t-134.5 -56t-176.5 -17q-109 0 -219 47t-175 108z" />
<glyph unicode="t" horiz-adv-x="624" d="M61 842v213h101v413h248v-413h153v-213h-153v-525q0 -22 16 -41.5t39 -27.5h96v-248h-98q-123 0 -210 86.5t-87 210.5v545h-105z" />
<glyph unicode="u" horiz-adv-x="952" d="M72 389v666h247v-678q0 -66 44.5 -111t107.5 -45t107.5 45t44.5 111v678h247v-1055h-247v90h-19q-20 -27 -31 -40t-33.5 -31t-51.5 -25.5t-68 -7.5q-154 0 -251 103.5t-97 299.5z" />
<glyph unicode="v" horiz-adv-x="958" d="M20 1055h269l192 -693l191 693h266l-330 -1055h-254z" />
<glyph unicode="w" horiz-adv-x="1558" d="M20 1055h261l174 -674l198 674h248l199 -676l176 676h262l-311 -1055h-250l-199 639l-200 -639h-248z" />
<glyph unicode="x" horiz-adv-x="940" d="M20 1055h277l172 -318l174 318h277l-291 -518l289 -537h-275l-174 336l-172 -336h-274l288 537z" />
<glyph unicode="y" horiz-adv-x="970" d="M20 1055h265l200 -604l203 604h262l-389 -1129q-20 -50 -35 -83t-43 -76.5t-57.5 -69t-74.5 -44t-99 -18.5h-102v248h102q17 0 31 11.5t25 34t19 43.5t18.5 51.5t16.5 46.5z" />
<glyph unicode="z" horiz-adv-x="897" d="M61 0v215l463 623h-430v217h742v-213l-465 -625h456v-217h-766z" />
<glyph unicode="{" horiz-adv-x="782" d="M113 729l123 158v295q0 116 65.5 214.5t177 156t242.5 57.5v-252q-96 0 -165 -51.5t-69 -124.5v-332l-90 -121l90 -121v-319q0 -73 69 -125.5t165 -52.5v-250q-131 0 -242 57.5t-176 156t-65 214.5v278z" />
<glyph unicode="|" horiz-adv-x="477" d="M113 -188v1845h252v-1845h-252z" />
<glyph unicode="}" horiz-adv-x="782" d="M61 111q96 0 165 52.5t69 125.5v319l90 121l-90 121v332q0 73 -69 124.5t-165 51.5v252q201 0 342.5 -125.5t141.5 -302.5v-295l125 -158l-125 -162v-278q0 -116 -65 -214.5t-176.5 -156t-242.5 -57.5v250z" />
<glyph unicode="~" horiz-adv-x="1030" d="M113 573q19 147 95 238.5t183 91.5q46 0 93 -22.5t85 -45t60 -22.5q23 0 37.5 24t25.5 76h226q-11 -66 -32.5 -122.5t-54.5 -104t-81.5 -75t-106.5 -27.5q-45 0 -95 22t-92 44t-65 22q-45 0 -45 -99h-233z" />
<glyph unicode="&#xa1;" horiz-adv-x="501" d="M113 1350q0 57 40 98t97 41q58 0 98.5 -41t40.5 -98q0 -61 -40 -99.5t-99 -38.5q-58 0 -97.5 38.5t-39.5 99.5zM125 0h252v1118h-252v-1118z" />
<glyph unicode="&#xa2;" horiz-adv-x="1019" d="M82 612v244q0 143 84.5 255.5t216.5 152.5v122h252v-124q124 -37 206.5 -148t94.5 -262l-250 -92v96q0 72 -52 123t-126 51t-126 -51t-52 -123v-244q0 -74 52 -126t126 -52t126 52t52 126v97l250 -101q-12 -144 -95.5 -255t-205.5 -150v-121h-252v121 q-132 40 -216.5 152.5t-84.5 256.5z" />
<glyph unicode="&#xa3;" horiz-adv-x="1140" d="M113 0v233h112v385h-112v232h112v211q0 177 125.5 303.5t302.5 126.5q178 0 302 -138t124 -335l-250 -88v131q0 73 -52 124.5t-124 51.5t-124 -51.5t-52 -124.5v-211h277v-232h-277v-385h498v-233h-862z" />
<glyph unicode="&#xa5;" d="M113 1102v366h247v-366q0 -72 53 -124t126 -52t125.5 52t52.5 124v366h250v-366q0 -143 -85 -256t-216 -152v-24h186v-191h-186v-84h186v-192h-186v-203h-254v203h-187v192h187v84h-187v191h187v24q-130 40 -214.5 153.5t-84.5 254.5z" />
<glyph unicode="&#xa6;" horiz-adv-x="497" d="M123 -188v819h252v-819h-252zM123 858v799h252v-799h-252z" />
<glyph unicode="&#xa7;" horiz-adv-x="1052" d="M113 743q0 156 98 254q-66 73 -66 174q0 155 108 237.5t302 82.5q232 0 367 -135l-156 -191q-37 51 -88 70.5t-123 19.5q-36 0 -62 -3t-51 -11t-38 -25.5t-13 -44.5q0 -53 135 -96q44 -14 71 -22.5t66.5 -23t65 -26t57.5 -29t52 -34.5t41.5 -40t33.5 -47.5t19.5 -55 t7.5 -64.5q0 -163 -94 -254q61 -61 61 -174q0 -155 -107.5 -237t-301.5 -82q-232 0 -367 135l156 190q38 -51 89 -71.5t122 -20.5q76 0 120 18t44 68q0 52 -136 96q-49 15 -79.5 25t-74.5 26.5t-71 31t-60.5 34.5t-53.5 42.5t-38.5 50t-27 61t-8.5 71.5zM346 760 q0 -43 61.5 -77t124 -48t95.5 -14q35 0 56.5 24.5t21.5 73.5q0 31 -36.5 61t-86 49t-96.5 31t-72 12q-24 0 -46 -31t-22 -81z" />
<glyph unicode="&#xa8;" horiz-adv-x="700" d="M41 1356q0 61 40 99t99 38q58 0 96.5 -38t38.5 -99q0 -57 -39 -98t-96 -41q-58 0 -98.5 41t-40.5 98zM385 1356q0 61 39 99t98 38q58 0 97.5 -38.5t39.5 -98.5q0 -57 -40 -98t-97 -41q-58 0 -97.5 40.5t-39.5 98.5z" />
<glyph unicode="&#xa9;" horiz-adv-x="1214" d="M113 905v158q0 117 58 215.5t156.5 155.5t213.5 57h131q178 0 304 -125t126 -303v-158q0 -178 -126 -302t-304 -124h-131q-176 0 -302 124.5t-126 301.5zM334 897q0 -84 58 -142.5t140 -58.5h148q82 0 140.5 58.5t58.5 142.5v174q0 84 -58.5 142.5t-140.5 58.5h-148 q-82 0 -140 -58.5t-58 -142.5v-174zM479 877q0 -54 38 -93t91 -39q54 0 92.5 41t38.5 97l-63 22v-28q0 -29 -19.5 -48.5t-48.5 -19.5q-28 0 -47.5 19.5t-19.5 48.5v204q0 28 19.5 48t47.5 20q29 0 48.5 -20t19.5 -48v-30l63 22q0 57 -38.5 98t-92.5 41q-53 0 -91 -38.5 t-38 -92.5v-204z" />
<glyph unicode="&#xaa;" horiz-adv-x="659" d="M119 1083q0 32 10.5 61.5t32 57t62.5 44t95 16.5h91v30q0 33 -19 46.5t-65 13.5q-73 0 -109 -47l-80 98q71 65 189 65q103 0 154.5 -41t51.5 -137v-360h-122v45h-11q-13 -17 -21.5 -26t-27.5 -17t-45 -8q-89 0 -137.5 44.5t-48.5 114.5zM240 1087q0 -49 79 -49 q41 0 66 17t25 43v47h-97q-35 0 -54 -16t-19 -42z" />
<glyph unicode="&#xab;" horiz-adv-x="1597" d="M113 524l454 373h361l-428 -375l424 -372h-357zM649 524l453 373h362l-428 -375l422 -372h-356z" />
<glyph unicode="&#xac;" horiz-adv-x="1695" d="M113 1061q0 178 125.5 304t302.5 126q175 0 301.5 -126t126.5 -302q0 -68 50 -125t144 -90q43 -16 79 -30.5t81 -38t79.5 -48t70 -59.5t58.5 -73.5t37.5 -89t14.5 -106.5q0 -177 -125.5 -302.5t-302.5 -125.5t-302.5 125.5t-125.5 302.5q0 68 -50.5 127.5t-141.5 90.5 q-50 17 -93.5 35t-94.5 45.5t-90.5 62t-73 77.5t-52 99.5t-18.5 120.5zM362 1061q0 -127 207 -197q410 -135 410 -463q0 -73 52 -124.5t124 -51.5q73 0 125.5 52.5t52.5 125.5q0 127 -207 197q-409 135 -409 463q0 71 -51.5 123.5t-124.5 52.5q-74 0 -126.5 -51.5 t-52.5 -126.5z" />
<glyph unicode="&#xad;" horiz-adv-x="913" d="M113 473v236h688v-236h-688z" />
<glyph unicode="&#xae;" horiz-adv-x="1216" d="M115 905v158q0 117 58 215.5t156.5 155.5t213.5 57h131q178 0 304 -125t126 -303v-158q0 -178 -126 -302t-304 -124h-131q-176 0 -302 124.5t-126 301.5zM336 897q0 -84 58.5 -142.5t140.5 -58.5h147q82 0 140.5 58.5t58.5 142.5v174q0 84 -58.5 142.5t-140.5 58.5h-147 q-82 0 -140.5 -58.5t-58.5 -142.5v-174zM479 752h62v204h55l94 -204h82l-110 213q77 38 77 120q0 56 -38 94t-93 38h-129v-465zM541 1018v135h67q29 0 49.5 -19.5t20.5 -48.5q0 -28 -20.5 -47.5t-49.5 -19.5h-67z" />
<glyph unicode="&#xaf;" horiz-adv-x="913" d="M113 1212v252h688v-252h-688z" />
<glyph unicode="&#xb0;" horiz-adv-x="954" d="M113 1130q0 151 106.5 257t257.5 106t258 -106t107 -257q0 -150 -107 -256t-258 -106t-257.5 105.5t-106.5 256.5zM346 1130q0 -56 38 -93.5t93 -37.5t93 37.5t38 93.5t-38 94t-93 38t-93 -38t-38 -94z" />
<glyph unicode="&#xb1;" horiz-adv-x="968" d="M113 0v248h729v-248h-729zM127 575v252h238v240h253v-240h238v-252h-238v-237h-253v237h-238z" />
<glyph unicode="&#xb2;" horiz-adv-x="442" d="M53 918v79l217 295q9 9 9 21q0 26 -19.5 44.5t-48.5 18.5q-26 0 -45 -18.5t-19 -44.5v-49l-94 34q0 72 46 122t112 50t112 -46t46 -115q0 -37 -23 -70l-168 -227h191v-94h-316z" />
<glyph unicode="&#xb3;" horiz-adv-x="442" d="M66 1090l90 32v-49q0 -26 19.5 -44.5t45.5 -18.5t45 18.5t19 44.5v8q0 27 -25 45.5t-59 18.5v94q34 0 59 18t25 43v13q0 27 -18.5 46t-45.5 19t-46 -19t-19 -46v-49l-90 36q0 69 45.5 119.5t109.5 50.5q65 0 110.5 -45.5t45.5 -111.5v-13q0 -61 -45 -106q45 -48 45 -113 v-8q0 -64 -45.5 -109.5t-110.5 -45.5q-64 0 -109.5 50.5t-45.5 121.5z" />
<glyph unicode="&#xb4;" horiz-adv-x="454" d="M41 1137l121 370l252 -116l-207 -328z" />
<glyph unicode="&#xb5;" horiz-adv-x="878" d="M113 807l325 526l328 -526l-201 45v-700h-252v700z" />
<glyph unicode="&#xb6;" horiz-adv-x="1351" d="M113 1044q0 176 125.5 300t300.5 124h233v-1857h-233v1005q-175 0 -300.5 125t-125.5 303zM864 -389v1857h375v-254h-143v-1603h-232z" />
<glyph unicode="&#xb7;" horiz-adv-x="667" d="M113 745q0 94 63.5 152.5t157.5 58.5t157.5 -58.5t63.5 -152.5q0 -95 -63 -152.5t-158 -57.5t-158 57.5t-63 152.5z" />
<glyph unicode="&#xb8;" horiz-adv-x="706" d="M113 -330l75 174q89 -41 138 -41q28 0 48.5 9.5t20.5 25.5q0 13 -16 22t-41 9q-40 0 -86 -35l-109 90l129 187h246l-59 -88q71 -22 103 -69.5t32 -107.5q0 -107 -71 -170t-181 -63q-50 0 -97.5 11.5t-131.5 45.5z" />
<glyph unicode="&#xb9;" horiz-adv-x="442" d="M141 1305v104l105 61h78v-552h-95v438z" />
<glyph unicode="&#xba;" horiz-adv-x="667" d="M113 1135v127q0 84 68 145t153 61q84 0 152.5 -63t68.5 -150v-118q0 -84 -68.5 -145.5t-152.5 -61.5q-85 0 -153 61t-68 144zM274 1151q0 -31 15 -52.5t45 -21.5q28 0 43.5 22t15.5 52v106q0 26 -15.5 44t-43.5 18q-30 0 -45 -17.5t-15 -44.5v-106z" />
<glyph unicode="&#xbb;" horiz-adv-x="1595" d="M133 150l424 374l-422 373h359l452 -373l-452 -374h-361zM668 150l426 374l-424 373h358l455 -373l-455 -374h-360z" />
<glyph unicode="&#xbc;" horiz-adv-x="1142" d="M113 279v917h917v-917h-917zM365 532h413v410h-413v-410z" />
<glyph unicode="&#xbd;" horiz-adv-x="1695" d="M113 403q0 65 18 122t52 100t72.5 77.5t90.5 62.5t93.5 46.5t92.5 36.5q95 33 145 90t50 125q0 176 126.5 302t301.5 126q177 0 302.5 -126t125.5 -304q0 -64 -18.5 -120.5t-52 -99.5t-73 -77.5t-90.5 -62t-94.5 -45.5t-93.5 -35q-91 -31 -141.5 -90.5t-50.5 -127.5 q0 -177 -125.5 -302.5t-302.5 -125.5t-302.5 125.5t-125.5 302.5zM362 403q0 -73 52.5 -125.5t126.5 -52.5q72 0 124 51.5t52 124.5q0 328 409 463q207 70 207 197q0 75 -52 126.5t-126 51.5q-73 0 -124.5 -52.5t-51.5 -123.5q0 -328 -410 -463q-207 -70 -207 -197z" />
<glyph unicode="&#xbe;" horiz-adv-x="1525" d="M113 737l649 649l651 -649l-649 -649zM473 737l289 -291l293 291l-291 289z" />
<glyph unicode="&#xbf;" horiz-adv-x="974" d="M61 418q0 -181 123.5 -307.5t302.5 -126.5q177 0 301.5 135t124.5 327l-249 99v-133q0 -73 -52.5 -124.5t-124.5 -51.5q-74 0 -126 51.5t-52 124.5q0 31 19 53q26 36 78 104.5t67 89.5q85 116 113 179t28 125v155h-252v-123q0 -40 -23.5 -87.5t-96.5 -145.5l-113 -156 q-31 -41 -49.5 -93t-18.5 -95zM350 1350q0 57 40 98t97 41q58 0 99 -41t41 -98q0 -61 -40.5 -99.5t-99.5 -38.5q-58 0 -97.5 38.5t-39.5 99.5z" />
<glyph unicode="&#xc0;" horiz-adv-x="1032" d="M10 0l406 1468h200l406 -1468h-252l-100 362h-303l-105 -362h-252zM242 1849l252 115l120 -371l-165 -73zM424 573h188l-94 359z" />
<glyph unicode="&#xc1;" horiz-adv-x="1032" d="M10 0h252l105 362h303l100 -362h252l-406 1468h-200zM424 573l94 359l94 -359h-188zM442 1593l121 371l252 -117l-207 -327z" />
<glyph unicode="&#xc2;" horiz-adv-x="1032" d="M10 0l406 1468h200l406 -1468h-252l-100 362h-303l-105 -362h-252zM100 1532l346 420h146l346 -420h-274l-146 178l-143 -178h-275zM424 573h188l-94 359z" />
<glyph unicode="&#xc3;" horiz-adv-x="1032" d="M10 0h252l105 362h303l100 -362h252l-406 1468h-200zM113 1544q19 145 94.5 229.5t183.5 84.5q46 0 93 -23t85 -45.5t60 -22.5q42 0 63 101h226q-24 -138 -92.5 -226t-182.5 -88q-45 0 -95 22t-92 44t-65 22q-45 0 -45 -98h-233zM424 573l94 359l94 -359h-188z" />
<glyph unicode="&#xc4;" horiz-adv-x="1032" d="M10 0h252l105 362h303l100 -362h252l-406 1468h-200zM209 1659q0 61 40 99t99 38q58 0 96.5 -38t38.5 -99q0 -57 -39 -98t-96 -41q-58 0 -98.5 41t-40.5 98zM424 573l94 359l94 -359h-188zM553 1659q0 61 39 99t98 38q58 0 97.5 -38.5t39.5 -98.5q0 -57 -40 -98t-97 -41 q-58 0 -97.5 40.5t-39.5 98.5z" />
<glyph unicode="&#xc5;" horiz-adv-x="1032" d="M10 0h252l105 362h303l100 -362h252l-406 1468h-200zM293 1741q0 95 63.5 153t157.5 58t157.5 -58t63.5 -153q0 -92 -63.5 -150.5t-157.5 -58.5t-157.5 58.5t-63.5 150.5zM424 573l94 359l94 -359h-188zM436 1741q0 -33 22.5 -52.5t55.5 -19.5t55.5 19.5t22.5 52.5 q0 36 -22 56t-56 20t-56 -20t-22 -56z" />
<glyph unicode="&#xc6;" horiz-adv-x="1691" d="M10 0l809 1468h811v-251h-606v-359h465v-250h-465v-358h606v-250h-856v383h-287l-208 -383h-269zM614 612h160v328z" />
<glyph unicode="&#xc7;" horiz-adv-x="997" d="M82 403v658q0 179 124.5 304.5t301.5 125.5q116 0 214.5 -62.5t156 -171.5t57.5 -239l-250 -88v131q0 75 -52 126.5t-126 51.5t-126 -51.5t-52 -126.5v-658q0 -73 52 -125.5t126 -52.5t126 52.5t52 125.5v136l250 -99q0 -146 -76 -263t-196 -169q98 -51 98 -162 q0 -107 -71 -170t-181 -63q-50 0 -97.5 11.5t-131.5 45.5l73 166q84 -39 140 -39q27 0 48 12t21 29q0 14 -16.5 24.5t-40.5 10.5q-35 0 -86 -39l-109 90l56 76q-127 45 -206 155t-79 248z" />
<glyph unicode="&#xc8;" horiz-adv-x="1028" d="M113 0v1468h854v-251h-607v-359h467v-250h-467v-358h607v-250h-854zM262 1851l252 115l121 -371l-166 -73z" />
<glyph unicode="&#xc9;" horiz-adv-x="1028" d="M113 0h854v250h-607v358h467v250h-467v359h607v251h-854v-1468zM395 1591l121 371l252 -117l-207 -327z" />
<glyph unicode="&#xca;" horiz-adv-x="1028" d="M113 0v1468h854v-251h-607v-359h467v-250h-467v-358h607v-250h-854zM127 1532l346 420h145l347 -420h-275l-145 178l-144 -178h-274z" />
<glyph unicode="&#xcb;" horiz-adv-x="1028" d="M113 0h854v250h-607v358h467v250h-467v359h607v251h-854v-1468zM231 1663q0 61 40 99t100 38q58 0 96.5 -38t38.5 -99q0 -57 -39 -98t-96 -41q-58 0 -99 41t-41 98zM575 1663q0 61 39.5 99t98.5 38q58 0 97.5 -38.5t39.5 -98.5q0 -57 -40 -98t-97 -41q-58 0 -98 41 t-40 98z" />
<glyph unicode="&#xcc;" horiz-adv-x="444" d="M-33 1849l252 115l121 -371l-166 -73zM111 0v1468h251v-1468h-251z" />
<glyph unicode="&#xcd;" horiz-adv-x="444" d="M111 0h251v1468h-251v-1468zM139 1595l121 371l252 -117l-207 -327z" />
<glyph unicode="&#xce;" horiz-adv-x="444" d="M-178 1532l346 420h145l346 -420h-274l-145 178l-144 -178h-274zM111 0v1468h251v-1468h-251z" />
<glyph unicode="&#xcf;" horiz-adv-x="444" d="M-72 1663q0 61 40 99t100 38q58 0 96.5 -38t38.5 -99q0 -57 -39 -98t-96 -41q-58 0 -99 41t-41 98zM111 0h251v1468h-251v-1468zM272 1663q0 61 39.5 99t98.5 38q58 0 97.5 -38.5t39.5 -98.5q0 -57 -40 -98t-97 -41q-58 0 -98 41t-40 98z" />
<glyph unicode="&#xd0;" horiz-adv-x="1071" d="M-104 473v236h206v759h426q177 0 303.5 -124.5t126.5 -301.5v-616q0 -177 -126.5 -301.5t-303.5 -124.5h-426v473h-206zM352 250h176q73 0 126 52t53 124v616q0 72 -52.5 123.5t-126.5 51.5h-176v-508h234v-236h-234v-223z" />
<glyph unicode="&#xd1;" d="M113 0h252v817l370 -817h232v1468h-250v-847l-373 847h-231v-1468zM141 1542q19 145 95 229t184 84q46 0 93 -22.5t84.5 -45t59.5 -22.5q43 0 64 101h225q-11 -66 -32.5 -120.5t-54 -99t-80.5 -69.5t-107 -25q-45 0 -95 22t-92 44t-65 22q-45 0 -45 -98h-234z" />
<glyph unicode="&#xd2;" horiz-adv-x="1017" d="M82 401v662q0 178 124.5 303t301.5 125t302.5 -125t125.5 -303v-662q0 -177 -125.5 -301.5t-302.5 -124.5t-301.5 124.5t-124.5 301.5zM229 1851l252 115l121 -371l-166 -73zM330 401q0 -73 52 -124.5t126 -51.5t126 51.5t52 124.5v662q0 75 -52 126.5t-126 51.5 t-126 -51.5t-52 -126.5v-662z" />
<glyph unicode="&#xd3;" horiz-adv-x="1017" d="M82 401v662q0 178 124.5 303t301.5 125t302.5 -125t125.5 -303v-662q0 -177 -125.5 -301.5t-302.5 -124.5t-301.5 124.5t-124.5 301.5zM330 401q0 -73 52 -124.5t126 -51.5t126 51.5t52 124.5v662q0 75 -52 126.5t-126 51.5t-126 -51.5t-52 -126.5v-662zM412 1595 l120 371l252 -117l-206 -327z" />
<glyph unicode="&#xd4;" horiz-adv-x="1017" d="M82 401v662q0 178 124.5 303t301.5 125t302.5 -125t125.5 -303v-662q0 -177 -125.5 -301.5t-302.5 -124.5t-301.5 124.5t-124.5 301.5zM90 1532l346 420h146l346 -420h-275l-145 178l-143 -178h-275zM330 401q0 -73 52 -124.5t126 -51.5t126 51.5t52 124.5v662 q0 75 -52 126.5t-126 51.5t-126 -51.5t-52 -126.5v-662z" />
<glyph unicode="&#xd5;" horiz-adv-x="1017" d="M82 401v662q0 178 124.5 303t301.5 125t302.5 -125t125.5 -303v-662q0 -177 -125.5 -301.5t-302.5 -124.5t-301.5 124.5t-124.5 301.5zM106 1544q19 145 95 229.5t184 84.5q46 0 93 -23t85 -45.5t60 -22.5q42 0 63 101h225q-11 -66 -32.5 -120.5t-54 -99t-80.5 -69.5 t-107 -25q-45 0 -95 22t-92 44t-65 22q-45 0 -45 -98h-234zM330 401q0 -73 52 -124.5t126 -51.5t126 51.5t52 124.5v662q0 75 -52 126.5t-126 51.5t-126 -51.5t-52 -126.5v-662z" />
<glyph unicode="&#xd6;" horiz-adv-x="1017" d="M82 401v662q0 178 124.5 303t301.5 125t302.5 -125t125.5 -303v-662q0 -177 -125.5 -301.5t-302.5 -124.5t-301.5 124.5t-124.5 301.5zM199 1659q0 61 40 99t99 38q58 0 96.5 -38t38.5 -99q0 -57 -39 -98t-96 -41q-58 0 -98.5 41t-40.5 98zM330 401q0 -73 52 -124.5 t126 -51.5t126 51.5t52 124.5v662q0 75 -52 126.5t-126 51.5t-126 -51.5t-52 -126.5v-662zM543 1659q0 61 39 99t98 38q58 0 97.5 -38.5t39.5 -98.5q0 -57 -40 -98t-97 -41q-58 0 -97.5 40.5t-39.5 98.5z" />
<glyph unicode="&#xd7;" horiz-adv-x="1144" d="M102 436l291 293l-291 291l179 180l292 -293l291 291l178 -180l-290 -289l290 -291l-178 -180l-291 291l-292 -291z" />
<glyph unicode="&#xd8;" horiz-adv-x="1017" d="M82 401v662q0 178 124.5 303t301.5 125t302.5 -125t125.5 -303v-662q0 -177 -125.5 -301.5t-302.5 -124.5t-301.5 124.5t-124.5 301.5zM330 401q0 -73 52 -124.5t126 -51.5t126 51.5t52 124.5v283l-356 -205v-78zM330 766l356 205v92q0 75 -52 126.5t-126 51.5 t-126 -51.5t-52 -126.5v-297z" />
<glyph unicode="&#xd9;" d="M113 401v1067h247v-1067q0 -73 52.5 -124.5t126.5 -51.5t126 51.5t52 124.5v1067h250v-1067q0 -175 -125.5 -300.5t-302.5 -125.5q-176 0 -301 125.5t-125 300.5zM260 1851l252 115l121 -371l-166 -73z" />
<glyph unicode="&#xda;" d="M113 401q0 -175 125 -300.5t301 -125.5q177 0 302.5 125.5t125.5 300.5v1067h-250v-1067q0 -73 -52 -124.5t-126 -51.5t-126.5 51.5t-52.5 124.5v1067h-247v-1067zM438 1595l121 371l252 -117l-207 -327z" />
<glyph unicode="&#xdb;" d="M113 401v1067h247v-1067q0 -73 52.5 -124.5t126.5 -51.5t126 51.5t52 124.5v1067h250v-1067q0 -175 -125.5 -300.5t-302.5 -125.5q-176 0 -301 125.5t-125 300.5zM121 1532l346 420h145l346 -420h-274l-145 178l-144 -178h-274z" />
<glyph unicode="&#xdc;" d="M113 401q0 -175 125 -300.5t301 -125.5q177 0 302.5 125.5t125.5 300.5v1067h-250v-1067q0 -73 -52 -124.5t-126 -51.5t-126.5 51.5t-52.5 124.5v1067h-247v-1067zM229 1661q0 61 40 99t100 38q58 0 96.5 -38t38.5 -99q0 -57 -39 -98t-96 -41q-58 0 -99 41t-41 98z M573 1661q0 61 39.5 99t98.5 38q58 0 97.5 -38.5t39.5 -98.5q0 -57 -40 -98t-97 -41q-58 0 -98 41t-40 98z" />
<glyph unicode="&#xdd;" horiz-adv-x="1081" d="M10 1468l404 -811v-657h254v657l403 811h-280l-250 -507l-250 507h-281zM444 1593l121 371l252 -117l-207 -327z" />
<glyph unicode="&#xde;" horiz-adv-x="991" d="M111 0v1468h251v-223q77 31 150 31q165 0 282 -117t117 -282v-285q0 -163 -117.5 -281t-281.5 -118q-71 0 -150 28v-221h-251zM362 561q12 -55 55.5 -95t94.5 -40q62 0 107 51.5t45 118.5v295q0 63 -44.5 108t-107.5 45q-54 0 -96.5 -35.5t-53.5 -86.5v-361z" />
<glyph unicode="&#xdf;" horiz-adv-x="1005" d="M102 -365v1459q0 166 116 281.5t282 115.5q167 0 284 -120.5t117 -299.5q0 -134 -102 -252q145 -111 145 -317v-101q0 -107 -64.5 -200.5t-166.5 -147t-211 -53.5h-39v231h39q70 0 133 46t63 108v131q0 62 -63.5 108t-132.5 46h-154v-1035h-246zM348 901h115 q69 0 129.5 46.5t60.5 107.5v53q0 64 -45 108t-108 44t-107.5 -44t-44.5 -108v-207z" />
<glyph unicode="&#xe0;" horiz-adv-x="999" d="M61 301q0 50 12.5 98.5t42 96t74 82.5t114.5 57t157 22h178v64q0 66 -36 91.5t-128 25.5q-151 0 -221 -95l-156 193q144 133 377 133q202 0 307 -82t105 -270v-717h-248v90h-21q-20 -27 -31 -40t-33.5 -31t-51.5 -25.5t-68 -7.5q-178 0 -275.5 88.5t-97.5 226.5z M236 1450l251 115l121 -371l-166 -74zM299 311q0 -100 162 -100q82 0 130 33t48 88v94h-190q-72 0 -111 -31.5t-39 -83.5z" />
<glyph unicode="&#xe1;" horiz-adv-x="999" d="M61 301q0 -138 97.5 -226.5t275.5 -88.5q39 0 68 7.5t51.5 25.5t33.5 31t31 40h21v-90h248v717q0 188 -105 270t-307 82q-233 0 -377 -133l156 -193q70 95 221 95q92 0 128 -25.5t36 -91.5v-64h-178q-87 0 -157 -22t-114.5 -57t-74 -82.5t-42 -96t-12.5 -98.5zM299 311 q0 52 39 83.5t111 31.5h190v-94q0 -55 -48 -88t-130 -33q-162 0 -162 100zM406 1192l120 371l252 -117l-207 -328z" />
<glyph unicode="&#xe2;" horiz-adv-x="1034" d="M61 301q0 50 12.5 98.5t42 96t74 82.5t114.5 57t157 22h178v64q0 66 -36 91.5t-128 25.5q-151 0 -221 -95l-156 193q144 133 377 133q202 0 307 -82t105 -270v-717h-248v90h-21q-20 -27 -31 -40t-33.5 -31t-51.5 -25.5t-68 -7.5q-178 0 -275.5 88.5t-97.5 226.5zM84 1133 l346 419h145l347 -419h-275l-145 178l-144 -178h-274zM299 311q0 -100 162 -100q82 0 130 33t48 88v94h-190q-72 0 -111 -31.5t-39 -83.5z" />
<glyph unicode="&#xe3;" horiz-adv-x="1017" d="M61 301q0 -138 97.5 -226.5t275.5 -88.5q39 0 68 7.5t51.5 25.5t33.5 31t31 40h21v-90h248v717q0 188 -105 270t-307 82q-233 0 -377 -133l156 -193q70 95 221 95q92 0 128 -25.5t36 -91.5v-64h-178q-87 0 -157 -22t-114.5 -57t-74 -82.5t-42 -96t-12.5 -98.5zM100 1174 q19 145 95 229t184 84q46 0 93 -22.5t84.5 -45t59.5 -22.5q43 0 64 100h225q-24 -138 -92 -225.5t-182 -87.5q-45 0 -95 22t-92 44t-65 22q-45 0 -45 -98h-234zM299 311q0 52 39 83.5t111 31.5h190v-94q0 -55 -48 -88t-130 -33q-162 0 -162 100z" />
<glyph unicode="&#xe4;" horiz-adv-x="999" d="M61 301q0 -138 97.5 -226.5t275.5 -88.5q39 0 68 7.5t51.5 25.5t33.5 31t31 40h21v-90h248v717q0 188 -105 270t-307 82q-233 0 -377 -133l156 -193q70 95 221 95q92 0 128 -25.5t36 -91.5v-64h-178q-87 0 -157 -22t-114.5 -57t-74 -82.5t-42 -96t-12.5 -98.5zM193 1331 q0 61 40 99t99 38q58 0 96.5 -38t38.5 -99q0 -57 -39 -98t-96 -41q-58 0 -98.5 41t-40.5 98zM299 311q0 52 39 83.5t111 31.5h190v-94q0 -55 -48 -88t-130 -33q-162 0 -162 100zM537 1331q0 61 39 99t98 38q58 0 97.5 -38.5t39.5 -98.5q0 -57 -40 -98t-97 -41 q-58 0 -97.5 40.5t-39.5 98.5z" />
<glyph unicode="&#xe5;" horiz-adv-x="999" d="M61 301q0 -138 97.5 -226.5t275.5 -88.5q39 0 68 7.5t51.5 25.5t33.5 31t31 40h21v-90h248v717q0 188 -105 270t-307 82q-233 0 -377 -133l156 -193q70 95 221 95q92 0 128 -25.5t36 -91.5v-64h-178q-87 0 -157 -22t-114.5 -57t-74 -82.5t-42 -96t-12.5 -98.5zM270 1333 q0 95 63.5 153t158.5 58q94 0 157.5 -58t63.5 -153q0 -92 -63.5 -150.5t-157.5 -58.5t-158 58.5t-64 150.5zM299 311q0 52 39 83.5t111 31.5h190v-94q0 -55 -48 -88t-130 -33q-162 0 -162 100zM414 1333q0 -33 22.5 -52t55.5 -19t55 19t22 52q0 36 -22 56t-55 20 q-34 0 -56 -20t-22 -56z" />
<glyph unicode="&#xe6;" horiz-adv-x="1501" d="M61 279q0 50 12.5 97.5t42 94t74 80.5t114.5 55t157 21h178v94q0 66 -36 91.5t-128 25.5q-151 0 -221 -95l-156 193q144 133 377 133q213 0 311 -88q101 88 252 88q159 0 280.5 -120t121.5 -279v-228h-553v-61q0 -64 45.5 -117t105.5 -53q49 0 90 42.5t64 106.5l231 -81 q-52 -131 -156.5 -212t-228.5 -81q-161 0 -278 114q-102 -114 -326 -114q-184 0 -278.5 78.5t-94.5 214.5zM299 311q0 -100 162 -100q81 0 129.5 33.5t48.5 87.5v110h-190q-70 0 -110 -38.5t-40 -92.5zM887 627h305v69q0 61 -45 101.5t-109 40.5t-107.5 -40.5t-43.5 -101.5 v-69z" />
<glyph unicode="&#xe7;" horiz-adv-x="937" d="M82 385v285q0 167 116.5 283t282.5 116q137 0 246.5 -95.5t146.5 -244.5l-237 -84q-5 80 -50 136.5t-106 56.5q-63 0 -107 -45t-44 -109v-295q0 -67 44.5 -118.5t106.5 -51.5q58 0 103.5 58t54.5 137l238 -86q-29 -109 -99 -194t-160 -122q105 -51 105 -166 q0 -107 -71 -170t-181 -63q-50 0 -97.5 11.5t-131.5 45.5l75 174q89 -41 138 -41q28 0 48.5 9.5t20.5 25.5q0 13 -16 22t-41 9q-40 0 -86 -35l-109 90l64 92q-113 43 -183.5 144t-70.5 225z" />
<glyph unicode="&#xe8;" horiz-adv-x="942" d="M82 385v285q0 167 116 283t281 116q159 0 280.5 -120t121.5 -279v-228h-553v-53q0 -67 44.5 -118.5t106.5 -51.5q45 0 88.5 40t65.5 101l231 -81q-52 -130 -157 -211.5t-228 -81.5q-164 0 -280.5 118t-116.5 281zM203 1448l252 115l120 -371l-165 -74zM328 627h305v69 q0 61 -45 101.5t-109 40.5t-107.5 -40.5t-43.5 -101.5v-69z" />
<glyph unicode="&#xe9;" horiz-adv-x="942" d="M82 385v285q0 167 116 283t281 116q159 0 280.5 -120t121.5 -279v-228h-553v-53q0 -67 44.5 -118.5t106.5 -51.5q45 0 88.5 40t65.5 101l231 -81q-52 -130 -157 -211.5t-228 -81.5q-164 0 -280.5 118t-116.5 281zM328 627h305v69q0 61 -45 101.5t-109 40.5t-107.5 -40.5 t-43.5 -101.5v-69zM385 1190l121 371l252 -117l-207 -328z" />
<glyph unicode="&#xea;" horiz-adv-x="980" d="M82 1130l346 420h145l347 -420h-275l-145 179l-144 -179h-274zM102 385v285q0 167 116.5 283t281.5 116q159 0 280 -120t121 -279v-228h-553v-53q0 -67 45 -118.5t107 -51.5q45 0 88 40t65 101l232 -81q-52 -130 -157 -211.5t-228 -81.5q-164 0 -281 118t-117 281z M348 627h305v69q0 61 -44.5 101.5t-108.5 40.5t-108 -40.5t-44 -101.5v-69z" />
<glyph unicode="&#xeb;" horiz-adv-x="942" d="M82 385v285q0 167 116 283t281 116q159 0 280.5 -120t121.5 -279v-228h-553v-53q0 -67 44.5 -118.5t106.5 -51.5q45 0 88.5 40t65.5 101l231 -81q-52 -130 -157 -211.5t-228 -81.5q-164 0 -280.5 118t-116.5 281zM170 1329q0 61 40 99t99 38q58 0 96.5 -38t38.5 -99 q0 -57 -39 -98t-96 -41q-58 0 -98.5 41t-40.5 98zM328 627h305v69q0 61 -45 101.5t-109 40.5t-107.5 -40.5t-43.5 -101.5v-69zM514 1329q0 61 39 99t98 38q58 0 97.5 -38.5t39.5 -98.5q0 -57 -40 -98t-97 -41q-58 0 -97.5 40.5t-39.5 98.5z" />
<glyph unicode="&#xec;" horiz-adv-x="475" d="M-33 1448l252 115l121 -371l-166 -74zM111 0v1055h247v-1055h-247z" />
<glyph unicode="&#xed;" horiz-adv-x="475" d="M111 0h247v1055h-247v-1055zM137 1190l121 371l252 -117l-207 -328z" />
<glyph unicode="&#xee;" horiz-adv-x="475" d="M-182 1130l346 420h145l346 -420h-274l-145 179l-144 -179h-274zM111 0v1055h247v-1055h-247z" />
<glyph unicode="&#xef;" horiz-adv-x="475" d="M-76 1333q0 61 40 99t99 38q58 0 97 -38t39 -99q0 -57 -39.5 -98t-96.5 -41q-58 0 -98.5 41t-40.5 98zM111 0h247v1055h-247v-1055zM268 1333q0 61 39.5 99t98.5 38q58 0 97.5 -38.5t39.5 -98.5q0 -57 -40 -98t-97 -41q-58 0 -98 41t-40 98z" />
<glyph unicode="&#xf0;" horiz-adv-x="937" d="M70 385v283q0 167 116 284t281 117q29 0 43 -2q-27 57 -84 111q-13 -9 -60 -43t-65 -45l-121 178l74 55q-100 68 -172 102l141 197q157 -86 236 -154q4 3 59 41t76 54l127 -179l-96 -67q243 -270 243 -664v-258q0 -169 -117.5 -289t-283.5 -120q-164 0 -280.5 118 t-116.5 281zM317 387q0 -66 44 -117t106 -51q63 0 108.5 51t45.5 117v297q0 64 -44.5 108t-109.5 44q-63 0 -106.5 -44t-43.5 -108v-297z" />
<glyph unicode="&#xf1;" horiz-adv-x="1019" d="M113 1176q19 145 94.5 229t183.5 84q46 0 93 -22.5t85 -45t60 -22.5q23 0 37.5 24t25.5 76h226q-24 -138 -92.5 -225.5t-182.5 -87.5q-45 0 -95 22t-92 44t-65 22q-45 0 -45 -98h-233zM115 0h247v682q0 65 43.5 109.5t106.5 44.5q64 0 109 -45t45 -109v-682h247v666 q0 197 -97.5 300t-250.5 103q-32 0 -58 -6t-43 -13.5t-33.5 -23.5t-25.5 -27.5t-24 -33.5h-21v90h-245v-1055z" />
<glyph unicode="&#xf2;" horiz-adv-x="942" d="M72 385v283q0 167 116 284t281 117q166 0 283.5 -121t117.5 -295v-258q0 -169 -117.5 -289t-283.5 -120q-164 0 -280.5 118t-116.5 281zM193 1450l251 115l121 -371l-166 -74zM319 387q0 -66 44 -117t106 -51q63 0 108.5 51t45.5 117v297q0 64 -44.5 108t-109.5 44 q-63 0 -106.5 -44t-43.5 -108v-297z" />
<glyph unicode="&#xf3;" horiz-adv-x="942" d="M72 385q0 -163 116.5 -281t280.5 -118q166 0 283.5 120t117.5 289v258q0 174 -117.5 295t-283.5 121q-165 0 -281 -117t-116 -284v-283zM319 387v297q0 64 43.5 108t106.5 44q65 0 109.5 -44t44.5 -108v-297q0 -66 -45.5 -117t-108.5 -51q-62 0 -106 51t-44 117z M373 1192l121 371l251 -117l-206 -328z" />
<glyph unicode="&#xf4;" horiz-adv-x="980" d="M72 1128l346 420h145l346 -420h-274l-146 179l-143 -179h-274zM94 385v283q0 167 116.5 284t281.5 117q166 0 283.5 -121t117.5 -295v-258q0 -169 -117.5 -289t-283.5 -120q-164 0 -281 118t-117 281zM342 387q0 -66 44 -117t106 -51q63 0 108 51t45 117v297 q0 64 -44 108t-109 44q-63 0 -106.5 -44t-43.5 -108v-297z" />
<glyph unicode="&#xf5;" horiz-adv-x="942" d="M72 385q0 -163 116.5 -281t280.5 -118q166 0 283.5 120t117.5 289v258q0 174 -117.5 295t-283.5 121q-165 0 -281 -117t-116 -284v-283zM106 1176q19 145 95 229t184 84q46 0 93 -22.5t85 -45t60 -22.5q23 0 37.5 24t25.5 76h225q-24 -138 -92 -225.5t-182 -87.5 q-45 0 -95 22t-92 44t-65 22q-45 0 -45 -98h-234zM319 387v297q0 64 43.5 108t106.5 44q65 0 109.5 -44t44.5 -108v-297q0 -66 -45.5 -117t-108.5 -51q-62 0 -106 51t-44 117z" />
<glyph unicode="&#xf6;" horiz-adv-x="942" d="M72 385q0 -163 116.5 -281t280.5 -118q166 0 283.5 120t117.5 289v258q0 174 -117.5 295t-283.5 121q-165 0 -281 -117t-116 -284v-283zM158 1331q0 61 40 99t99 38q58 0 96.5 -38t38.5 -99q0 -57 -39 -98t-96 -41q-58 0 -98.5 41t-40.5 98zM319 387v297q0 64 43.5 108 t106.5 44q65 0 109.5 -44t44.5 -108v-297q0 -66 -45.5 -117t-108.5 -51q-62 0 -106 51t-44 117zM502 1331q0 61 39 99t98 38q58 0 97.5 -38.5t39.5 -98.5q0 -57 -40 -98t-97 -41q-58 0 -97.5 40.5t-39.5 98.5z" />
<glyph unicode="&#xf7;" horiz-adv-x="1085" d="M113 612v232h860v-232h-860zM403 397q0 59 40.5 98.5t99.5 39.5q58 0 97.5 -39.5t39.5 -98.5q0 -58 -40 -98.5t-97 -40.5q-59 0 -99.5 40.5t-40.5 98.5zM403 1059q0 61 40 99t100 38q58 0 97.5 -38.5t39.5 -98.5q0 -57 -40 -98t-97 -41q-58 0 -99 41t-41 98z" />
<glyph unicode="&#xf8;" horiz-adv-x="942" d="M72 385v283q0 167 116 284t281 117q166 0 283.5 -121t117.5 -295v-258q0 -169 -117.5 -289t-283.5 -120q-164 0 -280.5 118t-116.5 281zM319 584l289 166q-19 40 -56 63t-83 23q-63 0 -106.5 -44t-43.5 -108v-100zM338 307q52 -88 131 -88q63 0 108.5 51t45.5 117v84z " />
<glyph unicode="&#xf9;" horiz-adv-x="952" d="M72 389v666h247v-678q0 -66 44.5 -111t107.5 -45t107.5 45t44.5 111v678h247v-1055h-247v90h-19q-20 -27 -31 -40t-33.5 -31t-51.5 -25.5t-68 -7.5q-154 0 -251 103.5t-97 299.5zM195 1450l251 115l121 -371l-166 -74z" />
<glyph unicode="&#xfa;" horiz-adv-x="952" d="M72 389q0 -196 97 -299.5t251 -103.5q39 0 68 7.5t51.5 25.5t33.5 31t31 40h19v-90h247v1055h-247v-678q0 -66 -44.5 -111t-107.5 -45t-107.5 45t-44.5 111v678h-247v-666zM377 1192l121 371l252 -117l-207 -328z" />
<glyph unicode="&#xfb;" horiz-adv-x="952" d="M51 1130l346 420h146l346 -420h-275l-145 179l-143 -179h-275zM72 389v666h247v-678q0 -66 44.5 -111t107.5 -45t107.5 45t44.5 111v678h247v-1055h-247v90h-19q-20 -27 -31 -40t-33.5 -31t-51.5 -25.5t-68 -7.5q-154 0 -251 103.5t-97 299.5z" />
<glyph unicode="&#xfc;" horiz-adv-x="952" d="M72 389q0 -196 97 -299.5t251 -103.5q39 0 68 7.5t51.5 25.5t33.5 31t31 40h19v-90h247v1055h-247v-678q0 -66 -44.5 -111t-107.5 -45t-107.5 45t-44.5 111v678h-247v-666zM162 1333q0 61 40 99t99 38q58 0 96.5 -38t38.5 -99q0 -57 -39 -98t-96 -41q-58 0 -98.5 41 t-40.5 98zM506 1333q0 61 39 99t98 38q58 0 97.5 -38.5t39.5 -98.5q0 -57 -40 -98t-97 -41q-58 0 -97.5 40.5t-39.5 98.5z" />
<glyph unicode="&#xfd;" horiz-adv-x="970" d="M20 1055l342 -985q-6 -16 -16.5 -46.5t-18.5 -51.5t-19 -43.5t-25 -34t-31 -11.5h-102v-248h102q54 0 99 18.5t74.5 44t57.5 69t43 76.5t35 83l389 1129h-262l-203 -604l-200 604h-265zM389 1159l121 371l252 -117l-207 -328z" />
<glyph unicode="&#xfe;" horiz-adv-x="989" d="M111 -365v1833h247v-481q32 43 79 62.5t124 19.5q153 0 250.5 -103.5t97.5 -299.5v-279q0 -166 -116.5 -283.5t-282.5 -117.5q-87 0 -152 32v-383h-247zM358 369q0 -62 45 -106t107 -44q64 0 108 44.5t44 109.5v307q0 64 -44.5 109t-107.5 45q-64 0 -108 -44.5 t-44 -109.5v-311z" />
<glyph unicode="&#xff;" horiz-adv-x="970" d="M20 1055l342 -985q-6 -16 -16.5 -46.5t-18.5 -51.5t-19 -43.5t-25 -34t-31 -11.5h-102v-248h102q54 0 99 18.5t74.5 44t57.5 69t43 76.5t35 83l389 1129h-262l-203 -604l-200 604h-265zM176 1331q0 61 40 99t99 38q58 0 97 -38t39 -99q0 -57 -39.5 -98t-96.5 -41 q-58 0 -98.5 41t-40.5 98zM520 1331q0 61 39 99t98 38q58 0 98 -38.5t40 -98.5q0 -57 -40.5 -98t-97.5 -41q-58 0 -97.5 40.5t-39.5 98.5z" />
<glyph unicode="&#x152;" horiz-adv-x="1632" d="M96 401v662q0 179 125 303.5t303 124.5q91 0 176 -37v14h856v-251h-604v-359h463v-250h-463v-358h604v-250h-856v14q-77 -39 -176 -39q-178 0 -303 124.5t-125 301.5zM346 401q0 -73 52 -124.5t126 -51.5q72 0 123 51.5t51 124.5v662q0 75 -51 126.5t-123 51.5 q-74 0 -126 -51.5t-52 -126.5v-662z" />
<glyph unicode="&#x153;" horiz-adv-x="1482" d="M72 385v283q0 167 115.5 284t281.5 117q75 0 146.5 -30t127.5 -81q111 111 277 111q159 0 280 -120t121 -279v-228h-551v-61q0 -64 44.5 -113t105.5 -49q46 0 89 40t65 101l231 -81q-52 -131 -156.5 -212t-228.5 -81q-163 0 -277 114q-114 -114 -274 -114 q-165 0 -281 117.5t-116 281.5zM319 387q0 -66 44 -117t106 -51t108 50.5t46 115.5v301q0 63 -45.5 106.5t-108.5 43.5t-106.5 -44t-43.5 -108v-297zM870 627h304v69q0 61 -45 101.5t-109 40.5q-63 0 -106.5 -40.5t-43.5 -101.5v-69z" />
<glyph unicode="&#x178;" horiz-adv-x="1081" d="M10 1468l404 -811v-657h254v657l403 811h-280l-250 -507l-250 507h-281zM231 1661q0 61 40 99t100 38q58 0 96.5 -38t38.5 -99q0 -57 -39 -98t-96 -41q-58 0 -99 41t-41 98zM575 1661q0 61 39.5 99t98.5 38q58 0 97.5 -38.5t39.5 -98.5q0 -57 -40 -98t-97 -41 q-58 0 -98 41t-40 98z" />
<glyph unicode="&#x2c6;" horiz-adv-x="1062" d="M113 1042l346 420h145l346 -420h-274l-146 179l-143 -179h-274z" />
<glyph unicode="&#x2dc;" horiz-adv-x="1030" d="M113 1176q19 145 94.5 229t183.5 84q46 0 93 -22.5t85 -45t60 -22.5q23 0 37.5 24t25.5 76h226q-24 -138 -92.5 -225.5t-182.5 -87.5q-45 0 -95 22t-92 44t-65 22q-45 0 -45 -98h-233z" />
<glyph unicode="&#x2000;" horiz-adv-x="983" />
<glyph unicode="&#x2001;" horiz-adv-x="1966" />
<glyph unicode="&#x2002;" horiz-adv-x="983" />
<glyph unicode="&#x2003;" horiz-adv-x="1966" />
<glyph unicode="&#x2004;" horiz-adv-x="655" />
<glyph unicode="&#x2005;" horiz-adv-x="491" />
<glyph unicode="&#x2006;" horiz-adv-x="327" />
<glyph unicode="&#x2007;" horiz-adv-x="327" />
<glyph unicode="&#x2008;" horiz-adv-x="245" />
<glyph unicode="&#x2009;" horiz-adv-x="393" />
<glyph unicode="&#x200a;" horiz-adv-x="109" />
<glyph unicode="&#x2010;" horiz-adv-x="913" d="M113 473v236h688v-236h-688z" />
<glyph unicode="&#x2011;" horiz-adv-x="913" d="M113 473v236h688v-236h-688z" />
<glyph unicode="&#x2012;" horiz-adv-x="913" d="M113 473v236h688v-236h-688z" />
<glyph unicode="&#x2013;" horiz-adv-x="1220" d="M113 473v236h995v-236h-995z" />
<glyph unicode="&#x2014;" horiz-adv-x="1515" d="M113 473v236h1290v-236h-1290z" />
<glyph unicode="&#x2018;" horiz-adv-x="358" d="M41 1356q0 22 12 76l41 178h178l-14 -144q59 -45 59 -110q0 -61 -40 -99t-99 -38q-58 0 -97.5 38.5t-39.5 98.5z" />
<glyph unicode="&#x2019;" horiz-adv-x="358" d="M41 1475q0 61 40 99t99 38q58 0 97.5 -38.5t39.5 -98.5q0 -22 -12 -76l-41 -178h-178l14 143q-59 45 -59 111z" />
<glyph unicode="&#x201a;" horiz-adv-x="358" d="M41 125q0 61 40 99t99 38q58 0 97.5 -38.5t39.5 -98.5q0 -22 -12 -76l-41 -178h-178l14 143q-59 45 -59 111z" />
<glyph unicode="&#x201c;" horiz-adv-x="700" d="M41 1356q0 22 12 76l41 178h178l-14 -144q59 -45 59 -110q0 -61 -40 -99t-99 -38q-58 0 -97.5 38.5t-39.5 98.5zM383 1356q0 22 12 76l41 178h178l-14 -144q59 -45 59 -110q0 -61 -40 -99t-99 -38q-58 0 -97.5 38.5t-39.5 98.5z" />
<glyph unicode="&#x201d;" horiz-adv-x="700" d="M41 1475q0 61 40 99t99 38q58 0 97.5 -38.5t39.5 -98.5q0 -22 -12 -76l-41 -178h-178l14 143q-59 45 -59 111zM383 1475q0 61 40 99t99 38q58 0 97.5 -38.5t39.5 -98.5q0 -22 -12 -76l-41 -178h-178l14 143q-59 45 -59 111z" />
<glyph unicode="&#x201e;" horiz-adv-x="700" d="M41 125q0 61 40 99t99 38q58 0 97.5 -38.5t39.5 -98.5q0 -22 -12 -76l-41 -178h-178l14 143q-59 45 -59 111zM383 125q0 61 40 99t99 38q58 0 97.5 -38.5t39.5 -98.5q0 -22 -12 -76l-41 -178h-178l14 143q-59 45 -59 111z" />
<glyph unicode="&#x2022;" horiz-adv-x="745" d="M113 745q0 110 74.5 178t185.5 68t185.5 -68t74.5 -178t-74.5 -178.5t-185.5 -68.5t-185.5 68.5t-74.5 178.5z" />
<glyph unicode="&#x2026;" horiz-adv-x="1284" d="M113 125q0 61 40 99t99 38q58 0 96.5 -38t38.5 -99q0 -57 -39 -98t-96 -41q-58 0 -98.5 41t-40.5 98zM504 125q0 61 40 99t99 38q58 0 97.5 -38.5t39.5 -98.5q0 -57 -40 -98t-97 -41q-58 0 -98.5 41t-40.5 98zM897 125q0 61 39 99t98 38q58 0 97.5 -38.5t39.5 -98.5 q0 -57 -40 -98t-97 -41q-58 0 -97.5 40.5t-39.5 98.5z" />
<glyph unicode="&#x202f;" horiz-adv-x="393" />
<glyph unicode="&#x2039;" horiz-adv-x="1058" d="M113 524l454 373h359l-426 -375l422 -372h-355z" />
<glyph unicode="&#x203a;" horiz-adv-x="1058" d="M133 897h359l454 -373l-454 -374h-357l424 372z" />
<glyph unicode="&#x205f;" horiz-adv-x="491" />
<glyph unicode="&#x20ac;" horiz-adv-x="1148" d="M113 483v203h71v84h-71v203h71v88q0 178 124.5 304t299.5 126q117 0 215.5 -62.5t155.5 -171.5t57 -239l-250 -88v131q0 75 -51.5 126.5t-126.5 51.5q-72 0 -123 -51.5t-51 -126.5v-88h289v-203h-289v-84h289v-203h-289v-80q0 -74 51 -126t123 -52q75 0 126.5 52 t51.5 126v136l250 -99q0 -193 -124.5 -328t-303.5 -135q-114 0 -212 57.5t-155 155.5t-57 213v80h-71z" />
<glyph unicode="&#x2122;" horiz-adv-x="1167" d="M113 1286v182h395v-182h-102v-420h-181v420h-112zM600 866v602h156l69 -139l74 139h156v-602h-183v207l-41 -84l-49 88v-211h-182z" />
<glyph unicode="&#xe000;" horiz-adv-x="1054" d="M0 0v1055h1055v-1055h-1055z" />
</font>
</defs>
</svg>
