<?xml version="1.0" standalone="no"?>
<!DOCTYPE svg PUBLIC "-//W3C//DTD SVG 1.1//EN" "http://www.w3.org/Graphics/SVG/1.1/DTD/svg11.dtd" >
<svg xmlns="http://www.w3.org/2000/svg">
<metadata>
This is a custom SVG webfont generated by Font Squirrel.
Copyright   : c 2001 Ray Larabie This font is freeware Read attached text file for details Info  updates visit wwwlarabiefontscom Donations gratefully accepted at wwwlarabiefontscomdonationhtml Also visit my commercial type foundry at wwwtypodermiccom This font was updated in 2007
Designer    : Ray Larabie
Foundry     : Ray Larabie
Foundry URL : httpwwwlarabiefontscom
</metadata>
<defs>
<font id="webfontvxOi6YBS" horiz-adv-x="907" >
<font-face units-per-em="2048" ascent="1638" descent="-410" />
<missing-glyph horiz-adv-x="493" />
<glyph unicode=" "  horiz-adv-x="493" />
<glyph unicode="&#x09;" horiz-adv-x="493" />
<glyph unicode="&#xa0;" horiz-adv-x="493" />
<glyph unicode="!" horiz-adv-x="333" d="M274 1454q-14 -117 -24 -254t-18.5 -283.5t-14.5 -294.5l-12 -288l-86 -4v553q0 166 -8.5 304t-22.5 267h186zM156 158q35 0 58.5 -26t23.5 -60q0 -35 -24 -58.5t-58 -23.5q-37 0 -60.5 23.5t-23.5 58.5t23.5 60.5t60.5 25.5z" />
<glyph unicode="&#x22;" horiz-adv-x="479" d="M408 1473q-6 -86 -18.5 -176.5t-12.5 -176.5l-96 6q4 25 4 45v39q0 35 -1 64l-2 57q-1 29 -3.5 61.5t-4.5 75.5zM207 1477q-12 -68 -12 -150q0 -45 2 -91t6 -97l-97 -9q-6 86 -14 174.5t-31 168.5z" />
<glyph unicode="#" horiz-adv-x="966" d="M729 1333q-8 -106 -18 -358q88 -6 139 -6q16 0 25.5 1t19.5 1l-12 -140q-23 8 -67 15.5t-111 11.5l-9 -221q72 0 119 3t74 7v-139q-49 8 -197 12q4 -135 8.5 -220t12.5 -128l-138 -6q2 23 3.5 54.5t1.5 74.5v190v17q0 8 -2 16l-170 -8q4 -68 12 -132.5t24 -125.5 l-141 -10q-2 119 -12 264q-78 -4 -129 -9t-76 -14l-4 142q49 -6 121 -7h42q22 0 44 3l-2 217q-74 -4 -126 -8.5t-87 -12.5l-4 139q16 -2 38 -2h50h58q32 0 73 2l-13 361h138q-4 -45 -7.5 -132t-3.5 -222l191 12q2 66 3 118t1 97q0 90 -6 143h137zM403 846v-219l177 6l12 225 z" />
<glyph unicode="$" horiz-adv-x="915" d="M498 1489q-2 -23 -3 -49.5t-1 -57.5q0 -14 1 -27.5t1 -25.5q55 -6 98 -31.5t70.5 -64.5t42 -87t14.5 -97q0 -41 -8 -72l-138 22q25 33 25 82q0 23 -10 47.5t-28.5 45t-44 34t-56.5 13.5q-41 0 -75 -22.5t-57.5 -59.5t-35.5 -82t-12 -88q0 -41 11 -69t32 -54 q16 -25 64 -42.5t128 -43.5q70 -23 117 -55.5t73.5 -70.5t38 -80t11.5 -85q0 -57 -17.5 -113.5t-49.5 -103.5t-79 -80t-106 -43q-2 -18 -2 -36v-34q0 -33 2 -58.5t8 -45.5l-137 -2q8 61 12 166q-61 2 -105 35.5t-72 83t-40 109t-12 112.5v20l143 -12q-20 -47 -20 -92 q0 -61 39.5 -105.5t107.5 -44.5q43 0 83 21.5t68.5 56.5t46 78t17.5 88q0 66 -35 110t-137 72q-80 23 -131 44.5t-76 43.5q-45 39 -71.5 87t-26.5 137q0 55 13.5 112.5t40 106.5t65.5 86t92 53q0 96 -17 152z" />
<glyph unicode="%" horiz-adv-x="1314" d="M942 111q86 4 127 59t41 129q0 80 -35 130t-90 50q-39 0 -73.5 -20.5t-61.5 -52t-42 -69.5t-15 -71q0 -61 38.5 -108t110.5 -47zM973 582q66 0 115 -26t80.5 -65.5t47 -92t15.5 -103.5q0 -63 -23.5 -118.5t-64.5 -96.5t-94.5 -64.5t-114.5 -23.5q-66 0 -114 23.5 t-80.5 61.5t-48 84t-15.5 91q0 59 22.5 118.5t62.5 106.5t94.5 76t117.5 29zM367 999q90 4 129 60.5t39 130.5q0 82 -36 130t-89 48q-39 0 -74 -20.5t-60.5 -51t-41 -68.5t-15.5 -75q0 -57 38 -105.5t110 -48.5zM1174 1430q-72 -92 -194 -271.5t-292 -464.5l-284 -464 l-166 -269l-127 53q76 92 199.5 274.5l303.5 471.5l291 470q113 179 166 271zM244 909q-76 35 -110 95.5t-34 130.5q0 61 22.5 121.5t62.5 108.5t94.5 78t115.5 30q68 0 117 -26t81 -67t47 -92t15 -100q0 -66 -23.5 -122t-63.5 -97t-93 -65.5t-113 -24.5q-61 -1 -118 30z " />
<glyph unicode="&#x26;" horiz-adv-x="1083" d="M446 956l83 78q42 39 76 78t55.5 78t21.5 80q0 59 -36 85.5t-85 26.5q-31 0 -59.5 -12t-52 -37.5t-38 -64.5t-14.5 -92q0 -47 11 -102t38 -118zM410 786l-82 -138q-35 -60 -58.5 -113.5t-35 -103.5t-11.5 -105q0 -41 8.5 -84t24.5 -78t44 -57.5t69 -22.5q86 0 171 62.5 t150 154.5l-80 124l-70 112q-34 55 -65.5 115t-64.5 134zM1028 647q-25 -47 -75 -132l-124 -214q61 -92 111.5 -149.5t85.5 -90.5l-111 -106l-67 113l-88 151q-72 -119 -175.5 -191.5t-232.5 -72.5q-63 0 -110 30.5t-78 79t-46.5 108.5t-15.5 120q0 160 68 311.5t190 280.5 q-29 74 -49 143.5t-20 167.5q0 25 1 50.5t9 49.5q12 41 42 77t70 61.5t87 40t94 14.5q39 0 76 -11.5t65.5 -36t46 -63.5t17.5 -94q0 -63 -30 -119.5t-76 -108.5t-100 -101.5l-101 -96.5q31 -70 60.5 -129t61 -114.5t67.5 -109.5l79 -114q61 119 97 203t50 133z" />
<glyph unicode="'" horiz-adv-x="243" d="M176 1460q0 -35 -3 -69.5t-6 -76.5t-5 -93.5t-2 -118.5l-64 -2l-30 205l-17 147z" />
<glyph unicode="(" horiz-adv-x="704" d="M643 1556q-162 -242 -249 -525t-87 -589q0 -211 54.5 -407.5t183.5 -382.5l-123 -60q-119 203 -175.5 419t-56.5 450q0 156 25 307.5t69 296.5t105.5 283.5t132.5 265.5z" />
<glyph unicode=")" horiz-adv-x="618" d="M182 1688q147 -223 221 -470t74 -526q0 -256 -60.5 -492.5t-166.5 -457.5l-129 53q117 205 179 435.5t62 469.5q0 248 -71.5 482.5t-231.5 439.5z" />
<glyph unicode="*" horiz-adv-x="878" d="M799 1012q-74 -16 -277 -105q66 -78 120 -135t99 -100l-108 -82q-29 55 -76 119.5t-113 136.5q-154 -160 -192 -264l-119 98q47 23 106.5 80t127.5 149q-106 47 -184.5 72t-129.5 31l47 121q47 -39 122 -75t179 -67q0 199 -18 285l152 -6q-23 -78 -39 -279 q98 49 162.5 89t99.5 69z" />
<glyph unicode="+" horiz-adv-x="720" d="M664 627q-43 12 -99.5 19t-124.5 7h-26q2 -86 7 -153.5t15 -116.5l-131 -4q10 59 16.5 125.5t6.5 146.5l-168 -7q-70 -3 -111 -7l8 121q35 -10 89.5 -15.5t140.5 -5.5h37q-6 184 -31 275h137q-8 -43 -12 -109.5t-8 -165.5q80 2 144 6.5t114 14.5z" />
<glyph unicode="," horiz-adv-x="335" d="M131 -117q45 20 51 70q-25 -10 -37 -10q-37 0 -62.5 28.5t-25.5 69.5q0 66 32 100.5t83 34.5q53 0 78.5 -38t25.5 -89q0 -59 -19 -111.5t-67 -109.5z" />
<glyph unicode="-" horiz-adv-x="708" d="M582 600q-121 18 -236 18q-55 0 -114.5 -3t-118.5 -7l6 142q59 -10 117.5 -14.5t117.5 -4.5q57 0 116.5 2t119.5 6z" />
<glyph unicode="." horiz-adv-x="376" d="M72 -57q-14 31 -15 67q0 61 46.5 94t97.5 33q53 0 84.5 -35.5t31.5 -97.5q0 -49 -32.5 -87t-100.5 -38q-31 0 -61.5 15.5t-50.5 48.5z" />
<glyph unicode="/" horiz-adv-x="745" d="M721 1473q-53 -86 -126 -269.5t-177 -486.5l-168 -489.5t-90 -295.5l-133 41q12 27 41 102l66 179l84 229l93 256l92 257l82 231l63 180l36 104z" />
<glyph unicode="0" horiz-adv-x="903" d="M178 723q0 -199 27.5 -326t69.5 -198.5t89.5 -99t86.5 -27.5q35 0 82 24.5t89 95t71.5 197.5t29.5 334q0 156 -15.5 265.5t-39 181t-54 112.5t-60.5 60.5t-57.5 24.5t-45.5 5q-37 0 -84.5 -17.5t-88 -84t-69.5 -195.5t-31 -352zM451 1487q90 0 162.5 -38t125 -127 t80 -235.5t27.5 -363.5q0 -176 -17.5 -301t-46 -210t-67.5 -136t-83 -78t-91 -35t-90 -8q-68 0 -137.5 31.5t-126 111.5t-92.5 216.5t-36 344.5q0 190 16.5 326.5t46.5 229t67.5 146.5t81.5 81.5t90.5 36t89.5 8.5z" />
<glyph unicode="1" horiz-adv-x="503" d="M76 1452q14 -2 28 -2h31q78 0 180 12q-8 -223 -15 -481t-7 -551q0 -111 2 -191.5t6 -134.5l154 9l6 -115q-10 2 -24 2h-27h-56q-43 0 -90 -1t-90 -3t-80 -5t-61 -7l-6 116q25 -6 67 -6q18 0 41 1t47 3q2 35 4 130.5l4.5 219t4.5 264t3 266.5t2 223t1 138q-61 -4 -115 -14 z" />
<glyph unicode="2" horiz-adv-x="813" d="M82 1018q0 80 10 142.5t26.5 108.5t38 78.5t46.5 55.5q84 80 211 80q72 0 126 -26.5t90 -72t54 -108t18 -131.5q0 -154 -75.5 -289t-200.5 -229q-61 -47 -107.5 -89t-78 -97.5t-47 -131.5t-15.5 -188l132.5 -11.5t131.5 -5.5q72 0 147 7.5t152 23.5l9 -155 q-66 12 -165.5 16t-234.5 4q-94 0 -162.5 -4t-117.5 -10q-2 37 -3 69.5t-1 65.5q0 145 25.5 240.5t66.5 160t95 110.5l109 93q68 51 111 104.5t67.5 107.5t34 110.5t9.5 115.5q0 94 -42 154.5t-130 60.5q-37 0 -72 -12t-62.5 -40t-44 -71t-16.5 -106t14 -123z" />
<glyph unicode="3" horiz-adv-x="710" d="M84 1280q35 86 104.5 140.5t182.5 54.5q68 0 119 -27t85.5 -73t52 -109.5t17.5 -135.5q0 -47 -9 -99t-32.5 -100t-61.5 -89t-96 -66q74 -18 115 -58t61.5 -91.5t24.5 -107.5t4 -107q0 -92 -18.5 -168t-61.5 -148q-41 -68 -103 -93.5t-136 -25.5q-43 0 -94.5 12.5 t-95.5 47.5t-74.5 95.5t-32.5 156.5l141 14q-6 -35 -6 -65q0 -72 41 -119t121 -47q41 0 79 17t66.5 56t46 101.5t17.5 152.5q0 63 -15.5 122t-46 102t-78 68.5t-108.5 25.5q-6 0 -13.5 -1t-15.5 -1l10 123q70 0 119 25.5t79 67.5t43 96t13 114q0 221 -161 221 q-29 0 -54.5 -5t-48 -20.5t-38 -44t-21.5 -73.5z" />
<glyph unicode="4" horiz-adv-x="831" d="M678 1454q-23 -199 -29 -403.5t-8 -413.5q47 0 87 3t71 7l8 -135q-29 4 -61.5 6t-71.5 2h-33q-2 -59 -3 -116.5t-1 -116.5q0 -164 6 -326h-117q4 141 6.5 278.5t2.5 278.5q-129 -6 -243 -7t-231 -15l-63 137q55 31 103.5 80t83 109.5t55 126t20.5 128.5q0 47 -13.5 92 t-45.5 86l133 52q41 -104 41 -205q0 -61 -11.5 -126t-38 -127.5t-69.5 -119.5t-106 -102q115 0 202.5 3t186.5 3q4 104 7 209.5t3 210.5q0 104 -5 201.5t-18 195.5z" />
<glyph unicode="5" horiz-adv-x="882" d="M760 1319q-170 18 -334 18q-41 0 -81 -1t-81 -3l-90 -375q31 37 95.5 60.5t162.5 23.5q111 0 186.5 -48t124 -122.5t70 -166t21.5 -177.5q0 -96 -33 -194t-92.5 -178t-143.5 -130.5t-184 -50.5q-90 0 -150.5 45.5t-99.5 114t-55.5 148t-16.5 147.5h142q-12 -49 -13 -96 q0 -129 60.5 -182.5t152.5 -53.5q72 0 131.5 42t102.5 106.5t66.5 143.5t23.5 153q0 111 -31.5 185.5t-80 120.5t-105.5 66.5t-109 20.5q-78 0 -146.5 -34t-109.5 -101l-110 45q43 143 78.5 287.5t60.5 320.5q147 -6 289 -6q72 0 144.5 4t148.5 10z" />
<glyph unicode="6" horiz-adv-x="892" d="M514 784q-23 2 -43 5.5t-41 3.5q-92 0 -163.5 -37t-110.5 -123q0 -131 24.5 -249t114.5 -216q63 -70 162 -76q66 0 117 30t84.5 79t51 114.5t17.5 137.5q0 61 -14.5 118.5t-42 102.5t-67.5 74.5t-89 35.5zM618 1184q6 39 7 67q0 66 -29 92.5t-86 26.5q-94 0 -158.5 -46 t-106.5 -126t-65.5 -189.5t-36.5 -238.5q41 63 120 101t177 38t173 -33.5t125 -92t76 -140.5t26 -176q0 -102 -22.5 -194.5t-71 -161t-123 -108.5t-177.5 -40q-111 0 -188.5 59.5t-128.5 160t-74.5 233.5t-23.5 280q0 227 45 396.5t139 267.5q70 72 137.5 103.5t132.5 31.5 q45 0 92.5 -10t85 -43t63.5 -94.5t28 -161.5z" />
<glyph unicode="7" horiz-adv-x="729" d="M713 1401q-74 -106 -140.5 -244.5t-126.5 -312.5q-59 -174 -94 -297t-54 -219.5t-31 -176.5l-23 -171l-146 22q25 78 46.5 158t37.5 172q8 49 31 129l52.5 175t66.5 199l74 199q37 96 73.5 177t67.5 135q-72 -8 -136.5 -10.5t-128 -2.5t-125 -1t-122.5 -7l6 137 q72 -10 140.5 -13t140.5 -3q74 0 153.5 4t177.5 10z" />
<glyph unicode="8" horiz-adv-x="786" d="M524 729q70 -29 113 -70t67.5 -89t34 -97t9.5 -94q0 -82 -23 -157t-71 -133t-124.5 -93t-185.5 -35q-80 0 -141.5 28.5t-103.5 78t-62.5 113t-20.5 134.5q0 61 10.5 124t36 119t71.5 102.5t118 74.5q-47 33 -78 74t-51.5 84t-28.5 85t-8 75q0 55 10 128.5t42 141.5 t92.5 115t162.5 47q82 0 139.5 -33t94.5 -88t54 -128t17 -155q0 -98 -38 -192t-136 -160zM362 655q-59 -6 -102 -37.5t-71.5 -78.5t-43 -103.5t-14.5 -109.5q0 -51 13.5 -97.5t42 -81t73.5 -55t111 -20.5q119 4 190.5 85t71.5 222q0 51 -17.5 101t-50.5 89t-78 62.5 t-102 23.5h-23zM463 809q59 53 89 127t30 160q0 61 -13.5 112.5t-38 90t-60.5 60t-81 21.5q-53 0 -90 -31.5t-59.5 -77.5t-33.5 -95.5t-11 -83.5q0 -51 11 -104.5t35.5 -96.5t62.5 -70.5t91 -27.5q31 0 68 16z" />
<glyph unicode="9" horiz-adv-x="915" d="M735 817q0 125 -27.5 245t-117.5 218q-35 39 -77 56.5t-101 17.5t-105.5 -30t-79 -79t-49 -112.5t-16.5 -131.5q0 -66 14 -123t41 -103t66 -75.5t88 -35.5q23 -4 41 -6.5t39 -2.5q92 0 165.5 38t118.5 124zM270 266q-6 -41 -6 -69q0 -63 27.5 -91t85.5 -28q72 0 128 26.5 t103 90.5q35 47 57.5 96t37 106.5t23.5 126t19 154.5q-43 -63 -122.5 -101t-178.5 -38q-100 0 -174.5 33.5t-124 94t-74 143.5t-24.5 181q0 100 24.5 190.5t74 158t123 106.5t171.5 39q113 0 192 -60.5t128 -162t71.5 -231.5t22.5 -267q0 -236 -43 -407t-141 -271 q-68 -70 -133.5 -101.5t-133.5 -31.5q-49 0 -95 10t-83 44t-61.5 94.5t-30.5 162.5z" />
<glyph unicode=":" horiz-adv-x="438" d="M74 45q0 82 41 108.5t96 26.5q74 0 102.5 -33.5t28.5 -95.5q0 -59 -45 -84.5t-107 -25.5q-41 0 -73.5 19.5t-42.5 72.5v12zM246 741q41 0 67.5 -35.5t26.5 -78.5q0 -49 -44 -84t-93 -35q-53 0 -79 30.5t-26 69.5q0 37 14.5 62.5t37 41t48 22.5t48.5 7z" />
<glyph unicode=";" horiz-adv-x="479" d="M188 -117q45 20 54 70q-25 -12 -43 -12q-41 0 -63.5 37.5t-22.5 80.5q0 51 35.5 84t80.5 33q53 0 79 -38t26 -89q0 -59 -19.5 -111.5t-64.5 -109.5zM113 686q-6 18 -7 39q0 51 34 89t81 38q53 0 84 -37t31 -102q0 -53 -32 -83t-75 -30q-47 0 -78.5 26.5t-37.5 59.5z" />
<glyph unicode="&#x3c;" horiz-adv-x="647" d="M520 1047q-102 -78 -186 -175l-164 -186q86 -80 183.5 -157.5t201.5 -131.5l-96 -123q-43 49 -94.5 100.5t-104.5 98.5t-104.5 87t-94.5 67l-2 84q41 33 91.5 83t99.5 109.5t92 123t68 122.5z" />
<glyph unicode="=" horiz-adv-x="854" d="M754 711q-47 2 -94 2h-93q-113 0 -223.5 -3t-222.5 -14l12 142q66 -10 127.5 -14.5t126.5 -4.5q92 0 181 7.5t182 19.5zM750 479q-23 4 -42 4h-40q-139 0 -268.5 -11t-266.5 -28l-12 136q160 0 316.5 13t316.5 21z" />
<glyph unicode="&#x3e;" horiz-adv-x="690" d="M582 711q-41 -35 -91.5 -86.5t-99.5 -110.5t-91 -122.5t-67 -121.5l-108 105q104 78 187 173l163 187q-86 78 -185.5 156t-203.5 133l98 123q41 -47 91.5 -99.5t103.5 -100.5t104.5 -88t96.5 -64z" />
<glyph unicode="?" horiz-adv-x="798" d="M473 61q0 -51 -35 -89t-100 -38q-45 0 -86 32t-41 100q0 57 40 90.5t87 33.5q59 0 97 -31.5t38 -97.5zM59 1092q0 94 27 165.5t73 118.5t109.5 72t139.5 25q129 0 207.5 -74t78.5 -221q0 -102 -29.5 -172t-70.5 -126.5t-87 -109.5t-77 -121q-23 -49 -39 -98t-16 -102 q0 -59 22 -115l-139 -25q-2 16 -2 34v34q0 104 23.5 185t59.5 146.5t77 121t76.5 108.5t59 109.5t23.5 126.5q0 29 -10 62.5t-32.5 63t-58.5 49t-85 19.5q-100 0 -146 -45t-46 -156q0 -41 6 -92z" />
<glyph unicode="@" horiz-adv-x="1306" d="M739 575q2 59 4 105.5t7 81.5q-82 45 -140 45q-57 0 -83.5 -34t-26.5 -79q0 -61 42 -95t120 -34q16 0 35 3t42 7zM1169 256q-100 -41 -204.5 -63.5t-208.5 -22.5q-133 0 -266.5 43t-240 124t-172 195.5t-65.5 258.5q0 129 54.5 248.5t145.5 211.5t212 147.5t254 55.5 q123 0 210 -32.5t146.5 -84t97 -113t66.5 -118.5q25 -53 37 -114.5t12 -117.5q0 -86 -26.5 -159.5t-76.5 -129t-121 -89t-157 -39.5l-53 -4q-27 -2 -53 -2q-63 0 -132 9t-126.5 34.5t-94 70.5t-36.5 117q0 41 15 81t46 70.5t75 50t101 19.5q72 0 144 -47q-4 100 -45 145.5 t-101 45.5q-47 0 -74.5 -25t-27.5 -66q0 -4 1 -9t1 -9l-115 33q6 92 64.5 134t144.5 42q268 0 268 -287q0 -53 -4 -121.5t-10 -160.5q70 0 122 26.5t86 69.5t50 98t16 115q0 80 -30.5 159.5t-89 144t-144.5 105.5t-196 41q-98 0 -194.5 -43t-172.5 -118.5t-122 -176 t-46 -213.5q0 -117 54.5 -209t142.5 -156.5t196.5 -99t218.5 -34.5q92 0 179.5 22.5t165.5 73.5z" />
<glyph unicode="A" d="M768 190q0 -102 74 -190h-174q-18 14 -19 61v19q0 10 2 20q-55 -115 -211 -114q-90 0 -158.5 43t-113.5 111.5t-67.5 154.5t-22.5 172q0 254 101.5 383t273.5 129q76 0 133 -28.5t80 -92.5q2 27 2 51v49q0 123 -13.5 202t-38 124t-60.5 62.5t-81 17.5t-85 -8t-70.5 -33 t-48 -70t-17.5 -118q0 -16 1 -33t3 -35l-152 10q18 123 43 192.5t74 112.5q53 47 108.5 69t129.5 22q72 0 140.5 -25t109.5 -84q39 -59 48 -171t9 -286v-717zM649 672q-2 49 -21.5 86t-48 61.5t-65.5 36.5t-74 12q-66 0 -110.5 -33.5t-74.5 -87t-43 -123t-13 -139.5 q0 -57 11 -122.5t41 -122t81 -94t129 -37.5q115 0 188 110v453z" />
<glyph unicode="B" horiz-adv-x="929" d="M383 1454q180 0 252 -45q80 -49 122 -122t42 -195q0 -123 -65.5 -204t-182.5 -126q70 -4 130 -30.5t104 -75t69 -114t25 -147.5q0 -76 -23 -141q-20 -61 -53 -107.5t-89.5 -79t-141.5 -49t-207 -16.5h-289q16 41 28.5 131t20.5 222t12 300t4 363q0 160 -8 264t-27 168z M252 692q-4 -78 -7 -150l-6 -144q-3 -71 -7.5 -143.5t-10.5 -150.5l154 7q13 -1 27 -1q34 0 69 4q49 5 98 9q43 4 78 29.5t61.5 64.5t41 87t14.5 102q0 150 -91 221t-296 71zM395 817q150 0 219.5 68.5t69.5 216.5q0 70 -21.5 117t-60.5 76.5t-92 42t-117 12.5q-35 0 -71 -2 l-76 -5q4 -92 6 -178t2 -174v-89q0 -44 -2 -91z" />
<glyph unicode="C" horiz-adv-x="808" d="M621 932q14 43 14 112q0 147 -52.5 231.5t-144.5 84.5q-72 0 -123 -47t-85.5 -130t-51 -200t-16.5 -254q0 -123 8 -214t27 -148q14 -53 36.5 -101.5t51 -86.5t62.5 -60.5t71 -22.5t74.5 14.5t67.5 53.5t49.5 105.5t19.5 170.5q0 27 -2 51.5t-6 49.5l143 -11l-26 -120 q-13 -61 -23 -123q-29 -160 -98.5 -233.5t-186.5 -73.5q-80 0 -138.5 35.5t-100 96t-69.5 137.5t-43.5 158.5t-21.5 161.5t-6 148q0 61 2 118l4 107q2 100 32 196.5t80 172t119.5 121t153.5 45.5q106 0 168 -55.5t94.5 -138.5t43 -179t16.5 -176z" />
<glyph unicode="D" horiz-adv-x="860" d="M244 1450q147 -4 211 -25q55 -18 118.5 -56t117.5 -120t90 -221t36 -358q0 -193 -59 -340q-39 -96 -88 -161t-108.5 -103.5t-130.5 -54t-152 -15.5l-183 2q2 59 3 117.5t1 117.5q0 301 -14 604.5t-14 610.5zM215 100q14 -4 31.5 -5t36.5 -1q78 0 155.5 31t139 98.5 t100.5 176t39 264.5q0 115 -6 193.5t-18.5 136t-32 98.5t-46.5 82q-20 29 -49.5 57.5t-68.5 52t-90.5 37.5t-114.5 14q-47 0 -103 -6q4 -303 15.5 -572.5t11.5 -535.5v-121z" />
<glyph unicode="E" horiz-adv-x="882" d="M690 879q2 18 2 36v37q0 76 -11 143.5t-30.5 119t-45 85t-54.5 46.5q-16 6 -37.5 9t-40.5 3q-90 0 -146.5 -51.5t-89 -125t-44 -156.5t-11.5 -146h508zM178 764q-2 -23 -2 -43v-41q0 -338 156 -487q88 -84 170 -84q51 0 91 24.5t68.5 65.5t44 94t15.5 110q0 66 -16 148 l145 -6q-4 -127 -24.5 -228.5t-61.5 -173t-107.5 -110.5t-160.5 -39q-82 0 -148.5 37t-118 95t-87.5 133t-54 151q-25 100 -25 297q0 129 5.5 218t13.5 142q10 82 41 154.5t80 126t116.5 84t151.5 30.5q51 0 102.5 -16t93.5 -49t71.5 -83t39.5 -118q23 -104 28 -209.5 t7 -222.5h-635z" />
<glyph unicode="F" horiz-adv-x="704" d="M676 1321q-59 10 -119.5 12t-124.5 2q-55 0 -111.5 -1t-115.5 -1q-2 -53 -3 -102t-1 -96q0 -66 1 -131.5t5 -137.5q33 -2 59.5 -3t48.5 -1h66q35 0 84 6t104 11l-4 -142q-53 8 -92 10.5t-74 2.5q-25 0 -50 -1t-58 -1q-16 0 -35.5 1t-42.5 1q-4 -111 -6 -215.5t-2 -215.5 q0 -211 12 -323h-147q14 59 20 120.5t6 123.5v473q0 123 2 216t2 165q0 88 -1 141t-4 89t-8 63.5t-15 64.5h583z" />
<glyph unicode="G" horiz-adv-x="796" d="M578 932q10 35 18 77t8 93q0 117 -44 180.5t-142 63.5q-63 0 -114.5 -35t-86.5 -112t-54.5 -199.5t-19.5 -297.5q0 -106 11.5 -204.5t39 -178t71.5 -136t112 -79.5l29 -7q12 -3 26 -3q104 0 158.5 102.5t54.5 268.5q0 31 -1 64.5t-3 74.5q-57 -2 -99 -4l-81 -4 q-39 -2 -78 -5t-90 -9l-4 159q104 -31 192 -30q43 0 115 3l176 7q-10 -53 -13 -105.5t-3 -107.5v-68q0 -80 -18.5 -160.5t-56.5 -145t-96.5 -104.5t-138.5 -40q-123 0 -201.5 66.5t-124.5 169t-63.5 224t-17.5 234.5q2 72 6 154t12.5 161.5t23.5 151.5t40 123q18 39 51 73.5 t74 60.5t87 40t93 14q78 0 129 -27.5t83 -75.5t47 -109.5t20 -129.5q4 -59 9 -106t13 -86z" />
<glyph unicode="H" horiz-adv-x="892" d="M807 1450q-12 -78 -19.5 -307.5t-7.5 -630.5q0 -199 2 -324t13 -188h-148q14 135 19 692l-447 -2q0 -549 12 -692h-149q10 66 16 214t6 396q0 680 -12 844h135q-6 -59 -8 -163.5t-2 -270.5v-209h451q0 92 2 170t2 156t-1 156.5t-7 158.5h143z" />
<glyph unicode="I" horiz-adv-x="372" d="M266 1448q-10 -98 -15 -297t-5 -524q0 -455 24 -627h-170q31 190 31 731q0 281 -6 453t-21 264h162z" />
<glyph unicode="J" horiz-adv-x="757" d="M698 1450q-25 -147 -24 -375q0 -29 2 -57.5t2 -56.5v-213q2 -10 2 -20v-19v-99q0 -104 -11.5 -214.5t-47 -202t-104 -148.5t-183.5 -57q-141 0 -216 82t-75 223q0 78 4 141.5t12 112.5l144 -25q-20 -27 -35.5 -83t-15.5 -142q0 -92 48 -146.5t126 -54.5q76 0 123 47 t73.5 138.5t35.5 222.5t9 297q0 223 -11 382.5t-24 264.5z" />
<glyph unicode="K" horiz-adv-x="909" d="M831 1434l-125 -150l-102 -129l-104 -144l-138 -198q51 25 101 25q35 0 69 -13q39 -12 64 -32.5t38 -53t18 -80t5 -112.5q0 -29 -2 -66t-3 -74.5t-3 -74.5t-2 -64q0 -61 5 -96t14.5 -52.5t24 -20.5t30.5 -3q74 0 86 101l106 -72q-47 -78 -98 -106.5t-106 -28.5 q-31 0 -63 5t-57.5 28.5t-43 70.5t-17.5 133q0 33 2 72l5 78l4 75q2 36 2 62q0 57 -4.5 97t-18.5 65.5t-41.5 37t-77.5 11.5q-70 0 -107.5 -35t-49.5 -82q0 -92 -2 -172t-3 -153.5t-3.5 -143t-2.5 -141.5h-114q4 199 6 386t2 384q-8 270 -21.5 436t-29.5 246h153 q-2 -35 -3 -67.5t-1 -63.5q0 -125 7.5 -251t11.5 -273l135 201l113 167l96.5 150.5t81.5 150.5z" />
<glyph unicode="L" horiz-adv-x="546" d="M244 1450q-14 -59 -21 -224l-16 -446q-10 -279 -17.5 -444.5t-13.5 -224.5h88q68 0 139.5 5t131.5 17v-145q-84 12 -207 12h-283q29 119 47 721l7 274q3 121 3 213t-3 151.5t-7 90.5h152z" />
<glyph unicode="M" horiz-adv-x="1103" d="M930 1417q0 -57 4 -132t16 -173l31.5 -289.5t34 -294t41 -280.5t51.5 -250h-156q0 10 1 20.5t1 22.5q0 43 -6 116.5t-15 169t-21.5 206t-23.5 226l-21.5 231.5t-16.5 222q-72 -338 -125 -633.5t-113 -578.5h-116l-46 269q-24 136 -45.5 281.5t-41 305.5t-35.5 342 q-10 -119 -25.5 -245t-33 -247.5t-37.5 -235.5l-35 -208q-16 -94 -30.5 -165.5t-23.5 -108.5l-131 8q18 68 44 185.5t54 259.5l55 297q28 155 49.5 294t34.5 251t13 169h146q0 -59 15 -183l37 -290l47 -365q26 -199 46 -407q29 223 65.5 413.5t79.5 356.5q45 172 64.5 287.5 t19.5 183.5h148v-31z" />
<glyph unicode="N" horiz-adv-x="841" d="M795 1452q-10 -82 -18.5 -214t-13.5 -287.5t-8 -320.5t-3 -311q0 -92 2 -171.5t6 -151.5l-113 -10q-80 248 -147.5 431t-125 322.5t-105.5 244.5l-91 200q-8 -190 -12 -348t-4 -312q0 -135 3 -264t9 -276h-125q16 160 22.5 374.5t6.5 487.5q0 299 -6 604h135 q51 -203 106.5 -363.5t112.5 -295t115 -249.5l112 -227v498q0 166 -2 323.5t-8 317.5z" />
<glyph unicode="O" horiz-adv-x="884" d="M156 723q0 -199 28.5 -326t71.5 -198.5t91 -99t89 -27.5q35 0 84 24.5t93 95t76 197.5t32 334q0 156 -16.5 265.5t-41 181t-57.5 112.5t-63.5 60.5t-59 24.5t-47.5 5q-39 0 -86 -17.5t-90 -84t-72.5 -195.5t-31.5 -352zM436 1487q90 0 165 -38t129 -127t84 -235.5 t30 -363.5q0 -176 -17.5 -301t-48 -210t-71.5 -136t-86.5 -78t-92.5 -35t-92 -8q-70 0 -141.5 31.5t-130 111.5t-95 217.5t-36.5 346.5q0 190 17.5 325t48 227.5t70.5 146.5t85 81.5t92 36t90 8.5z" />
<glyph unicode="P" horiz-adv-x="780" d="M201 1339q4 -141 7 -258.5t3 -244.5q0 -41 -1 -84t-3 -90l62.5 -7.5t58.5 -3.5q68 0 121 16.5t89.5 55.5t57 102.5t20.5 159.5q0 104 -11 174t-44 111t-93 57t-159 16q-25 0 -52 -1t-56 -3zM49 -2q23 86 36 336t13 639q0 160 -3 276.5t-11 198.5q98 6 178 6 q291 0 371 -88q102 -115 102 -313q0 -145 -31.5 -243.5t-89 -160t-134.5 -88t-169 -26.5q-55 0 -106 12q-12 -203 -12 -346q0 -61 3 -110.5t7 -90.5z" />
<glyph unicode="Q" horiz-adv-x="870" d="M784 -264q-6 -31 -23.5 -56.5t-42 -46t-53 -32t-59.5 -11.5h-10q-72 8 -116 44t-69.5 87.5t-34.5 114t-9 125.5q-61 14 -122 55t-109 122t-76.5 207t-28.5 310q0 193 17.5 329t48 228.5t70.5 147.5t85 82.5t91 36t91 8.5q88 0 163 -38t129 -127t85 -235.5t31 -363.5 q0 -240 -32 -386.5t-83 -228t-114.5 -112.5t-125.5 -37q0 -37 1 -80t12.5 -82t35 -64.5t70.5 -25.5q23 0 39.5 11.5t26.5 39.5q0 4 2 4t2 5zM150 723q0 -199 29.5 -326t72.5 -198.5t92 -99t90 -27.5q35 0 83 24.5t92 95t75 197.5t31 334q0 156 -15.5 265.5t-41 181 t-56.5 112.5t-62.5 60.5t-59 24.5t-46.5 5q-37 0 -86 -17.5t-92 -84t-73.5 -195.5t-32.5 -352z" />
<glyph unicode="R" horiz-adv-x="567" d="M539 1350q-25 6 -64 6q-10 -4 -18 -4h-19q-43 0 -86 -16.5t-77.5 -48.5t-57 -78t-24.5 -107q2 -104 2 -209v-215v-252q0 -141 5 -244.5t15 -185.5l-156 4q10 92 16.5 227t6.5 332q0 371 -6 587t-17 302h134l-15 -168q29 59 65 97t75.5 58.5t83.5 27.5t87 7q31 0 62 -6z " />
<glyph unicode="S" horiz-adv-x="722" d="M508 1010q33 74 33 151q0 111 -43 151t-129 40q-176 0 -176 -213q0 -45 7 -88t32.5 -89.5t74.5 -97.5t133 -114q74 -57 121 -107.5t72.5 -100.5t35 -102.5t9.5 -111.5q0 -193 -83 -278t-261 -85q-276 0 -277 416v27q0 12 2 28l146 2q-25 -111 -25 -178q0 -49 16.5 -83 t42 -54.5t58.5 -29.5t65 -9q37 0 73 15.5t64.5 45t46 74.5t17.5 107q0 45 -9 88t-35.5 88t-75 94t-124.5 109q-72 55 -118.5 110t-74.5 110.5t-39 114t-11 119.5q0 94 23.5 154.5t61.5 95.5t88 48t105 13q96 0 155.5 -24.5t91.5 -72.5t43 -120.5t11 -169.5v-37q0 -19 -4 -42 z" />
<glyph unicode="T" horiz-adv-x="618" d="M600 1325q-96 16 -225 18l-6 -802q0 -432 20 -541h-145q12 76 19 308.5t7 596.5q0 156 -4 261.5t-8 172.5q-139 -6 -225 -18l2 139q141 -12 282 -12t283 12v-135z" />
<glyph unicode="U" horiz-adv-x="825" d="M772 1446q-10 -70 -13 -146.5t-3 -169.5q0 -63 1 -134.5t1 -153.5q0 -195 -1 -334t-10.5 -235.5t-30 -155t-58 -89t-99 -41t-149.5 -10.5q-59 0 -113.5 13.5t-97.5 69t-71 169t-34 314.5q-4 100 -6 189t-2 171q0 70 2 131.5t2 118.5q0 166 -18 299h141 q-10 -92 -16.5 -204.5t-6.5 -260.5q0 -92 2.5 -194.5t8.5 -219.5q6 -154 19 -248t34 -139q43 -94 199 -94q72 0 111.5 24.5t59 77t23.5 136.5t4 200q0 322 -5 547.5t-9 372.5z" />
<glyph unicode="V" horiz-adv-x="768" d="M772 1438q-39 -86 -120 -446.5t-203 -1005.5l-111 -2q-233 1280 -313 1456l147 28q33 -150 60.5 -292t53.5 -295l52 -326l57 -381l63 387q28 176 56 320l113 581z" />
<glyph unicode="W" horiz-adv-x="1185" d="M1186 1436q-35 -104 -81 -281.5t-110 -456.5q-63 -270 -96 -445t-41 -267l-135 2q-6 127 -24.5 268t-41.5 299l-48 335q-26 177 -46 376q-27 -203 -56 -375l-58 -325q-29 -153 -59 -291l-56 -273l-129 -16l-84 739q-33 289 -61.5 467t-57.5 276l141 13q20 -158 35 -302 l29 -292l31 -306q16 -159 41 -343q68 338 119 632.5t85 581.5l166 -2q16 -270 62.5 -555t87.5 -604q35 172 68 317l64 282q30 136 55.5 270t43.5 286z" />
<glyph unicode="X" horiz-adv-x="770" d="M780 1423l-101 -181l-94 -172l-89 -171l-86 -178q53 -188 117.5 -357t144.5 -354l-137 -37l-41 147l-43 145l-49 158l-56 181l-64 -164q-32 -80 -59.5 -158.5t-50 -159.5t-37.5 -169l-135 51l293 721l-60 183l-59 172l-64 172l-75 186l147 35q16 -82 32.5 -152t37 -141.5 t47.5 -154.5l63 -189l83 188l71 154l63 141q30 70 60 149z" />
<glyph unicode="Y" horiz-adv-x="835" d="M821 1409q-111 -154 -197.5 -337t-140.5 -388v-385q0 -145 13 -299l-146 -4q6 63 10.5 120.5t7.5 118t4 128t1 151.5v158l-77 173l-89 191l-96 196l-97 183l136 62l128 -322q65 -160 136 -358q66 209 138 373l140 313z" />
<glyph unicode="Z" horiz-adv-x="735" d="M672 1366q-43 -98 -105.5 -260t-148.5 -408l-135 -386q-53 -151 -86 -216q135 10 239.5 15.5t210.5 9.5l-6 -135q-141 12 -276 12q-70 0 -139.5 -3t-139.5 -7l-14 84q14 35 49 132l81 224l98 271l100 276l87 232q39 101 60 145q-4 2 -19 2h-116q-92 0 -168 -2t-162 -13 v125q33 -4 105.5 -9t189.5 -5h289z" />
<glyph unicode="[" horiz-adv-x="600" d="M481 1343q-4 2 -30 3h-103q-96 0 -158 -21q0 -174 -5 -344t-5 -344q0 -129 5 -258t22 -258q51 -4 97 -7t91 -3q57 0 117 6v-127q-86 18 -221 18q-47 0 -98.5 -2t-104.5 -6q0 35 -1 72t-1 73q0 156 3 321t3 331q0 172 -5 334.5t-19 316.5q27 -2 51 -3t49 -1q76 0 146 6 l145 12z" />
<glyph unicode="\" horiz-adv-x="593" d="M135 1468q12 -53 46 -172l78 -270l94 -318l96 -316l79 -261q35 -113 50 -156l-142 -16q-20 104 -69 286l-127 460q-78 276 -136.5 453t-103.5 282z" />
<glyph unicode="]" horiz-adv-x="575" d="M59 1460q43 -10 100.5 -15t123.5 -5q47 0 97 3t103 7q2 -59 2 -117v-116q0 -123 -1 -245t-1 -247q0 -193 4.5 -371t20.5 -352q-29 2 -53.5 3t-46.5 1q-78 0 -149 -6l-142 -12l-25 118q23 -2 50.5 -3t58.5 -1q43 0 89 4.5t93 18.5q2 154 6 300t4 300t-5 302.5t-23 301.5 q-53 4 -98.5 7t-90.5 3q-59 0 -117 -6v127z" />
<glyph unicode="^" horiz-adv-x="753" d="M434 1425q47 -98 121 -198.5t166 -210.5l-117 -58l-66 99l-55 80l-48 69l-48 66l-49 -64q-25 -31 -49 -66l-52 -77q-28 -41 -59 -94l-119 45l166 210q80 99 133 197z" />
<glyph unicode="_" horiz-adv-x="794" d="M770 -418q-59 8 -151.5 12.5t-217.5 4.5q-129 0 -219 -2.5t-149 -6.5l6 140q49 -10 120.5 -13.5t170.5 -3.5q160 0 268.5 1t177.5 7z" />
<glyph unicode="`" horiz-adv-x="505" d="M383 1567l-163 132l-163 136l86 78q53 -78 129 -145.5t174 -104.5z" />
<glyph unicode="a" d="M768 190q0 -102 74 -190h-174q-18 14 -19 61v19q0 10 2 20q-55 -115 -211 -114q-90 0 -158.5 43t-113.5 111.5t-67.5 154.5t-22.5 172q0 254 101.5 383t273.5 129q76 0 133 -28.5t80 -92.5q2 27 2 51v49q0 123 -13.5 202t-38 124t-60.5 62.5t-81 17.5t-85 -8t-70.5 -33 t-48 -70t-17.5 -118q0 -16 1 -33t3 -35l-152 10q18 123 43 192.5t74 112.5q53 47 108.5 69t129.5 22q72 0 140.5 -25t109.5 -84q39 -59 48 -171t9 -286v-717zM649 672q-2 49 -21.5 86t-48 61.5t-65.5 36.5t-74 12q-66 0 -110.5 -33.5t-74.5 -87t-43 -123t-13 -139.5 q0 -57 11 -122.5t41 -122t81 -94t129 -37.5q115 0 188 110v453z" />
<glyph unicode="b" horiz-adv-x="929" d="M383 1454q180 0 252 -45q80 -49 122 -122t42 -195q0 -123 -65.5 -204t-182.5 -126q70 -4 130 -30.5t104 -75t69 -114t25 -147.5q0 -76 -23 -141q-20 -61 -53 -107.5t-89.5 -79t-141.5 -49t-207 -16.5h-289q16 41 28.5 131t20.5 222t12 300t4 363q0 160 -8 264t-27 168z M252 692q-4 -78 -7 -150l-6 -144q-3 -71 -7.5 -143.5t-10.5 -150.5l154 7q13 -1 27 -1q34 0 69 4q49 5 98 9q43 4 78 29.5t61.5 64.5t41 87t14.5 102q0 150 -91 221t-296 71zM395 817q150 0 219.5 68.5t69.5 216.5q0 70 -21.5 117t-60.5 76.5t-92 42t-117 12.5q-35 0 -71 -2 l-76 -5q4 -92 6 -178t2 -174v-89q0 -44 -2 -91z" />
<glyph unicode="c" horiz-adv-x="808" d="M621 932q14 43 14 112q0 147 -52.5 231.5t-144.5 84.5q-72 0 -123 -47t-85.5 -130t-51 -200t-16.5 -254q0 -123 8 -214t27 -148q14 -53 36.5 -101.5t51 -86.5t62.5 -60.5t71 -22.5t74.5 14.5t67.5 53.5t49.5 105.5t19.5 170.5q0 27 -2 51.5t-6 49.5l143 -11l-26 -120 q-13 -61 -23 -123q-29 -160 -98.5 -233.5t-186.5 -73.5q-80 0 -138.5 35.5t-100 96t-69.5 137.5t-43.5 158.5t-21.5 161.5t-6 148q0 61 2 118l4 107q2 100 32 196.5t80 172t119.5 121t153.5 45.5q106 0 168 -55.5t94.5 -138.5t43 -179t16.5 -176z" />
<glyph unicode="d" horiz-adv-x="860" d="M244 1450q147 -4 211 -25q55 -18 118.5 -56t117.5 -120t90 -221t36 -358q0 -193 -59 -340q-39 -96 -88 -161t-108.5 -103.5t-130.5 -54t-152 -15.5l-183 2q2 59 3 117.5t1 117.5q0 301 -14 604.5t-14 610.5zM215 100q14 -4 31.5 -5t36.5 -1q78 0 155.5 31t139 98.5 t100.5 176t39 264.5q0 115 -6 193.5t-18.5 136t-32 98.5t-46.5 82q-20 29 -49.5 57.5t-68.5 52t-90.5 37.5t-114.5 14q-47 0 -103 -6q4 -303 15.5 -572.5t11.5 -535.5v-121z" />
<glyph unicode="e" horiz-adv-x="882" d="M690 879q2 18 2 36v37q0 76 -11 143.5t-30.5 119t-45 85t-54.5 46.5q-16 6 -37.5 9t-40.5 3q-90 0 -146.5 -51.5t-89 -125t-44 -156.5t-11.5 -146h508zM178 764q-2 -23 -2 -43v-41q0 -338 156 -487q88 -84 170 -84q51 0 91 24.5t68.5 65.5t44 94t15.5 110q0 66 -16 148 l145 -6q-4 -127 -24.5 -228.5t-61.5 -173t-107.5 -110.5t-160.5 -39q-82 0 -148.5 37t-118 95t-87.5 133t-54 151q-25 100 -25 297q0 129 5.5 218t13.5 142q10 82 41 154.5t80 126t116.5 84t151.5 30.5q51 0 102.5 -16t93.5 -49t71.5 -83t39.5 -118q23 -104 28 -209.5 t7 -222.5h-635z" />
<glyph unicode="f" horiz-adv-x="704" d="M676 1321q-59 10 -119.5 12t-124.5 2q-55 0 -111.5 -1t-115.5 -1q-2 -53 -3 -102t-1 -96q0 -66 1 -131.5t5 -137.5q33 -2 59.5 -3t48.5 -1h66q35 0 84 6t104 11l-4 -142q-53 8 -92 10.5t-74 2.5q-25 0 -50 -1t-58 -1q-16 0 -35.5 1t-42.5 1q-4 -111 -6 -215.5t-2 -215.5 q0 -211 12 -323h-147q14 59 20 120.5t6 123.5v473q0 123 2 216t2 165q0 88 -1 141t-4 89t-8 63.5t-15 64.5h583z" />
<glyph unicode="g" horiz-adv-x="796" d="M578 932q10 35 18 77t8 93q0 117 -44 180.5t-142 63.5q-63 0 -114.5 -35t-86.5 -112t-54.5 -199.5t-19.5 -297.5q0 -106 11.5 -204.5t39 -178t71.5 -136t112 -79.5l29 -7q12 -3 26 -3q104 0 158.5 102.5t54.5 268.5q0 31 -1 64.5t-3 74.5q-57 -2 -99 -4l-81 -4 q-39 -2 -78 -5t-90 -9l-4 159q104 -31 192 -30q43 0 115 3l176 7q-10 -53 -13 -105.5t-3 -107.5v-68q0 -80 -18.5 -160.5t-56.5 -145t-96.5 -104.5t-138.5 -40q-123 0 -201.5 66.5t-124.5 169t-63.5 224t-17.5 234.5q2 72 6 154t12.5 161.5t23.5 151.5t40 123q18 39 51 73.5 t74 60.5t87 40t93 14q78 0 129 -27.5t83 -75.5t47 -109.5t20 -129.5q4 -59 9 -106t13 -86z" />
<glyph unicode="h" horiz-adv-x="892" d="M807 1450q-12 -78 -19.5 -307.5t-7.5 -630.5q0 -199 2 -324t13 -188h-148q14 135 19 692l-447 -2q0 -549 12 -692h-149q10 66 16 214t6 396q0 680 -12 844h135q-6 -59 -8 -163.5t-2 -270.5v-209h451q0 92 2 170t2 156t-1 156.5t-7 158.5h143z" />
<glyph unicode="i" horiz-adv-x="372" d="M266 1448q-10 -98 -15 -297t-5 -524q0 -455 24 -627h-170q31 190 31 731q0 281 -6 453t-21 264h162z" />
<glyph unicode="j" horiz-adv-x="757" d="M698 1450q-25 -147 -24 -375q0 -29 2 -57.5t2 -56.5v-213q2 -10 2 -20v-19v-99q0 -104 -11.5 -214.5t-47 -202t-104 -148.5t-183.5 -57q-141 0 -216 82t-75 223q0 78 4 141.5t12 112.5l144 -25q-20 -27 -35.5 -83t-15.5 -142q0 -92 48 -146.5t126 -54.5q76 0 123 47 t73.5 138.5t35.5 222.5t9 297q0 223 -11 382.5t-24 264.5z" />
<glyph unicode="k" horiz-adv-x="909" d="M831 1434l-125 -150l-102 -129l-104 -144l-138 -198q51 25 101 25q35 0 69 -13q39 -12 64 -32.5t38 -53t18 -80t5 -112.5q0 -29 -2 -66t-3 -74.5t-3 -74.5t-2 -64q0 -61 5 -96t14.5 -52.5t24 -20.5t30.5 -3q74 0 86 101l106 -72q-47 -78 -98 -106.5t-106 -28.5 q-31 0 -63 5t-57.5 28.5t-43 70.5t-17.5 133q0 33 2 72l5 78l4 75q2 36 2 62q0 57 -4.5 97t-18.5 65.5t-41.5 37t-77.5 11.5q-70 0 -107.5 -35t-49.5 -82q0 -92 -2 -172t-3 -153.5t-3.5 -143t-2.5 -141.5h-114q4 199 6 386t2 384q-8 270 -21.5 436t-29.5 246h153 q-2 -35 -3 -67.5t-1 -63.5q0 -125 7.5 -251t11.5 -273l135 201l113 167l96.5 150.5t81.5 150.5z" />
<glyph unicode="l" horiz-adv-x="546" d="M244 1450q-14 -59 -21 -224l-16 -446q-10 -279 -17.5 -444.5t-13.5 -224.5h88q68 0 139.5 5t131.5 17v-145q-84 12 -207 12h-283q29 119 47 721l7 274q3 121 3 213t-3 151.5t-7 90.5h152z" />
<glyph unicode="m" horiz-adv-x="1103" d="M930 1417q0 -57 4 -132t16 -173l31.5 -289.5t34 -294t41 -280.5t51.5 -250h-156q0 10 1 20.5t1 22.5q0 43 -6 116.5t-15 169t-21.5 206t-23.5 226l-21.5 231.5t-16.5 222q-72 -338 -125 -633.5t-113 -578.5h-116l-46 269q-24 136 -45.5 281.5t-41 305.5t-35.5 342 q-10 -119 -25.5 -245t-33 -247.5t-37.5 -235.5l-35 -208q-16 -94 -30.5 -165.5t-23.5 -108.5l-131 8q18 68 44 185.5t54 259.5l55 297q28 155 49.5 294t34.5 251t13 169h146q0 -59 15 -183l37 -290l47 -365q26 -199 46 -407q29 223 65.5 413.5t79.5 356.5q45 172 64.5 287.5 t19.5 183.5h148v-31z" />
<glyph unicode="n" horiz-adv-x="841" d="M795 1452q-10 -82 -18.5 -214t-13.5 -287.5t-8 -320.5t-3 -311q0 -92 2 -171.5t6 -151.5l-113 -10q-80 248 -147.5 431t-125 322.5t-105.5 244.5l-91 200q-8 -190 -12 -348t-4 -312q0 -135 3 -264t9 -276h-125q16 160 22.5 374.5t6.5 487.5q0 299 -6 604h135 q51 -203 106.5 -363.5t112.5 -295t115 -249.5l112 -227v498q0 166 -2 323.5t-8 317.5z" />
<glyph unicode="o" horiz-adv-x="884" d="M156 723q0 -199 28.5 -326t71.5 -198.5t91 -99t89 -27.5q35 0 84 24.5t93 95t76 197.5t32 334q0 156 -16.5 265.5t-41 181t-57.5 112.5t-63.5 60.5t-59 24.5t-47.5 5q-39 0 -86 -17.5t-90 -84t-72.5 -195.5t-31.5 -352zM436 1487q90 0 165 -38t129 -127t84 -235.5 t30 -363.5q0 -176 -17.5 -301t-48 -210t-71.5 -136t-86.5 -78t-92.5 -35t-92 -8q-70 0 -141.5 31.5t-130 111.5t-95 217.5t-36.5 346.5q0 190 17.5 325t48 227.5t70.5 146.5t85 81.5t92 36t90 8.5z" />
<glyph unicode="p" horiz-adv-x="780" d="M201 1339q4 -141 7 -258.5t3 -244.5q0 -41 -1 -84t-3 -90l62.5 -7.5t58.5 -3.5q68 0 121 16.5t89.5 55.5t57 102.5t20.5 159.5q0 104 -11 174t-44 111t-93 57t-159 16q-25 0 -52 -1t-56 -3zM49 -2q23 86 36 336t13 639q0 160 -3 276.5t-11 198.5q98 6 178 6 q291 0 371 -88q102 -115 102 -313q0 -145 -31.5 -243.5t-89 -160t-134.5 -88t-169 -26.5q-55 0 -106 12q-12 -203 -12 -346q0 -61 3 -110.5t7 -90.5z" />
<glyph unicode="q" horiz-adv-x="870" d="M784 -264q-6 -31 -23.5 -56.5t-42 -46t-53 -32t-59.5 -11.5h-10q-72 8 -116 44t-69.5 87.5t-34.5 114t-9 125.5q-61 14 -122 55t-109 122t-76.5 207t-28.5 310q0 193 17.5 329t48 228.5t70.5 147.5t85 82.5t91 36t91 8.5q88 0 163 -38t129 -127t85 -235.5t31 -363.5 q0 -240 -32 -386.5t-83 -228t-114.5 -112.5t-125.5 -37q0 -37 1 -80t12.5 -82t35 -64.5t70.5 -25.5q23 0 39.5 11.5t26.5 39.5q0 4 2 4t2 5zM150 723q0 -199 29.5 -326t72.5 -198.5t92 -99t90 -27.5q35 0 83 24.5t92 95t75 197.5t31 334q0 156 -15.5 265.5t-41 181 t-56.5 112.5t-62.5 60.5t-59 24.5t-46.5 5q-37 0 -86 -17.5t-92 -84t-73.5 -195.5t-32.5 -352z" />
<glyph unicode="r" horiz-adv-x="567" d="M539 1350q-25 6 -64 6q-10 -4 -18 -4h-19q-43 0 -86 -16.5t-77.5 -48.5t-57 -78t-24.5 -107q2 -104 2 -209v-215v-252q0 -141 5 -244.5t15 -185.5l-156 4q10 92 16.5 227t6.5 332q0 371 -6 587t-17 302h134l-15 -168q29 59 65 97t75.5 58.5t83.5 27.5t87 7q31 0 62 -6z " />
<glyph unicode="s" horiz-adv-x="722" d="M508 1010q33 74 33 151q0 111 -43 151t-129 40q-176 0 -176 -213q0 -45 7 -88t32.5 -89.5t74.5 -97.5t133 -114q74 -57 121 -107.5t72.5 -100.5t35 -102.5t9.5 -111.5q0 -193 -83 -278t-261 -85q-276 0 -277 416v27q0 12 2 28l146 2q-25 -111 -25 -178q0 -49 16.5 -83 t42 -54.5t58.5 -29.5t65 -9q37 0 73 15.5t64.5 45t46 74.5t17.5 107q0 45 -9 88t-35.5 88t-75 94t-124.5 109q-72 55 -118.5 110t-74.5 110.5t-39 114t-11 119.5q0 94 23.5 154.5t61.5 95.5t88 48t105 13q96 0 155.5 -24.5t91.5 -72.5t43 -120.5t11 -169.5v-37q0 -19 -4 -42 z" />
<glyph unicode="t" horiz-adv-x="618" d="M600 1325q-96 16 -225 18l-6 -802q0 -432 20 -541h-145q12 76 19 308.5t7 596.5q0 156 -4 261.5t-8 172.5q-139 -6 -225 -18l2 139q141 -12 282 -12t283 12v-135z" />
<glyph unicode="u" horiz-adv-x="825" d="M772 1446q-10 -70 -13 -146.5t-3 -169.5q0 -63 1 -134.5t1 -153.5q0 -195 -1 -334t-10.5 -235.5t-30 -155t-58 -89t-99 -41t-149.5 -10.5q-59 0 -113.5 13.5t-97.5 69t-71 169t-34 314.5q-4 100 -6 189t-2 171q0 70 2 131.5t2 118.5q0 166 -18 299h141 q-10 -92 -16.5 -204.5t-6.5 -260.5q0 -92 2.5 -194.5t8.5 -219.5q6 -154 19 -248t34 -139q43 -94 199 -94q72 0 111.5 24.5t59 77t23.5 136.5t4 200q0 322 -5 547.5t-9 372.5z" />
<glyph unicode="v" horiz-adv-x="768" d="M772 1438q-39 -86 -120 -446.5t-203 -1005.5l-111 -2q-233 1280 -313 1456l147 28q33 -150 60.5 -292t53.5 -295l52 -326l57 -381l63 387q28 176 56 320l113 581z" />
<glyph unicode="w" horiz-adv-x="1185" d="M1186 1436q-35 -104 -81 -281.5t-110 -456.5q-63 -270 -96 -445t-41 -267l-135 2q-6 127 -24.5 268t-41.5 299l-48 335q-26 177 -46 376q-27 -203 -56 -375l-58 -325q-29 -153 -59 -291l-56 -273l-129 -16l-84 739q-33 289 -61.5 467t-57.5 276l141 13q20 -158 35 -302 l29 -292l31 -306q16 -159 41 -343q68 338 119 632.5t85 581.5l166 -2q16 -270 62.5 -555t87.5 -604q35 172 68 317l64 282q30 136 55.5 270t43.5 286z" />
<glyph unicode="x" horiz-adv-x="770" d="M780 1423l-101 -181l-94 -172l-89 -171l-86 -178q53 -188 117.5 -357t144.5 -354l-137 -37l-41 147l-43 145l-49 158l-56 181l-64 -164q-32 -80 -59.5 -158.5t-50 -159.5t-37.5 -169l-135 51l293 721l-60 183l-59 172l-64 172l-75 186l147 35q16 -82 32.5 -152t37 -141.5 t47.5 -154.5l63 -189l83 188l71 154l63 141q30 70 60 149z" />
<glyph unicode="y" horiz-adv-x="835" d="M821 1409q-111 -154 -197.5 -337t-140.5 -388v-385q0 -145 13 -299l-146 -4q6 63 10.5 120.5t7.5 118t4 128t1 151.5v158l-77 173l-89 191l-96 196l-97 183l136 62l128 -322q65 -160 136 -358q66 209 138 373l140 313z" />
<glyph unicode="z" horiz-adv-x="735" d="M672 1366q-43 -98 -105.5 -260t-148.5 -408l-135 -386q-53 -151 -86 -216q135 10 239.5 15.5t210.5 9.5l-6 -135q-141 12 -276 12q-70 0 -139.5 -3t-139.5 -7l-14 84q14 35 49 132l81 224l98 271l100 276l87 232q39 101 60 145q-4 2 -19 2h-116q-92 0 -168 -2t-162 -13 v125q33 -4 105.5 -9t189.5 -5h289z" />
<glyph unicode="{" horiz-adv-x="722" d="M506 1411q-27 27 -68 27q-49 0 -77.5 -39t-28.5 -107q0 -43 8 -93t19.5 -103.5t19.5 -107.5t8 -105q0 -47 -5 -87t-22.5 -75t-50.5 -62.5t-90 -50.5q76 -23 103.5 -83t27.5 -171q0 -66 -5 -132t-5 -107q0 -35 7 -75t24.5 -76t46 -59.5t71.5 -23.5t91 49l69 -135 q-33 -14 -67.5 -23.5t-71.5 -9.5q-70 0 -122 26t-86 69t-52.5 100t-20.5 121q0 49 2 98t2 98q0 141 -23.5 204t-80.5 63q-23 0 -43 -6v145q18 -6 37 -6q59 0 102 55t43 178q0 45 -7 100l-14 108l-15 105q-7 50 -7 91q0 61 20.5 107t54.5 77t80 46t97 15q33 0 62 -6z" />
<glyph unicode="|" horiz-adv-x="350" d="M221 1452q-12 -164 -12 -330q0 -293 20.5 -583.5t20.5 -581.5q0 -47 -1 -94t-3 -94h-115q2 39 2 75v76q0 297 -19.5 593t-19.5 597q0 174 12 350z" />
<glyph unicode="}" horiz-adv-x="722" d="M59 1526q33 14 68 23.5t74 9.5q82 0 135 -32t85 -84t44 -120t12 -137q0 -47 -1 -93t-1 -94q0 -127 28.5 -173t80.5 -46q8 0 17 1t20 3v-143q-10 2 -20 2h-19q-59 0 -101.5 -52t-42.5 -181q0 -47 7.5 -101.5l15.5 -107.5l15 -104q7 -50 7 -89q0 -61 -20.5 -106t-55 -76 t-81.5 -46.5t-101 -15.5q-31 0 -55 7l33 141q29 -29 61 -29q53 0 81 41t28 105q0 43 -8.5 93t-18.5 101t-18.5 104.5t-8.5 102.5t5.5 90t23 76t50 63.5t89.5 53.5q-78 20 -104.5 84.5t-26.5 169.5q0 57 3 116.5t3 100.5q0 31 -4 75t-18 84.5t-43 69.5t-78 29q-47 0 -90 -51z " />
<glyph unicode="~" horiz-adv-x="1431" d="M809 338h-117l-18 246h-6v-246h-64v381h113l22 -246h6v246h64v-381zM1071 1133v-111l-16 -27v-6l16 -28v-125l-22 -43h-160v381h160zM573 678v-297l-24 -43h-135l-19 43v297l19 41h137zM649 1133v-99l-28 -39v-6l28 -43v-153h-82v168h-22v-168h-76v381h160zM1192 678v-76 h-78v47h-18v-65l69 -17l27 -41v-145l-23 -43h-131l-22 43v86h80v-57h18v77l-74 19l-24 39v133l22 41h133zM438 932v-139h-80v73h-26v-73h-74v139l45 242h84zM858 932v-139h-78v73h-22v-73h-78v139l47 242h82zM1341 1094h-53v-72h53v-66h-53v-77h53v-86h-129v381h129v-80z M362 639h-49v-78h49v-65h-49v-158h-77v381h126v-80zM995 639h-43v-301h-78v301h-43v80h164v-80zM182 879h45v-86h-121v381h76v-295zM1182 793h-78v381h78v-381zM471 649v-239h23v239h-23zM344 1061l-12 -100v-39h26v39l-10 100h-4zM766 1061l-8 -100v-39h22v39l-8 100h-6z M969 961v-95h22v95h-22zM969 1106v-84h22v84h-22zM545 1106v-84h22v84h-22z" />
<glyph unicode="&#xa1;" horiz-adv-x="333" d="M274 1006q0 -35 -23.5 -59.5t-60.5 -24.5q-35 0 -58 24.5t-23 59.5t23.5 59.5t57.5 24.5q37 0 60.5 -24.5t23.5 -59.5zM227 156q0 -147 9.5 -279.5t21.5 -251.5h-186q12 117 22 254t18.5 283.5t15.5 295.5l13 287l86 5v-594z" />
<glyph unicode="&#xa2;" horiz-adv-x="780" d="M428 1339q-6 -74 -6 -145q53 0 90 -15.5t60.5 -40t38 -53t22.5 -55.5v2q12 -37 17 -81t12 -85l6 -43l-136 4q6 20 10.5 39t4.5 39v19q0 86 -40 129t-87 47q0 -199 9 -391.5t13 -391.5q35 10 68 59.5t33 147.5q0 49 -8 72l135 -6q-10 -31 -12.5 -45.5t-6.5 -26.5 q-12 -57 -25.5 -107.5t-36 -89t-56 -65.5t-89.5 -35v-139q0 -16 -2 -19h-65v156q-74 6 -126 51t-85 114t-47.5 151.5t-14.5 166.5q0 37 2 72l5 68q2 59 20.5 116.5t51 103.5t76.5 79t97 45q0 80 6 160zM209 678q6 -172 54 -261t114 -106q-4 199 -13.5 387.5t-9.5 386.5 q-2 0 -3 -1t-3 -1q-37 -18 -63.5 -55t-43 -87t-24.5 -108.5t-8 -119.5v-35z" />
<glyph unicode="&#xa3;" horiz-adv-x="835" d="M614 981q6 27 10.5 61.5t4.5 71.5q0 45 -5.5 87t-20.5 75t-44 53.5t-74 20.5q-47 0 -77.5 -31t-49 -80t-25.5 -112.5t-7 -127.5q0 -72 8 -133t20 -94h60q72 0 140.5 2t137.5 6l-10 -137q-47 8 -100.5 11t-112.5 3h-49q-25 0 -51 -2q4 -35 7 -66.5t3 -62.5 q0 -117 -40 -220t-132 -208q129 12 262 10t268 21l13 -133q-201 6 -398 6q-66 0 -133 -1t-137 -3l-21 102q45 27 83 74t65 106.5t41 127t14 135.5q0 53 -12 108q-66 -6 -106 -11t-56 -13l-12 133h18q23 0 60 2t84 6q-12 61 -21.5 133t-9.5 146t13.5 147.5t46 132.5t88 97 t139.5 38q100 0 151 -51t73.5 -125t26 -155.5t9.5 -143.5z" />
<glyph unicode="&#xa5;" horiz-adv-x="835" d="M743 389q-23 4 -42 4h-39q-45 0 -90.5 -1t-88.5 -3v-90q0 -145 13 -299l-146 -4q8 98 13.5 186t7.5 199l-244 -27l-12 135q66 0 129 2.5t129 6.5v123q-66 -2 -129 -7l-129 -8l12 142q111 -18 221 -19l-75 165l-83 176l-88 177l-88 168l136 62l128 -322q65 -160 136 -358 q66 209 138 373l140 313l129 -74q-104 -141 -188 -313t-137 -365q123 6 247 25l5 -135q-47 2 -94 2h-93h-78v-117l265 18z" />
<glyph unicode="&#xa8;" horiz-adv-x="749" d="M563 1839q14 -4 31.5 -10t33 -18.5t26 -31t10.5 -46.5q0 -51 -37 -91t-97 -40q-29 0 -50 11t-35.5 28.5t-21.5 38t-7 36.5q0 47 33.5 86t91.5 39q4 0 10 -1t12 -1zM315 1741q0 -14 -6 -39t-21.5 -47.5t-41 -40t-62.5 -17.5q-49 0 -80.5 31t-31.5 78q0 51 31.5 93t86.5 42 q6 0 27 -3t42.5 -14.5t38.5 -30.5t17 -52z" />
<glyph unicode="&#xa9;" horiz-adv-x="1345" d="M125 723q0 -209 55.5 -343t137 -211t175 -106.5t169.5 -29.5q68 0 160.5 26.5t176.5 101.5t143.5 210t59.5 352q0 166 -30.5 282.5t-80 193.5t-109.5 120t-120.5 64.5t-114 26.5t-85.5 5q-49 0 -106.5 -7t-117 -31.5t-115 -70.5t-98.5 -123t-70.5 -189.5t-29.5 -270.5z M43 723q6 176 36 301t76 210t106.5 135t127 77t136 34t137.5 7q137 0 251.5 -39t196.5 -128t128 -235.5t46 -361.5q0 -176 -27.5 -301t-74.5 -210t-108.5 -136t-131.5 -78t-141.5 -35t-138.5 -8q-106 0 -217 31.5t-200 110.5t-146.5 215.5t-57.5 344.5v33q0 17 2 33z M879 879q6 23 10 47t4 47q0 104 -57.5 163.5t-149.5 59.5q-76 0 -132 -34t-94 -94t-57.5 -146t-19.5 -191q0 -92 10 -158.5t29 -111.5q14 -37 37.5 -73t54.5 -63.5t67.5 -45t77.5 -17.5q43 0 84 11.5t73 41t51.5 78.5t19.5 125q0 39 -8 74l155 -8q-20 -43 -30.5 -88 l-22.5 -93q-31 -117 -104.5 -172t-208.5 -55q-123 0 -201 55.5t-123 138.5t-62.5 178t-17.5 177q0 41 2 83t4 79q2 74 34 144.5t86 125.5t129 90t165 35q117 0 183.5 -41t101.5 -101.5t47 -131t18 -131.5z" />
<glyph unicode="&#xaa;" horiz-adv-x="544" d="M469 700q0 -29 16.5 -59.5t46.5 -71.5h-131q-8 2 -22 22.5t-14 31.5q-16 -27 -46 -44.5t-59 -17.5q-57 0 -100 26.5t-72 69.5t-43 95.5t-14 105.5q0 156 63.5 236t173.5 80q59 0 105 -27q0 63 -6.5 104t-18.5 64.5t-28.5 33t-36.5 9.5q-57 0 -82 -29t-25 -82v-20 q0 -10 2 -23l-133 6q12 76 33.5 125t50.5 77t64.5 38t78.5 10q74 0 114 -28.5t58.5 -75.5t21.5 -109.5t3 -132.5v-414zM362 977q-4 47 -35.5 70.5t-66.5 23.5q-31 0 -54.5 -17.5t-37.5 -45t-21.5 -64.5t-7.5 -74q0 -31 6.5 -65.5t21.5 -64t40.5 -50t64.5 -20.5q23 0 46.5 15 t43.5 40v252z" />
<glyph unicode="&#xab;" horiz-adv-x="964" d="M903 1047q-102 -78 -186 -175l-164 -186q86 -80 183.5 -157.5t201.5 -131.5l-96 -123q-43 49 -94.5 100.5t-104.5 98.5t-104.5 87t-94.5 67l-2 84q41 33 91.5 83t99.5 109.5t92 123t68 122.5zM520 1047q-102 -78 -186 -175l-164 -186q86 -80 183.5 -157.5t201.5 -131.5 l-96 -123q-43 49 -94.5 100.5t-104.5 98.5t-104.5 87t-94.5 67l-2 84q41 33 91.5 83t99.5 109.5t92 123t68 122.5z" />
<glyph unicode="&#xad;" horiz-adv-x="708" d="M582 600q-121 18 -236 18q-55 0 -114.5 -3t-118.5 -7l6 142q59 -10 117.5 -14.5t117.5 -4.5q57 0 116.5 2t119.5 6z" />
<glyph unicode="&#xae;" horiz-adv-x="882" d="M47 981q4 164 42 259t94.5 143.5t123 61.5t125.5 13q86 0 158 -24.5t123 -80t79.5 -146.5t28.5 -226q0 -168 -36.5 -263t-94 -143.5t-126 -60.5t-132.5 -12q-66 0 -133.5 19.5t-123.5 69.5t-92 135t-36 216v39zM111 977q0 -127 32.5 -207t81.5 -126t104.5 -63.5 t100.5 -17.5q39 0 96.5 15.5t108.5 60.5t88 126t37 212q0 147 -40 230t-94.5 123t-109.5 49.5t-86 9.5q-39 0 -93 -12.5t-103.5 -55.5t-85 -125t-37.5 -219zM436 1284q88 0 136.5 -40t48.5 -126q0 -80 -35 -128t-127 -56q33 -6 41 -36t10 -61.5t7 -58t34 -26.5q14 0 26.5 14 t16.5 51q27 -6 47 -6q14 0 18 2q-2 -23 -10 -46.5t-22.5 -44t-31.5 -33.5t-38 -13q-35 0 -55.5 17.5t-32.5 44t-18.5 58l-12.5 60.5q-8 35 -30.5 45t-59.5 12q-2 -2 -2 -18v-141q0 -10 1 -22.5t3 -22.5h-104q10 25 16 70.5t9 97t4 96.5t1 67v244h160zM350 1139 q0 -10 1 -23.5t1 -36.5q0 -20 -1 -45.5t-1 -54.5q2 -2 64 -2q59 0 94 28.5t35 116.5q0 66 -38 83.5t-118 17.5q-10 0 -19.5 -1t-19.5 -1q2 -2 2 -23v-59z" />
<glyph unicode="&#xaf;" horiz-adv-x="581" d="M522 1700q-47 8 -90 10t-88 2q-70 0 -138.5 -5t-137.5 -11v125q41 -4 81.5 -7.5t83.5 -3.5q72 0 144 5.5t145 13.5v-129z" />
<glyph unicode="&#xb0;" horiz-adv-x="694" d="M133 1139q0 -76 24.5 -123t59.5 -75t75 -38t70 -10q29 0 70 9t79 36t64.5 75t26.5 126q0 88 -29.5 138t-68.5 74.5t-80 31t-62 6.5q-29 0 -67.5 -7.5t-73.5 -34t-60.5 -75.5t-27.5 -133zM43 1143q4 115 36 180.5t78 98t101 40.5t107 8q72 0 131 -16t102 -55t66.5 -101.5 t23.5 -154.5q0 -115 -29.5 -180.5t-76.5 -98.5t-104.5 -41t-112.5 -8q-51 0 -107.5 13.5t-105 48t-79 94t-30.5 149.5v23z" />
<glyph unicode="&#xb2;" horiz-adv-x="813" d="M82 1018q0 80 10 142.5t26.5 108.5t38 78.5t46.5 55.5q84 80 211 80q72 0 126 -26.5t90 -72t54 -108t18 -131.5q0 -154 -75.5 -289t-200.5 -229q-61 -47 -107.5 -89t-78 -97.5t-47 -131.5t-15.5 -188l132.5 -11.5t131.5 -5.5q72 0 147 7.5t152 23.5l9 -155 q-66 12 -165.5 16t-234.5 4q-94 0 -162.5 -4t-117.5 -10q-2 37 -3 69.5t-1 65.5q0 145 25.5 240.5t66.5 160t95 110.5l109 93q68 51 111 104.5t67.5 107.5t34 110.5t9.5 115.5q0 94 -42 154.5t-130 60.5q-37 0 -72 -12t-62.5 -40t-44 -71t-16.5 -106t14 -123z" />
<glyph unicode="&#xb3;" horiz-adv-x="710" d="M84 1280q35 86 104.5 140.5t182.5 54.5q68 0 119 -27t85.5 -73t52 -109.5t17.5 -135.5q0 -47 -9 -99t-32.5 -100t-61.5 -89t-96 -66q74 -18 115 -58t61.5 -91.5t24.5 -107.5t4 -107q0 -92 -18.5 -168t-61.5 -148q-41 -68 -103 -93.5t-136 -25.5q-43 0 -94.5 12.5 t-95.5 47.5t-74.5 95.5t-32.5 156.5l141 14q-6 -35 -6 -65q0 -72 41 -119t121 -47q41 0 79 17t66.5 56t46 101.5t17.5 152.5q0 63 -15.5 122t-46 102t-78 68.5t-108.5 25.5q-6 0 -13.5 -1t-15.5 -1l10 123q70 0 119 25.5t79 67.5t43 96t13 114q0 221 -161 221 q-29 0 -54.5 -5t-48 -20.5t-38 -44t-21.5 -73.5z" />
<glyph unicode="&#xb4;" horiz-adv-x="462" d="M403 1847q-82 -59 -145 -138l-123 -157l-76 86q82 59 142.5 127t113.5 160z" />
<glyph unicode="&#xb7;" horiz-adv-x="438" d="M252 879q41 0 67.5 -35t26.5 -80q0 -25 -12 -46.5t-31.5 -37.5t-44.5 -25.5t-49 -9.5q-53 0 -79 32t-26 71q0 37 14.5 61.5t37 39.5t48 22.5t48.5 7.5z" />
<glyph unicode="&#xb8;" horiz-adv-x="321" d="M160 -57q72 0 102.5 -32t30.5 -75q0 -57 -37 -99t-115 -42q-55 0 -106 14l6 98q51 -33 100 -32q31 0 51.5 16t20.5 43q0 25 -21.5 41t-58.5 16h-15q-7 0 -18 -2l6 150l54 -12v-84z" />
<glyph unicode="&#xb9;" horiz-adv-x="503" d="M76 1452q14 -2 28 -2h31q78 0 180 12q-8 -223 -15 -481t-7 -551q0 -111 2 -191.5t6 -134.5l154 9l6 -115q-10 2 -24 2h-27h-56q-43 0 -90 -1t-90 -3t-80 -5t-61 -7l-6 116q25 -6 67 -6q18 0 41 1t47 3q2 35 4 130.5l4.5 219t4.5 264t3 266.5t2 223t1 138q-61 -4 -115 -14 z" />
<glyph unicode="&#xba;" horiz-adv-x="530" d="M113 995q0 -109 14 -176t36.5 -107t47.5 -54.5t47 -14.5q16 0 41 12.5t47.5 50t38.5 106.5t16 183q0 129 -17 201t-41 106.5t-48.5 42t-36.5 7.5q-20 0 -45 -10.5t-46.5 -46t-36.5 -106.5t-17 -194zM258 1458q55 0 102.5 -23.5t80 -76.5t51 -142.5t18.5 -220.5 q0 -160 -23.5 -251t-60.5 -138t-82 -59t-86 -12q-43 0 -88 19t-82 67.5t-60.5 130.5t-23.5 209q0 172 24.5 271t61.5 149.5t82 63.5t86 13z" />
<glyph unicode="&#xbb;" horiz-adv-x="991" d="M924 711q-41 -35 -91.5 -86.5t-99.5 -110.5t-91 -122.5t-67 -121.5l-108 105q104 78 187 173l163 187q-86 78 -185.5 156t-203.5 133l98 123q41 -47 91.5 -99.5t103.5 -100.5t104.5 -88t96.5 -64zM582 711q-41 -35 -91.5 -86.5t-99.5 -110.5t-91 -122.5t-67 -121.5 l-108 105q104 78 187 173l163 187q-86 78 -185.5 156t-203.5 133l98 123q41 -47 91.5 -99.5t103.5 -100.5t104.5 -88t96.5 -64z" />
<glyph unicode="&#xbc;" horiz-adv-x="2007" d="M1854 1454q-23 -199 -29 -403.5t-8 -413.5q47 0 87 3t71 7l8 -135q-29 4 -61.5 6t-71.5 2h-33q-2 -59 -3 -116.5t-1 -116.5q0 -164 6 -326h-117q4 141 6.5 278.5t2.5 278.5q-129 -6 -243 -7t-231 -15l-63 137q55 31 103.5 80t83 109.5t55 126t20.5 128.5q0 47 -13.5 92 t-45.5 86l133 52q41 -104 41 -205q0 -61 -11.5 -126t-38 -127.5t-69.5 -119.5t-106 -102q115 0 202.5 3t186.5 3q4 104 7 209.5t3 210.5q0 104 -5 201.5t-18 195.5zM1563 1436q-76 -66 -238 -243l-415 -478l-411 -490q-153 -184 -214 -270l-115 90q78 72 239 252l412 481 l408 486l221 258zM76 1452q14 -2 28 -2h31q78 0 180 12q-8 -223 -15 -481t-7 -551q0 -111 2 -191.5t6 -134.5l154 9l6 -115q-10 2 -24 2h-27h-56q-43 0 -90 -1t-90 -3t-80 -5t-61 -7l-6 116q25 -6 67 -6q18 0 41 1t47 3q2 35 4 130.5l4.5 219t4.5 264t3 266.5t2 223t1 138 q-61 -4 -115 -14z" />
<glyph unicode="&#xbd;" horiz-adv-x="1988" d="M1258 1018q0 80 10 142.5t26.5 108.5t38 78.5t46.5 55.5q84 80 211 80q72 0 126 -26.5t90 -72t54 -108t18 -131.5q0 -154 -75.5 -289t-200.5 -229q-61 -47 -107.5 -89t-78 -97.5t-47 -131.5t-15.5 -188l132.5 -11.5t131.5 -5.5q72 0 147 7.5t152 23.5l9 -155 q-66 12 -165.5 16t-234.5 4q-94 0 -162.5 -4t-117.5 -10q-2 37 -3 69.5t-1 65.5q0 145 25.5 240.5t66.5 160t95 110.5l109 93q68 51 111 104.5t67.5 107.5t34 110.5t9.5 115.5q0 94 -42 154.5t-130 60.5q-37 0 -72 -12t-62.5 -40t-44 -71t-16.5 -106t14 -123zM1563 1436 q-76 -66 -238 -243l-415 -478l-411 -490q-153 -184 -214 -270l-115 90q78 72 239 252l412 481l408 486l221 258zM76 1452q14 -2 28 -2h31q78 0 180 12q-8 -223 -15 -481t-7 -551q0 -111 2 -191.5t6 -134.5l154 9l6 -115q-10 2 -24 2h-27h-56q-43 0 -90 -1t-90 -3t-80 -5 t-61 -7l-6 116q25 -6 67 -6q18 0 41 1t47 3q2 35 4 130.5l4.5 219t4.5 264t3 266.5t2 223t1 138q-61 -4 -115 -14z" />
<glyph unicode="&#xbe;" horiz-adv-x="2213" d="M2060 1454q-23 -199 -29 -403.5t-8 -413.5q47 0 87 3t71 7l8 -135q-29 4 -61.5 6t-71.5 2h-33q-2 -59 -3 -116.5t-1 -116.5q0 -164 6 -326h-117q4 141 6.5 278.5t2.5 278.5q-129 -6 -243 -7t-231 -15l-63 137q55 31 103.5 80t83 109.5t55 126t20.5 128.5q0 47 -13.5 92 t-45.5 86l133 52q41 -104 41 -205q0 -61 -11.5 -126t-38 -127.5t-69.5 -119.5t-106 -102q115 0 202.5 3t186.5 3q4 104 7 209.5t3 210.5q0 104 -5 201.5t-18 195.5zM1770 1436q-76 -66 -238 -243l-415 -478l-411 -490q-153 -184 -214 -270l-115 90q78 72 239 252l412 481 l408 486l221 258zM84 1280q35 86 104.5 140.5t182.5 54.5q68 0 119 -27t85.5 -73t52 -109.5t17.5 -135.5q0 -47 -9 -99t-32.5 -100t-61.5 -89t-96 -66q74 -18 115 -58t61.5 -91.5t24.5 -107.5t4 -107q0 -92 -18.5 -168t-61.5 -148q-41 -68 -103 -93.5t-136 -25.5 q-43 0 -94.5 12.5t-95.5 47.5t-74.5 95.5t-32.5 156.5l141 14q-6 -35 -6 -65q0 -72 41 -119t121 -47q41 0 79 17t66.5 56t46 101.5t17.5 152.5q0 63 -15.5 122t-46 102t-78 68.5t-108.5 25.5q-6 0 -13.5 -1t-15.5 -1l10 123q70 0 119 25.5t79 67.5t43 96t13 114 q0 221 -161 221q-29 0 -54.5 -5t-48 -20.5t-38 -44t-21.5 -73.5z" />
<glyph unicode="&#xbf;" horiz-adv-x="798" d="M532 1071q14 -31 15 -67q0 -53 -38 -89t-87 -36q-61 0 -97 33.5t-36 93.5q0 55 32.5 93t100.5 38q33 0 63.5 -15.5t46.5 -50.5zM504 760q2 -14 2 -30v-32q0 -98 -21.5 -188t-64.5 -158q-37 -57 -79 -110.5t-77 -108.5t-58.5 -113.5t-23.5 -121.5q0 -35 12.5 -70t36 -62.5 t58.5 -45t82 -17.5q100 0 146 46t46 157q0 37 -6 90l145 -16q0 -80 -21.5 -151t-65.5 -123t-108.5 -82t-150.5 -30q-135 0 -212.5 74t-77.5 228q0 100 30.5 169.5t72.5 125t86 107.5t73 122q25 49 42 99t17 106q0 27 -5 55.5t-17 56.5z" />
<glyph unicode="&#xc0;" d="M768 190q0 -102 74 -190h-174q-18 14 -19 61v19q0 10 2 20q-55 -115 -211 -114q-90 0 -158.5 43t-113.5 111.5t-67.5 154.5t-22.5 172q0 254 101.5 383t273.5 129q76 0 133 -28.5t80 -92.5q2 27 2 51v49q0 123 -13.5 202t-38 124t-60.5 62.5t-81 17.5t-85 -8t-70.5 -33 t-48 -70t-17.5 -118q0 -16 1 -33t3 -35l-152 10q18 123 43 192.5t74 112.5q53 47 108.5 69t129.5 22q72 0 140.5 -25t109.5 -84q39 -59 48 -171t9 -286v-717zM649 672q-2 49 -21.5 86t-48 61.5t-65.5 36.5t-74 12q-66 0 -110.5 -33.5t-74.5 -87t-43 -123t-13 -139.5 q0 -57 11 -122.5t41 -122t81 -94t129 -37.5q115 0 188 110v453zM545 1567l-163 132l-163 136l86 78q53 -78 129 -145.5t174 -104.5z" />
<glyph unicode="&#xc1;" d="M768 190q0 -102 74 -190h-174q-18 14 -19 61v19q0 10 2 20q-55 -115 -211 -114q-90 0 -158.5 43t-113.5 111.5t-67.5 154.5t-22.5 172q0 254 101.5 383t273.5 129q76 0 133 -28.5t80 -92.5q2 27 2 51v49q0 123 -13.5 202t-38 124t-60.5 62.5t-81 17.5t-85 -8t-70.5 -33 t-48 -70t-17.5 -118q0 -16 1 -33t3 -35l-152 10q18 123 43 192.5t74 112.5q53 47 108.5 69t129.5 22q72 0 140.5 -25t109.5 -84q39 -59 48 -171t9 -286v-717zM649 672q-2 49 -21.5 86t-48 61.5t-65.5 36.5t-74 12q-66 0 -110.5 -33.5t-74.5 -87t-43 -123t-13 -139.5 q0 -57 11 -122.5t41 -122t81 -94t129 -37.5q115 0 188 110v453zM665 1847q-82 -59 -145 -138l-123 -157l-76 86q82 59 142.5 127t113.5 160z" />
<glyph unicode="&#xc2;" d="M768 190q0 -102 74 -190h-174q-18 14 -19 61v19q0 10 2 20q-55 -115 -211 -114q-90 0 -158.5 43t-113.5 111.5t-67.5 154.5t-22.5 172q0 254 101.5 383t273.5 129q76 0 133 -28.5t80 -92.5q2 27 2 51v49q0 123 -13.5 202t-38 124t-60.5 62.5t-81 17.5t-85 -8t-70.5 -33 t-48 -70t-17.5 -118q0 -16 1 -33t3 -35l-152 10q18 123 43 192.5t74 112.5q53 47 108.5 69t129.5 22q72 0 140.5 -25t109.5 -84q39 -59 48 -171t9 -286v-717zM649 672q-2 49 -21.5 86t-48 61.5t-65.5 36.5t-74 12q-66 0 -110.5 -33.5t-74.5 -87t-43 -123t-13 -139.5 q0 -57 11 -122.5t41 -122t81 -94t129 -37.5q115 0 188 110v453zM602 1597q-35 61 -75 109.5t-81 114.5q-39 -61 -74.5 -109.5t-70.5 -105.5l-94 90q66 53 119 115.5t114 154.5q72 -92 135.5 -160.5t124.5 -115.5z" />
<glyph unicode="&#xc3;" d="M768 190q0 -102 74 -190h-174q-18 14 -19 61v19q0 10 2 20q-55 -115 -211 -114q-90 0 -158.5 43t-113.5 111.5t-67.5 154.5t-22.5 172q0 254 101.5 383t273.5 129q76 0 133 -28.5t80 -92.5q2 27 2 51v49q0 123 -13.5 202t-38 124t-60.5 62.5t-81 17.5t-85 -8t-70.5 -33 t-48 -70t-17.5 -118q0 -16 1 -33t3 -35l-152 10q18 123 43 192.5t74 112.5q53 47 108.5 69t129.5 22q72 0 140.5 -25t109.5 -84q39 -59 48 -171t9 -286v-717zM649 672q-2 49 -21.5 86t-48 61.5t-65.5 36.5t-74 12q-66 0 -110.5 -33.5t-74.5 -87t-43 -123t-13 -139.5 q0 -57 11 -122.5t41 -122t81 -94t129 -37.5q115 0 188 110v453zM800 1880q-8 -41 -23.5 -88t-39 -87t-58 -65.5t-81.5 -25.5q-57 0 -97.5 27.5t-76.5 97.5q-20 37 -46 55t-51 18q-55 0 -80.5 -38.5t-25.5 -133.5l-115 15q20 63 38.5 109t41 77t52.5 45.5t75 14.5 q68 0 107.5 -33t84.5 -99q25 -37 47.5 -52t43.5 -15q33 0 59.5 36t26.5 91q0 37 -9 67z" />
<glyph unicode="&#xc4;" d="M768 190q0 -102 74 -190h-174q-18 14 -19 61v19q0 10 2 20q-55 -115 -211 -114q-90 0 -158.5 43t-113.5 111.5t-67.5 154.5t-22.5 172q0 254 101.5 383t273.5 129q76 0 133 -28.5t80 -92.5q2 27 2 51v49q0 123 -13.5 202t-38 124t-60.5 62.5t-81 17.5t-85 -8t-70.5 -33 t-48 -70t-17.5 -118q0 -16 1 -33t3 -35l-152 10q18 123 43 192.5t74 112.5q53 47 108.5 69t129.5 22q72 0 140.5 -25t109.5 -84q39 -59 48 -171t9 -286v-717zM649 672q-2 49 -21.5 86t-48 61.5t-65.5 36.5t-74 12q-66 0 -110.5 -33.5t-74.5 -87t-43 -123t-13 -139.5 q0 -57 11 -122.5t41 -122t81 -94t129 -37.5q115 0 188 110v453zM649 1839q14 -4 31.5 -10t33 -18.5t26 -31t10.5 -46.5q0 -51 -37 -91t-97 -40q-29 0 -50 11t-35.5 28.5t-21.5 38t-7 36.5q0 47 33.5 86t91.5 39q4 0 10 -1t12 -1zM401 1741q0 -14 -6 -39t-21.5 -47.5t-41 -40 t-62.5 -17.5q-49 0 -80.5 31t-31.5 78q0 51 31.5 93t86.5 42q6 0 27 -3t42.5 -14.5t38.5 -30.5t17 -52z" />
<glyph unicode="&#xc5;" d="M768 190q0 -102 74 -190h-174q-18 14 -19 61v19q0 10 2 20q-55 -115 -211 -114q-90 0 -158.5 43t-113.5 111.5t-67.5 154.5t-22.5 172q0 254 101.5 383t273.5 129q76 0 133 -28.5t80 -92.5q2 27 2 51v49q0 123 -13.5 202t-38 124t-60.5 62.5t-81 17.5t-85 -8t-70.5 -33 t-48 -70t-17.5 -118q0 -16 1 -33t3 -35l-152 10q18 123 43 192.5t74 112.5q53 47 108.5 69t129.5 22q72 0 140.5 -25t109.5 -84q39 -59 48 -171t9 -286v-717zM649 672q-2 49 -21.5 86t-48 61.5t-65.5 36.5t-74 12q-66 0 -110.5 -33.5t-74.5 -87t-43 -123t-13 -139.5 q0 -57 11 -122.5t41 -122t81 -94t129 -37.5q115 0 188 110v453zM582 1759q0 47 -33 71.5t-82 24.5q-59 0 -94 -30.5t-35 -77.5q0 -39 25.5 -73t78.5 -34q66 0 103 37t37 82zM670 1804q0 -51 -20.5 -96t-55.5 -78t-81 -52t-95 -19q-47 0 -81 15t-56.5 38.5t-33.5 50.5t-11 51 q0 47 21.5 90t57 75t79.5 50.5t89 18.5q88 0 137.5 -37t49.5 -107z" />
<glyph unicode="&#xc6;" horiz-adv-x="1255" d="M1167 764h-524q-2 -20 -2 -40v-40q0 -172 30.5 -293t96.5 -198q72 -84 141 -84q45 0 79 26.5t56.5 69.5t35 98t12.5 113q0 37 -4.5 71.5t-10.5 63.5l121 -6q-4 -127 -20.5 -228.5t-51 -173t-89 -110.5t-134.5 -39q-43 0 -72.5 12t-60.5 35q-76 53 -105.5 97t-33.5 77v-18 q0 -113 59 -197h-145q-14 20 -15 61v20q0 9 2 19q-49 -115 -174 -114q-78 0 -134 44t-93 113.5t-54.5 156.5t-17.5 171q0 258 83 383t227 125q61 0 109 -28.5t67 -92.5v82q0 129 -10.5 211t-31 129t-49 65.5t-67.5 18.5q-35 0 -68.5 -8t-60.5 -30.5t-42 -65.5t-15 -113 q0 -18 1 -37.5t3 -42.5l-125 10q14 121 34.5 191.5t61.5 113.5q45 47 91 69t108 22q86 0 152.5 -45.5t86.5 -161.5q35 92 110 144t161 52q74 0 126 -40t83.5 -105.5t47 -151.5t19.5 -180zM530 672q-2 49 -17 86t-39.5 62.5t-55.5 37.5t-62 12q-53 0 -91 -33.5t-61.5 -89 t-34.5 -125t-11 -141.5q0 -55 9 -120.5t33.5 -122t65.5 -93t107 -36.5q92 0 157 110v453zM1065 879q2 20 2 40v39q0 109 -14.5 186t-39 125t-58 69.5t-72.5 21.5q-76 0 -123 -53.5t-72.5 -128t-35 -157.5t-9.5 -142h422z" />
<glyph unicode="&#xc7;" horiz-adv-x="808" d="M621 932q14 43 14 112q0 147 -52.5 231.5t-144.5 84.5q-72 0 -123 -47t-85.5 -130t-51 -200t-16.5 -254q0 -123 8 -214t27 -148q14 -53 36.5 -101.5t51 -86.5t62.5 -60.5t71 -22.5t74.5 14.5t67.5 53.5t49.5 105.5t19.5 170.5q0 27 -2 51.5t-6 49.5l143 -11l-26 -120 q-13 -61 -23 -123q-29 -154 -92.5 -227.5t-173.5 -77.5v-39q72 0 102.5 -32t30.5 -75q0 -57 -37 -99t-115 -42q-49 0 -106 14l6 98q57 -33 100 -32q33 0 53.5 16t20.5 43q0 25 -21.5 41t-60.5 16h-14q-6 0 -17 -2l4 93q-72 8 -126 48t-92 100t-62.5 136t-39 155t-19.5 155.5 t-5 140.5q0 61 2 118l4 107q2 100 32 196.5t80 172t119.5 121t153.5 45.5q106 0 168 -55.5t94.5 -138.5t43 -179t16.5 -176z" />
<glyph unicode="&#xc8;" horiz-adv-x="882" d="M690 879q2 18 2 36v37q0 76 -11 143.5t-30.5 119t-45 85t-54.5 46.5q-16 6 -37.5 9t-40.5 3q-90 0 -146.5 -51.5t-89 -125t-44 -156.5t-11.5 -146h508zM178 764q-2 -23 -2 -43v-41q0 -338 156 -487q88 -84 170 -84q51 0 91 24.5t68.5 65.5t44 94t15.5 110q0 66 -16 148 l145 -6q-4 -127 -24.5 -228.5t-61.5 -173t-107.5 -110.5t-160.5 -39q-82 0 -148.5 37t-118 95t-87.5 133t-54 151q-25 100 -25 297q0 129 5.5 218t13.5 142q10 82 41 154.5t80 126t116.5 84t151.5 30.5q51 0 102.5 -16t93.5 -49t71.5 -83t39.5 -118q23 -104 28 -209.5 t7 -222.5h-635zM533 1567l-163 132l-163 136l86 78q53 -78 129 -145.5t174 -104.5z" />
<glyph unicode="&#xc9;" horiz-adv-x="882" d="M690 879q2 18 2 36v37q0 76 -11 143.5t-30.5 119t-45 85t-54.5 46.5q-16 6 -37.5 9t-40.5 3q-90 0 -146.5 -51.5t-89 -125t-44 -156.5t-11.5 -146h508zM178 764q-2 -23 -2 -43v-41q0 -338 156 -487q88 -84 170 -84q51 0 91 24.5t68.5 65.5t44 94t15.5 110q0 66 -16 148 l145 -6q-4 -127 -24.5 -228.5t-61.5 -173t-107.5 -110.5t-160.5 -39q-82 0 -148.5 37t-118 95t-87.5 133t-54 151q-25 100 -25 297q0 129 5.5 218t13.5 142q10 82 41 154.5t80 126t116.5 84t151.5 30.5q51 0 102.5 -16t93.5 -49t71.5 -83t39.5 -118q23 -104 28 -209.5 t7 -222.5h-635zM653 1847q-82 -59 -145 -138l-123 -157l-76 86q82 59 142.5 127t113.5 160z" />
<glyph unicode="&#xca;" horiz-adv-x="882" d="M690 879q2 18 2 36v37q0 76 -11 143.5t-30.5 119t-45 85t-54.5 46.5q-16 6 -37.5 9t-40.5 3q-90 0 -146.5 -51.5t-89 -125t-44 -156.5t-11.5 -146h508zM178 764q-2 -23 -2 -43v-41q0 -338 156 -487q88 -84 170 -84q51 0 91 24.5t68.5 65.5t44 94t15.5 110q0 66 -16 148 l145 -6q-4 -127 -24.5 -228.5t-61.5 -173t-107.5 -110.5t-160.5 -39q-82 0 -148.5 37t-118 95t-87.5 133t-54 151q-25 100 -25 297q0 129 5.5 218t13.5 142q10 82 41 154.5t80 126t116.5 84t151.5 30.5q51 0 102.5 -16t93.5 -49t71.5 -83t39.5 -118q23 -104 28 -209.5 t7 -222.5h-635zM590 1597q-35 61 -75 109.5t-81 114.5q-39 -61 -74.5 -109.5t-70.5 -105.5l-94 90q66 53 119 115.5t114 154.5q72 -92 135.5 -160.5t124.5 -115.5z" />
<glyph unicode="&#xcb;" horiz-adv-x="882" d="M690 879q2 18 2 36v37q0 76 -11 143.5t-30.5 119t-45 85t-54.5 46.5q-16 6 -37.5 9t-40.5 3q-90 0 -146.5 -51.5t-89 -125t-44 -156.5t-11.5 -146h508zM178 764q-2 -23 -2 -43v-41q0 -338 156 -487q88 -84 170 -84q51 0 91 24.5t68.5 65.5t44 94t15.5 110q0 66 -16 148 l145 -6q-4 -127 -24.5 -228.5t-61.5 -173t-107.5 -110.5t-160.5 -39q-82 0 -148.5 37t-118 95t-87.5 133t-54 151q-25 100 -25 297q0 129 5.5 218t13.5 142q10 82 41 154.5t80 126t116.5 84t151.5 30.5q51 0 102.5 -16t93.5 -49t71.5 -83t39.5 -118q23 -104 28 -209.5 t7 -222.5h-635zM635 1839q14 -4 31.5 -10t33 -18.5t26 -31t10.5 -46.5q0 -51 -37 -91t-97 -40q-29 0 -50 11t-35.5 28.5t-21.5 38t-7 36.5q0 47 33.5 86t91.5 39q4 0 10 -1t12 -1zM387 1741q0 -14 -6 -39t-21.5 -47.5t-41 -40t-62.5 -17.5q-49 0 -80.5 31t-31.5 78 q0 51 31.5 93t86.5 42q6 0 27 -3t42.5 -14.5t38.5 -30.5t17 -52z" />
<glyph unicode="&#xcc;" horiz-adv-x="372" d="M266 1448q-10 -98 -15 -297t-5 -524q0 -455 24 -627h-170q31 190 31 731q0 281 -6 453t-21 264h162zM281 1567l-163 132l-163 136l86 78q53 -78 129 -145.5t174 -104.5z" />
<glyph unicode="&#xcd;" horiz-adv-x="372" d="M266 1448q-10 -98 -15 -297t-5 -524q0 -455 24 -627h-170q31 190 31 731q0 281 -6 453t-21 264h162zM401 1847q-82 -59 -145 -138l-123 -157l-76 86q82 59 142.5 127t113.5 160z" />
<glyph unicode="&#xce;" horiz-adv-x="372" d="M266 1448q-10 -98 -15 -297t-5 -524q0 -455 24 -627h-170q31 190 31 731q0 281 -6 453t-21 264h162zM338 1597q-35 61 -75 109.5t-81 114.5q-39 -61 -74.5 -109.5t-70.5 -105.5l-94 90q66 53 119 115.5t114 154.5q72 -92 135.5 -160.5t124.5 -115.5z" />
<glyph unicode="&#xcf;" horiz-adv-x="372" d="M266 1448q-10 -98 -15 -297t-5 -524q0 -455 24 -627h-170q31 190 31 731q0 281 -6 453t-21 264h162zM385 1839q14 -4 31.5 -10t33 -18.5t26 -31t10.5 -46.5q0 -51 -37 -91t-97 -40q-29 0 -50 11t-35.5 28.5t-21.5 38t-7 36.5q0 47 33.5 86t91.5 39q4 0 10 -1t12 -1z M137 1741q0 -14 -6 -39t-21.5 -47.5t-41 -40t-62.5 -17.5q-49 0 -80.5 31t-31.5 78q0 51 31.5 93t86.5 42q6 0 27 -3t42.5 -14.5t38.5 -30.5t17 -52z" />
<glyph unicode="&#xd0;" horiz-adv-x="860" d="M244 1450q147 -4 211 -25q115 -37 185.5 -117.5t110.5 -185t53 -223.5t13 -229q0 -121 -29.5 -242t-94 -218t-167 -156.5t-247.5 -57.5l-183 2q2 59 3 117.5t1 117.5q0 98 -2 197.5t-6 204.5l-98 -6l6 139q23 -4 44 -6l44 -4q-6 174 -11 345t-5 345zM463 621 q-121 18 -236 18h-20q4 -106 6 -209.5t2 -208.5v-121q14 -4 31.5 -5t38.5 -1q76 0 153.5 31t139 98.5t100.5 176t39 264.5q0 72 -5 149.5t-19.5 152t-43 141.5t-76 118t-117 80.5t-165.5 29.5q-47 0 -103 -6q2 -154 7.5 -295t9.5 -282h31q57 0 116.5 2t118.5 6z" />
<glyph unicode="&#xd1;" horiz-adv-x="841" d="M795 1452q-10 -82 -18.5 -214t-13.5 -287.5t-8 -320.5t-3 -311q0 -92 2 -171.5t6 -151.5l-113 -10q-80 248 -147.5 431t-125 322.5t-105.5 244.5l-91 200q-8 -190 -12 -348t-4 -312q0 -135 3 -264t9 -276h-125q16 160 22.5 374.5t6.5 487.5q0 299 -6 604h135 q51 -203 106.5 -363.5t112.5 -295t115 -249.5l112 -227v498q0 166 -2 323.5t-8 317.5zM770 1880q-8 -41 -23.5 -88t-39 -87t-58 -65.5t-81.5 -25.5q-57 0 -97.5 27.5t-76.5 97.5q-20 37 -46 55t-51 18q-55 0 -80.5 -38.5t-25.5 -133.5l-115 15q20 63 38.5 109t41 77 t52.5 45.5t75 14.5q68 0 107.5 -33t84.5 -99q25 -37 47.5 -52t43.5 -15q33 0 59.5 36t26.5 91q0 37 -9 67z" />
<glyph unicode="&#xd2;" horiz-adv-x="884" d="M156 723q0 -199 28.5 -326t71.5 -198.5t91 -99t89 -27.5q35 0 84 24.5t93 95t76 197.5t32 334q0 156 -16.5 265.5t-41 181t-57.5 112.5t-63.5 60.5t-59 24.5t-47.5 5q-39 0 -86 -17.5t-90 -84t-72.5 -195.5t-31.5 -352zM436 1487q90 0 165 -38t129 -127t84 -235.5 t30 -363.5q0 -176 -17.5 -301t-48 -210t-71.5 -136t-86.5 -78t-92.5 -35t-92 -8q-70 0 -141.5 31.5t-130 111.5t-95 217.5t-36.5 346.5q0 190 17.5 325t48 227.5t70.5 146.5t85 81.5t92 36t90 8.5zM535 1567l-163 132l-163 136l86 78q53 -78 129 -145.5t174 -104.5z" />
<glyph unicode="&#xd3;" horiz-adv-x="884" d="M156 723q0 -199 28.5 -326t71.5 -198.5t91 -99t89 -27.5q35 0 84 24.5t93 95t76 197.5t32 334q0 156 -16.5 265.5t-41 181t-57.5 112.5t-63.5 60.5t-59 24.5t-47.5 5q-39 0 -86 -17.5t-90 -84t-72.5 -195.5t-31.5 -352zM436 1487q90 0 165 -38t129 -127t84 -235.5 t30 -363.5q0 -176 -17.5 -301t-48 -210t-71.5 -136t-86.5 -78t-92.5 -35t-92 -8q-70 0 -141.5 31.5t-130 111.5t-95 217.5t-36.5 346.5q0 190 17.5 325t48 227.5t70.5 146.5t85 81.5t92 36t90 8.5zM655 1847q-82 -59 -145 -138l-123 -157l-76 86q82 59 142.5 127t113.5 160z " />
<glyph unicode="&#xd4;" horiz-adv-x="884" d="M156 723q0 -199 28.5 -326t71.5 -198.5t91 -99t89 -27.5q35 0 84 24.5t93 95t76 197.5t32 334q0 156 -16.5 265.5t-41 181t-57.5 112.5t-63.5 60.5t-59 24.5t-47.5 5q-39 0 -86 -17.5t-90 -84t-72.5 -195.5t-31.5 -352zM436 1487q90 0 165 -38t129 -127t84 -235.5 t30 -363.5q0 -176 -17.5 -301t-48 -210t-71.5 -136t-86.5 -78t-92.5 -35t-92 -8q-70 0 -141.5 31.5t-130 111.5t-95 217.5t-36.5 346.5q0 190 17.5 325t48 227.5t70.5 146.5t85 81.5t92 36t90 8.5zM592 1597q-35 61 -75 109.5t-81 114.5q-39 -61 -74.5 -109.5t-70.5 -105.5 l-94 90q66 53 119 115.5t114 154.5q72 -92 135.5 -160.5t124.5 -115.5z" />
<glyph unicode="&#xd5;" horiz-adv-x="884" d="M156 723q0 -199 28.5 -326t71.5 -198.5t91 -99t89 -27.5q35 0 84 24.5t93 95t76 197.5t32 334q0 156 -16.5 265.5t-41 181t-57.5 112.5t-63.5 60.5t-59 24.5t-47.5 5q-39 0 -86 -17.5t-90 -84t-72.5 -195.5t-31.5 -352zM436 1487q90 0 165 -38t129 -127t84 -235.5 t30 -363.5q0 -176 -17.5 -301t-48 -210t-71.5 -136t-86.5 -78t-92.5 -35t-92 -8q-70 0 -141.5 31.5t-130 111.5t-95 217.5t-36.5 346.5q0 190 17.5 325t48 227.5t70.5 146.5t85 81.5t92 36t90 8.5zM788 1880q-8 -41 -23.5 -88t-39 -87t-58 -65.5t-81.5 -25.5 q-57 0 -97.5 27.5t-76.5 97.5q-20 37 -46 55t-51 18q-55 0 -80.5 -38.5t-25.5 -133.5l-115 15q20 63 38.5 109t41 77t52.5 45.5t75 14.5q68 0 107.5 -33t84.5 -99q25 -37 47.5 -52t43.5 -15q33 0 59.5 36t26.5 91q0 37 -9 67z" />
<glyph unicode="&#xd6;" horiz-adv-x="884" d="M156 723q0 -199 28.5 -326t71.5 -198.5t91 -99t89 -27.5q35 0 84 24.5t93 95t76 197.5t32 334q0 156 -16.5 265.5t-41 181t-57.5 112.5t-63.5 60.5t-59 24.5t-47.5 5q-39 0 -86 -17.5t-90 -84t-72.5 -195.5t-31.5 -352zM436 1487q90 0 165 -38t129 -127t84 -235.5 t30 -363.5q0 -176 -17.5 -301t-48 -210t-71.5 -136t-86.5 -78t-92.5 -35t-92 -8q-70 0 -141.5 31.5t-130 111.5t-95 217.5t-36.5 346.5q0 190 17.5 325t48 227.5t70.5 146.5t85 81.5t92 36t90 8.5zM637 1839q14 -4 31.5 -10t33 -18.5t26 -31t10.5 -46.5q0 -51 -37 -91 t-97 -40q-29 0 -50 11t-35.5 28.5t-21.5 38t-7 36.5q0 47 33.5 86t91.5 39q4 0 10 -1t12 -1zM389 1741q0 -14 -6 -39t-21.5 -47.5t-41 -40t-62.5 -17.5q-49 0 -80.5 31t-31.5 78q0 51 31.5 93t86.5 42q6 0 27 -3t42.5 -14.5t38.5 -30.5t17 -52z" />
<glyph unicode="&#xd7;" horiz-adv-x="720" d="M526 428q-23 41 -58.5 88t-96.5 111l-105 -115q-45 -51 -73 -94l-95 90q98 68 209 178l-125 113q-51 47 -84 73l90 80q20 -33 59.5 -79t117.5 -123q125 131 172 215l98 -97q-37 -27 -88 -70l-123 -110l107 -98q48 -43 92 -70z" />
<glyph unicode="&#xd8;" horiz-adv-x="884" d="M778 1473q-27 -45 -63 -127q59 -88 94 -239t35 -384q0 -176 -17.5 -301t-48 -210t-71.5 -136t-86.5 -78t-92.5 -35t-92 -8q-47 0 -97 14.5t-97 48.5l-25 -86l-133 41l30 65l36 83q-53 82 -85 212t-32 329q0 190 17.5 325t48 227.5t70.5 146.5t85 81.5t92 36t90 8.5 q98 0 182 -47l25 71zM721 723q0 174 -20.5 288.5t-49.5 186.5l-56 -147l-66 -184l-69 -198l-68 -197l-59 -177l-46 -137q37 -49 76.5 -67.5t72.5 -18.5q35 0 84 24.5t93 95t76 197.5t32 334zM156 723q0 -147 15 -252.5t42 -179.5l56 153l66 187l68 198l67 193l59 169l46 126 q-41 39 -78.5 47t-60.5 8q-39 0 -86 -17.5t-90 -84t-72.5 -195.5t-31.5 -352z" />
<glyph unicode="&#xd9;" horiz-adv-x="825" d="M772 1446q-10 -70 -13 -146.5t-3 -169.5q0 -63 1 -134.5t1 -153.5q0 -195 -1 -334t-10.5 -235.5t-30 -155t-58 -89t-99 -41t-149.5 -10.5q-59 0 -113.5 13.5t-97.5 69t-71 169t-34 314.5q-4 100 -6 189t-2 171q0 70 2 131.5t2 118.5q0 166 -18 299h141 q-10 -92 -16.5 -204.5t-6.5 -260.5q0 -92 2.5 -194.5t8.5 -219.5q6 -154 19 -248t34 -139q43 -94 199 -94q72 0 111.5 24.5t59 77t23.5 136.5t4 200q0 322 -5 547.5t-9 372.5zM504 1567l-163 132l-163 136l86 78q53 -78 129 -145.5t174 -104.5z" />
<glyph unicode="&#xda;" horiz-adv-x="825" d="M772 1446q-10 -70 -13 -146.5t-3 -169.5q0 -63 1 -134.5t1 -153.5q0 -195 -1 -334t-10.5 -235.5t-30 -155t-58 -89t-99 -41t-149.5 -10.5q-59 0 -113.5 13.5t-97.5 69t-71 169t-34 314.5q-4 100 -6 189t-2 171q0 70 2 131.5t2 118.5q0 166 -18 299h141 q-10 -92 -16.5 -204.5t-6.5 -260.5q0 -92 2.5 -194.5t8.5 -219.5q6 -154 19 -248t34 -139q43 -94 199 -94q72 0 111.5 24.5t59 77t23.5 136.5t4 200q0 322 -5 547.5t-9 372.5zM624 1847q-82 -59 -145 -138l-123 -157l-76 86q82 59 142.5 127t113.5 160z" />
<glyph unicode="&#xdb;" horiz-adv-x="825" d="M772 1446q-10 -70 -13 -146.5t-3 -169.5q0 -63 1 -134.5t1 -153.5q0 -195 -1 -334t-10.5 -235.5t-30 -155t-58 -89t-99 -41t-149.5 -10.5q-59 0 -113.5 13.5t-97.5 69t-71 169t-34 314.5q-4 100 -6 189t-2 171q0 70 2 131.5t2 118.5q0 166 -18 299h141 q-10 -92 -16.5 -204.5t-6.5 -260.5q0 -92 2.5 -194.5t8.5 -219.5q6 -154 19 -248t34 -139q43 -94 199 -94q72 0 111.5 24.5t59 77t23.5 136.5t4 200q0 322 -5 547.5t-9 372.5zM561 1597q-35 61 -75 109.5t-81 114.5q-39 -61 -74.5 -109.5t-70.5 -105.5l-94 90 q66 53 119 115.5t114 154.5q72 -92 135.5 -160.5t124.5 -115.5z" />
<glyph unicode="&#xdc;" horiz-adv-x="825" d="M772 1446q-10 -70 -13 -146.5t-3 -169.5q0 -63 1 -134.5t1 -153.5q0 -195 -1 -334t-10.5 -235.5t-30 -155t-58 -89t-99 -41t-149.5 -10.5q-59 0 -113.5 13.5t-97.5 69t-71 169t-34 314.5q-4 100 -6 189t-2 171q0 70 2 131.5t2 118.5q0 166 -18 299h141 q-10 -92 -16.5 -204.5t-6.5 -260.5q0 -92 2.5 -194.5t8.5 -219.5q6 -154 19 -248t34 -139q43 -94 199 -94q72 0 111.5 24.5t59 77t23.5 136.5t4 200q0 322 -5 547.5t-9 372.5zM608 1839q14 -4 31.5 -10t33 -18.5t26 -31t10.5 -46.5q0 -51 -37 -91t-97 -40q-29 0 -50 11 t-35.5 28.5t-21.5 38t-7 36.5q0 47 33.5 86t91.5 39q4 0 10 -1t12 -1zM360 1741q0 -14 -6 -39t-21.5 -47.5t-41 -40t-62.5 -17.5q-49 0 -80.5 31t-31.5 78q0 51 31.5 93t86.5 42q6 0 27 -3t42.5 -14.5t38.5 -30.5t17 -52z" />
<glyph unicode="&#xdd;" horiz-adv-x="835" d="M821 1409q-111 -154 -197.5 -337t-140.5 -388v-385q0 -145 13 -299l-146 -4q6 63 10.5 120.5t7.5 118t4 128t1 151.5v158l-77 173l-89 191l-96 196l-97 183l136 62l128 -322q65 -160 136 -358q66 209 138 373l140 313zM628 1847q-82 -59 -145 -138l-123 -157l-76 86 q82 59 142.5 127t113.5 160z" />
<glyph unicode="&#xde;" horiz-adv-x="780" d="M225 1448q-4 -51 -8 -127t-8 -186h55q111 0 198 -15.5t147.5 -58.5t93 -122t32.5 -204q0 -274 -113.5 -396t-306.5 -122q-27 0 -52 3t-54 7q4 -74 9 -130t11 -97l-180 -2q12 47 20.5 116.5t12.5 169t6 230.5t2 301q0 233 -6 387t-21 246h162zM616 678q0 92 -10 157.5 t-43 107.5t-92 61.5t-158 19.5q-23 0 -50 -1t-56 -3q0 -47 2 -189.5t2 -345.5v-71q0 -35 -4 -70q63 -12 119 -12q70 0 124 17.5t91 58.5t56 107.5t19 162.5z" />
<glyph unicode="&#xdf;" horiz-adv-x="1445" d="M508 1010q33 74 33 151q0 111 -43 151t-129 40q-176 0 -176 -213q0 -45 7 -88t32.5 -89.5t74.5 -97.5t133 -114q74 -57 121 -107.5t72.5 -100.5t35 -102.5t9.5 -111.5q0 -193 -83 -278t-261 -85q-276 0 -277 416v27q0 12 2 28l146 2q-25 -111 -25 -178q0 -49 16.5 -83 t42 -54.5t58.5 -29.5t65 -9q37 0 73 15.5t64.5 45t46 74.5t17.5 107q0 45 -9 88t-35.5 88t-75 94t-124.5 109q-72 55 -118.5 110t-74.5 110.5t-39 114t-11 119.5q0 94 23.5 154.5t61.5 95.5t88 48t105 13q96 0 155.5 -24.5t91.5 -72.5t43 -120.5t11 -169.5v-37q0 -19 -4 -42 zM1231 1010q33 74 33 151q0 111 -43 151t-129 40q-176 0 -176 -213q0 -45 7 -88t32.5 -89.5t74.5 -97.5t133 -114q74 -57 121 -107.5t72.5 -100.5t35 -102.5t9.5 -111.5q0 -193 -83 -278t-261 -85q-276 0 -277 416v27q0 12 2 28l146 2q-25 -111 -25 -178q0 -49 16.5 -83 t42 -54.5t58.5 -29.5t65 -9q37 0 73 15.5t64.5 45t46 74.5t17.5 107q0 45 -9 88t-35.5 88t-75 94t-124.5 109q-72 55 -118.5 110t-74.5 110.5t-39 114t-11 119.5q0 94 23.5 154.5t61.5 95.5t88 48t105 13q96 0 155.5 -24.5t91.5 -72.5t43 -120.5t11 -169.5v-37q0 -19 -4 -42 z" />
<glyph unicode="&#xe0;" d="M768 190q0 -102 74 -190h-174q-18 14 -19 61v19q0 10 2 20q-55 -115 -211 -114q-90 0 -158.5 43t-113.5 111.5t-67.5 154.5t-22.5 172q0 254 101.5 383t273.5 129q76 0 133 -28.5t80 -92.5q2 27 2 51v49q0 123 -13.5 202t-38 124t-60.5 62.5t-81 17.5t-85 -8t-70.5 -33 t-48 -70t-17.5 -118q0 -16 1 -33t3 -35l-152 10q18 123 43 192.5t74 112.5q53 47 108.5 69t129.5 22q72 0 140.5 -25t109.5 -84q39 -59 48 -171t9 -286v-717zM649 672q-2 49 -21.5 86t-48 61.5t-65.5 36.5t-74 12q-66 0 -110.5 -33.5t-74.5 -87t-43 -123t-13 -139.5 q0 -57 11 -122.5t41 -122t81 -94t129 -37.5q115 0 188 110v453zM545 1567l-163 132l-163 136l86 78q53 -78 129 -145.5t174 -104.5z" />
<glyph unicode="&#xe1;" d="M768 190q0 -102 74 -190h-174q-18 14 -19 61v19q0 10 2 20q-55 -115 -211 -114q-90 0 -158.5 43t-113.5 111.5t-67.5 154.5t-22.5 172q0 254 101.5 383t273.5 129q76 0 133 -28.5t80 -92.5q2 27 2 51v49q0 123 -13.5 202t-38 124t-60.5 62.5t-81 17.5t-85 -8t-70.5 -33 t-48 -70t-17.5 -118q0 -16 1 -33t3 -35l-152 10q18 123 43 192.5t74 112.5q53 47 108.5 69t129.5 22q72 0 140.5 -25t109.5 -84q39 -59 48 -171t9 -286v-717zM649 672q-2 49 -21.5 86t-48 61.5t-65.5 36.5t-74 12q-66 0 -110.5 -33.5t-74.5 -87t-43 -123t-13 -139.5 q0 -57 11 -122.5t41 -122t81 -94t129 -37.5q115 0 188 110v453zM665 1847q-82 -59 -145 -138l-123 -157l-76 86q82 59 142.5 127t113.5 160z" />
<glyph unicode="&#xe2;" d="M768 190q0 -102 74 -190h-174q-18 14 -19 61v19q0 10 2 20q-55 -115 -211 -114q-90 0 -158.5 43t-113.5 111.5t-67.5 154.5t-22.5 172q0 254 101.5 383t273.5 129q76 0 133 -28.5t80 -92.5q2 27 2 51v49q0 123 -13.5 202t-38 124t-60.5 62.5t-81 17.5t-85 -8t-70.5 -33 t-48 -70t-17.5 -118q0 -16 1 -33t3 -35l-152 10q18 123 43 192.5t74 112.5q53 47 108.5 69t129.5 22q72 0 140.5 -25t109.5 -84q39 -59 48 -171t9 -286v-717zM649 672q-2 49 -21.5 86t-48 61.5t-65.5 36.5t-74 12q-66 0 -110.5 -33.5t-74.5 -87t-43 -123t-13 -139.5 q0 -57 11 -122.5t41 -122t81 -94t129 -37.5q115 0 188 110v453zM602 1597q-35 61 -75 109.5t-81 114.5q-39 -61 -74.5 -109.5t-70.5 -105.5l-94 90q66 53 119 115.5t114 154.5q72 -92 135.5 -160.5t124.5 -115.5z" />
<glyph unicode="&#xe3;" d="M768 190q0 -102 74 -190h-174q-18 14 -19 61v19q0 10 2 20q-55 -115 -211 -114q-90 0 -158.5 43t-113.5 111.5t-67.5 154.5t-22.5 172q0 254 101.5 383t273.5 129q76 0 133 -28.5t80 -92.5q2 27 2 51v49q0 123 -13.5 202t-38 124t-60.5 62.5t-81 17.5t-85 -8t-70.5 -33 t-48 -70t-17.5 -118q0 -16 1 -33t3 -35l-152 10q18 123 43 192.5t74 112.5q53 47 108.5 69t129.5 22q72 0 140.5 -25t109.5 -84q39 -59 48 -171t9 -286v-717zM649 672q-2 49 -21.5 86t-48 61.5t-65.5 36.5t-74 12q-66 0 -110.5 -33.5t-74.5 -87t-43 -123t-13 -139.5 q0 -57 11 -122.5t41 -122t81 -94t129 -37.5q115 0 188 110v453zM800 1880q-8 -41 -23.5 -88t-39 -87t-58 -65.5t-81.5 -25.5q-57 0 -97.5 27.5t-76.5 97.5q-20 37 -46 55t-51 18q-55 0 -80.5 -38.5t-25.5 -133.5l-115 15q20 63 38.5 109t41 77t52.5 45.5t75 14.5 q68 0 107.5 -33t84.5 -99q25 -37 47.5 -52t43.5 -15q33 0 59.5 36t26.5 91q0 37 -9 67z" />
<glyph unicode="&#xe4;" d="M768 190q0 -102 74 -190h-174q-18 14 -19 61v19q0 10 2 20q-55 -115 -211 -114q-90 0 -158.5 43t-113.5 111.5t-67.5 154.5t-22.5 172q0 254 101.5 383t273.5 129q76 0 133 -28.5t80 -92.5q2 27 2 51v49q0 123 -13.5 202t-38 124t-60.5 62.5t-81 17.5t-85 -8t-70.5 -33 t-48 -70t-17.5 -118q0 -16 1 -33t3 -35l-152 10q18 123 43 192.5t74 112.5q53 47 108.5 69t129.5 22q72 0 140.5 -25t109.5 -84q39 -59 48 -171t9 -286v-717zM649 672q-2 49 -21.5 86t-48 61.5t-65.5 36.5t-74 12q-66 0 -110.5 -33.5t-74.5 -87t-43 -123t-13 -139.5 q0 -57 11 -122.5t41 -122t81 -94t129 -37.5q115 0 188 110v453zM649 1839q14 -4 31.5 -10t33 -18.5t26 -31t10.5 -46.5q0 -51 -37 -91t-97 -40q-29 0 -50 11t-35.5 28.5t-21.5 38t-7 36.5q0 47 33.5 86t91.5 39q4 0 10 -1t12 -1zM401 1741q0 -14 -6 -39t-21.5 -47.5t-41 -40 t-62.5 -17.5q-49 0 -80.5 31t-31.5 78q0 51 31.5 93t86.5 42q6 0 27 -3t42.5 -14.5t38.5 -30.5t17 -52z" />
<glyph unicode="&#xe5;" d="M768 190q0 -102 74 -190h-174q-18 14 -19 61v19q0 10 2 20q-55 -115 -211 -114q-90 0 -158.5 43t-113.5 111.5t-67.5 154.5t-22.5 172q0 254 101.5 383t273.5 129q76 0 133 -28.5t80 -92.5q2 27 2 51v49q0 123 -13.5 202t-38 124t-60.5 62.5t-81 17.5t-85 -8t-70.5 -33 t-48 -70t-17.5 -118q0 -16 1 -33t3 -35l-152 10q18 123 43 192.5t74 112.5q53 47 108.5 69t129.5 22q72 0 140.5 -25t109.5 -84q39 -59 48 -171t9 -286v-717zM649 672q-2 49 -21.5 86t-48 61.5t-65.5 36.5t-74 12q-66 0 -110.5 -33.5t-74.5 -87t-43 -123t-13 -139.5 q0 -57 11 -122.5t41 -122t81 -94t129 -37.5q115 0 188 110v453zM582 1759q0 47 -33 71.5t-82 24.5q-59 0 -94 -30.5t-35 -77.5q0 -39 25.5 -73t78.5 -34q66 0 103 37t37 82zM670 1804q0 -51 -20.5 -96t-55.5 -78t-81 -52t-95 -19q-47 0 -81 15t-56.5 38.5t-33.5 50.5t-11 51 q0 47 21.5 90t57 75t79.5 50.5t89 18.5q88 0 137.5 -37t49.5 -107z" />
<glyph unicode="&#xe6;" horiz-adv-x="1255" d="M1167 764h-524q-2 -20 -2 -40v-40q0 -172 30.5 -293t96.5 -198q72 -84 141 -84q45 0 79 26.5t56.5 69.5t35 98t12.5 113q0 37 -4.5 71.5t-10.5 63.5l121 -6q-4 -127 -20.5 -228.5t-51 -173t-89 -110.5t-134.5 -39q-43 0 -72.5 12t-60.5 35q-76 53 -105.5 97t-33.5 77v-18 q0 -113 59 -197h-145q-14 20 -15 61v20q0 9 2 19q-49 -115 -174 -114q-78 0 -134 44t-93 113.5t-54.5 156.5t-17.5 171q0 258 83 383t227 125q61 0 109 -28.5t67 -92.5v82q0 129 -10.5 211t-31 129t-49 65.5t-67.5 18.5q-35 0 -68.5 -8t-60.5 -30.5t-42 -65.5t-15 -113 q0 -18 1 -37.5t3 -42.5l-125 10q14 121 34.5 191.5t61.5 113.5q45 47 91 69t108 22q86 0 152.5 -45.5t86.5 -161.5q35 92 110 144t161 52q74 0 126 -40t83.5 -105.5t47 -151.5t19.5 -180zM530 672q-2 49 -17 86t-39.5 62.5t-55.5 37.5t-62 12q-53 0 -91 -33.5t-61.5 -89 t-34.5 -125t-11 -141.5q0 -55 9 -120.5t33.5 -122t65.5 -93t107 -36.5q92 0 157 110v453zM1065 879q2 20 2 40v39q0 109 -14.5 186t-39 125t-58 69.5t-72.5 21.5q-76 0 -123 -53.5t-72.5 -128t-35 -157.5t-9.5 -142h422z" />
<glyph unicode="&#xe7;" horiz-adv-x="808" d="M621 932q14 43 14 112q0 147 -52.5 231.5t-144.5 84.5q-72 0 -123 -47t-85.5 -130t-51 -200t-16.5 -254q0 -123 8 -214t27 -148q14 -53 36.5 -101.5t51 -86.5t62.5 -60.5t71 -22.5t74.5 14.5t67.5 53.5t49.5 105.5t19.5 170.5q0 27 -2 51.5t-6 49.5l143 -11l-26 -120 q-13 -61 -23 -123q-29 -154 -92.5 -227.5t-173.5 -77.5v-39q72 0 102.5 -32t30.5 -75q0 -57 -37 -99t-115 -42q-49 0 -106 14l6 98q57 -33 100 -32q33 0 53.5 16t20.5 43q0 25 -21.5 41t-60.5 16h-14q-6 0 -17 -2l4 93q-72 8 -126 48t-92 100t-62.5 136t-39 155t-19.5 155.5 t-5 140.5q0 61 2 118l4 107q2 100 32 196.5t80 172t119.5 121t153.5 45.5q106 0 168 -55.5t94.5 -138.5t43 -179t16.5 -176z" />
<glyph unicode="&#xe8;" horiz-adv-x="882" d="M690 879q2 18 2 36v37q0 76 -11 143.5t-30.5 119t-45 85t-54.5 46.5q-16 6 -37.5 9t-40.5 3q-90 0 -146.5 -51.5t-89 -125t-44 -156.5t-11.5 -146h508zM178 764q-2 -23 -2 -43v-41q0 -338 156 -487q88 -84 170 -84q51 0 91 24.5t68.5 65.5t44 94t15.5 110q0 66 -16 148 l145 -6q-4 -127 -24.5 -228.5t-61.5 -173t-107.5 -110.5t-160.5 -39q-82 0 -148.5 37t-118 95t-87.5 133t-54 151q-25 100 -25 297q0 129 5.5 218t13.5 142q10 82 41 154.5t80 126t116.5 84t151.5 30.5q51 0 102.5 -16t93.5 -49t71.5 -83t39.5 -118q23 -104 28 -209.5 t7 -222.5h-635zM533 1567l-163 132l-163 136l86 78q53 -78 129 -145.5t174 -104.5z" />
<glyph unicode="&#xe9;" horiz-adv-x="882" d="M690 879q2 18 2 36v37q0 76 -11 143.5t-30.5 119t-45 85t-54.5 46.5q-16 6 -37.5 9t-40.5 3q-90 0 -146.5 -51.5t-89 -125t-44 -156.5t-11.5 -146h508zM178 764q-2 -23 -2 -43v-41q0 -338 156 -487q88 -84 170 -84q51 0 91 24.5t68.5 65.5t44 94t15.5 110q0 66 -16 148 l145 -6q-4 -127 -24.5 -228.5t-61.5 -173t-107.5 -110.5t-160.5 -39q-82 0 -148.5 37t-118 95t-87.5 133t-54 151q-25 100 -25 297q0 129 5.5 218t13.5 142q10 82 41 154.5t80 126t116.5 84t151.5 30.5q51 0 102.5 -16t93.5 -49t71.5 -83t39.5 -118q23 -104 28 -209.5 t7 -222.5h-635zM653 1847q-82 -59 -145 -138l-123 -157l-76 86q82 59 142.5 127t113.5 160z" />
<glyph unicode="&#xea;" horiz-adv-x="882" d="M690 879q2 18 2 36v37q0 76 -11 143.5t-30.5 119t-45 85t-54.5 46.5q-16 6 -37.5 9t-40.5 3q-90 0 -146.5 -51.5t-89 -125t-44 -156.5t-11.5 -146h508zM178 764q-2 -23 -2 -43v-41q0 -338 156 -487q88 -84 170 -84q51 0 91 24.5t68.5 65.5t44 94t15.5 110q0 66 -16 148 l145 -6q-4 -127 -24.5 -228.5t-61.5 -173t-107.5 -110.5t-160.5 -39q-82 0 -148.5 37t-118 95t-87.5 133t-54 151q-25 100 -25 297q0 129 5.5 218t13.5 142q10 82 41 154.5t80 126t116.5 84t151.5 30.5q51 0 102.5 -16t93.5 -49t71.5 -83t39.5 -118q23 -104 28 -209.5 t7 -222.5h-635zM590 1597q-35 61 -75 109.5t-81 114.5q-39 -61 -74.5 -109.5t-70.5 -105.5l-94 90q66 53 119 115.5t114 154.5q72 -92 135.5 -160.5t124.5 -115.5z" />
<glyph unicode="&#xeb;" horiz-adv-x="882" d="M690 879q2 18 2 36v37q0 76 -11 143.5t-30.5 119t-45 85t-54.5 46.5q-16 6 -37.5 9t-40.5 3q-90 0 -146.5 -51.5t-89 -125t-44 -156.5t-11.5 -146h508zM178 764q-2 -23 -2 -43v-41q0 -338 156 -487q88 -84 170 -84q51 0 91 24.5t68.5 65.5t44 94t15.5 110q0 66 -16 148 l145 -6q-4 -127 -24.5 -228.5t-61.5 -173t-107.5 -110.5t-160.5 -39q-82 0 -148.5 37t-118 95t-87.5 133t-54 151q-25 100 -25 297q0 129 5.5 218t13.5 142q10 82 41 154.5t80 126t116.5 84t151.5 30.5q51 0 102.5 -16t93.5 -49t71.5 -83t39.5 -118q23 -104 28 -209.5 t7 -222.5h-635zM637 1839q14 -4 31.5 -10t33 -18.5t26 -31t10.5 -46.5q0 -51 -37 -91t-97 -40q-29 0 -50 11t-35.5 28.5t-21.5 38t-7 36.5q0 47 33.5 86t91.5 39q4 0 10 -1t12 -1zM389 1741q0 -14 -6 -39t-21.5 -47.5t-41 -40t-62.5 -17.5q-49 0 -80.5 31t-31.5 78 q0 51 31.5 93t86.5 42q6 0 27 -3t42.5 -14.5t38.5 -30.5t17 -52z" />
<glyph unicode="&#xec;" horiz-adv-x="372" d="M266 1448q-10 -98 -15 -297t-5 -524q0 -455 24 -627h-170q31 190 31 731q0 281 -6 453t-21 264h162zM281 1567l-163 132l-163 136l86 78q53 -78 129 -145.5t174 -104.5z" />
<glyph unicode="&#xed;" horiz-adv-x="372" d="M266 1448q-10 -98 -15 -297t-5 -524q0 -455 24 -627h-170q31 190 31 731q0 281 -6 453t-21 264h162zM401 1847q-82 -59 -145 -138l-123 -157l-76 86q82 59 142.5 127t113.5 160z" />
<glyph unicode="&#xee;" horiz-adv-x="372" d="M266 1448q-10 -98 -15 -297t-5 -524q0 -455 24 -627h-170q31 190 31 731q0 281 -6 453t-21 264h162zM338 1597q-35 61 -75 109.5t-81 114.5q-39 -61 -74.5 -109.5t-70.5 -105.5l-94 90q66 53 119 115.5t114 154.5q72 -92 135.5 -160.5t124.5 -115.5z" />
<glyph unicode="&#xef;" horiz-adv-x="372" d="M266 1448q-10 -98 -15 -297t-5 -524q0 -455 24 -627h-170q31 190 31 731q0 281 -6 453t-21 264h162zM385 1839q14 -4 31.5 -10t33 -18.5t26 -31t10.5 -46.5q0 -51 -37 -91t-97 -40q-29 0 -50 11t-35.5 28.5t-21.5 38t-7 36.5q0 47 33.5 86t91.5 39q4 0 10 -1t12 -1z M137 1741q0 -14 -6 -39t-21.5 -47.5t-41 -40t-62.5 -17.5q-49 0 -80.5 31t-31.5 78q0 51 31.5 93t86.5 42q6 0 27 -3t42.5 -14.5t38.5 -30.5t17 -52z" />
<glyph unicode="&#xf0;" horiz-adv-x="860" d="M244 1450q147 -4 211 -25q115 -37 185.5 -117.5t110.5 -185t53 -223.5t13 -229q0 -121 -29.5 -242t-94 -218t-167 -156.5t-247.5 -57.5l-183 2q2 59 3 117.5t1 117.5q0 98 -2 197.5t-6 204.5l-98 -6l6 139q23 -4 44 -6l44 -4q-6 174 -11 345t-5 345zM463 621 q-121 18 -236 18h-20q4 -106 6 -209.5t2 -208.5v-121q14 -4 31.5 -5t38.5 -1q76 0 153.5 31t139 98.5t100.5 176t39 264.5q0 72 -5 149.5t-19.5 152t-43 141.5t-76 118t-117 80.5t-165.5 29.5q-47 0 -103 -6q2 -154 7.5 -295t9.5 -282h31q57 0 116.5 2t118.5 6z" />
<glyph unicode="&#xf1;" horiz-adv-x="841" d="M795 1452q-10 -82 -18.5 -214t-13.5 -287.5t-8 -320.5t-3 -311q0 -92 2 -171.5t6 -151.5l-113 -10q-80 248 -147.5 431t-125 322.5t-105.5 244.5l-91 200q-8 -190 -12 -348t-4 -312q0 -135 3 -264t9 -276h-125q16 160 22.5 374.5t6.5 487.5q0 299 -6 604h135 q51 -203 106.5 -363.5t112.5 -295t115 -249.5l112 -227v498q0 166 -2 323.5t-8 317.5zM770 1880q-8 -41 -23.5 -88t-39 -87t-58 -65.5t-81.5 -25.5q-57 0 -97.5 27.5t-76.5 97.5q-20 37 -46 55t-51 18q-55 0 -80.5 -38.5t-25.5 -133.5l-115 15q20 63 38.5 109t41 77 t52.5 45.5t75 14.5q68 0 107.5 -33t84.5 -99q25 -37 47.5 -52t43.5 -15q33 0 59.5 36t26.5 91q0 37 -9 67z" />
<glyph unicode="&#xf2;" horiz-adv-x="884" d="M156 723q0 -199 28.5 -326t71.5 -198.5t91 -99t89 -27.5q35 0 84 24.5t93 95t76 197.5t32 334q0 156 -16.5 265.5t-41 181t-57.5 112.5t-63.5 60.5t-59 24.5t-47.5 5q-39 0 -86 -17.5t-90 -84t-72.5 -195.5t-31.5 -352zM436 1487q90 0 165 -38t129 -127t84 -235.5 t30 -363.5q0 -176 -17.5 -301t-48 -210t-71.5 -136t-86.5 -78t-92.5 -35t-92 -8q-70 0 -141.5 31.5t-130 111.5t-95 217.5t-36.5 346.5q0 190 17.5 325t48 227.5t70.5 146.5t85 81.5t92 36t90 8.5zM535 1567l-163 132l-163 136l86 78q53 -78 129 -145.5t174 -104.5z" />
<glyph unicode="&#xf3;" horiz-adv-x="884" d="M156 723q0 -199 28.5 -326t71.5 -198.5t91 -99t89 -27.5q35 0 84 24.5t93 95t76 197.5t32 334q0 156 -16.5 265.5t-41 181t-57.5 112.5t-63.5 60.5t-59 24.5t-47.5 5q-39 0 -86 -17.5t-90 -84t-72.5 -195.5t-31.5 -352zM436 1487q90 0 165 -38t129 -127t84 -235.5 t30 -363.5q0 -176 -17.5 -301t-48 -210t-71.5 -136t-86.5 -78t-92.5 -35t-92 -8q-70 0 -141.5 31.5t-130 111.5t-95 217.5t-36.5 346.5q0 190 17.5 325t48 227.5t70.5 146.5t85 81.5t92 36t90 8.5zM655 1847q-82 -59 -145 -138l-123 -157l-76 86q82 59 142.5 127t113.5 160z " />
<glyph unicode="&#xf4;" horiz-adv-x="884" d="M156 723q0 -199 28.5 -326t71.5 -198.5t91 -99t89 -27.5q35 0 84 24.5t93 95t76 197.5t32 334q0 156 -16.5 265.5t-41 181t-57.5 112.5t-63.5 60.5t-59 24.5t-47.5 5q-39 0 -86 -17.5t-90 -84t-72.5 -195.5t-31.5 -352zM436 1487q90 0 165 -38t129 -127t84 -235.5 t30 -363.5q0 -176 -17.5 -301t-48 -210t-71.5 -136t-86.5 -78t-92.5 -35t-92 -8q-70 0 -141.5 31.5t-130 111.5t-95 217.5t-36.5 346.5q0 190 17.5 325t48 227.5t70.5 146.5t85 81.5t92 36t90 8.5zM592 1597q-35 61 -75 109.5t-81 114.5q-39 -61 -74.5 -109.5t-70.5 -105.5 l-94 90q66 53 119 115.5t114 154.5q72 -92 135.5 -160.5t124.5 -115.5z" />
<glyph unicode="&#xf5;" horiz-adv-x="884" d="M156 723q0 -199 28.5 -326t71.5 -198.5t91 -99t89 -27.5q35 0 84 24.5t93 95t76 197.5t32 334q0 156 -16.5 265.5t-41 181t-57.5 112.5t-63.5 60.5t-59 24.5t-47.5 5q-39 0 -86 -17.5t-90 -84t-72.5 -195.5t-31.5 -352zM436 1487q90 0 165 -38t129 -127t84 -235.5 t30 -363.5q0 -176 -17.5 -301t-48 -210t-71.5 -136t-86.5 -78t-92.5 -35t-92 -8q-70 0 -141.5 31.5t-130 111.5t-95 217.5t-36.5 346.5q0 190 17.5 325t48 227.5t70.5 146.5t85 81.5t92 36t90 8.5zM788 1880q-8 -41 -23.5 -88t-39 -87t-58 -65.5t-81.5 -25.5 q-57 0 -97.5 27.5t-76.5 97.5q-20 37 -46 55t-51 18q-55 0 -80.5 -38.5t-25.5 -133.5l-115 15q20 63 38.5 109t41 77t52.5 45.5t75 14.5q68 0 107.5 -33t84.5 -99q25 -37 47.5 -52t43.5 -15q33 0 59.5 36t26.5 91q0 37 -9 67z" />
<glyph unicode="&#xf6;" horiz-adv-x="884" d="M156 723q0 -199 28.5 -326t71.5 -198.5t91 -99t89 -27.5q35 0 84 24.5t93 95t76 197.5t32 334q0 156 -16.5 265.5t-41 181t-57.5 112.5t-63.5 60.5t-59 24.5t-47.5 5q-39 0 -86 -17.5t-90 -84t-72.5 -195.5t-31.5 -352zM436 1487q90 0 165 -38t129 -127t84 -235.5 t30 -363.5q0 -176 -17.5 -301t-48 -210t-71.5 -136t-86.5 -78t-92.5 -35t-92 -8q-70 0 -141.5 31.5t-130 111.5t-95 217.5t-36.5 346.5q0 190 17.5 325t48 227.5t70.5 146.5t85 81.5t92 36t90 8.5zM637 1839q14 -4 31.5 -10t33 -18.5t26 -31t10.5 -46.5q0 -51 -37 -91 t-97 -40q-29 0 -50 11t-35.5 28.5t-21.5 38t-7 36.5q0 47 33.5 86t91.5 39q4 0 10 -1t12 -1zM389 1741q0 -14 -6 -39t-21.5 -47.5t-41 -40t-62.5 -17.5q-49 0 -80.5 31t-31.5 78q0 51 31.5 93t86.5 42q6 0 27 -3t42.5 -14.5t38.5 -30.5t17 -52z" />
<glyph unicode="&#xf7;" horiz-adv-x="718" d="M207 389q0 82 41 109.5t96 27.5q74 0 102.5 -34.5t28.5 -96.5q0 -59 -45 -84.5t-106 -25.5q-41 0 -74 19.5t-43 72.5v12zM379 1085q41 0 67.5 -35.5t26.5 -78.5q0 -49 -44 -84t-93 -35q-53 0 -79 30.5t-26 69.5q0 37 14.5 62.5t37 41t48 22.5t48.5 7zM657 627 q-49 6 -101 15t-122 9h-112q-98 0 -168 -5t-111 -9l8 121q68 -20 230 -21h122q164 0 259 21z" />
<glyph unicode="&#xf8;" horiz-adv-x="884" d="M778 1473q-27 -45 -63 -127q59 -88 94 -239t35 -384q0 -176 -17.5 -301t-48 -210t-71.5 -136t-86.5 -78t-92.5 -35t-92 -8q-47 0 -97 14.5t-97 48.5l-25 -86l-133 41l30 65l36 83q-53 82 -85 212t-32 329q0 190 17.5 325t48 227.5t70.5 146.5t85 81.5t92 36t90 8.5 q98 0 182 -47l25 71zM721 723q0 174 -20.5 288.5t-49.5 186.5l-56 -147l-66 -184l-69 -198l-68 -197l-59 -177l-46 -137q37 -49 76.5 -67.5t72.5 -18.5q35 0 84 24.5t93 95t76 197.5t32 334zM156 723q0 -147 15 -252.5t42 -179.5l56 153l66 187l68 198l67 193l59 169l46 126 q-41 39 -78.5 47t-60.5 8q-39 0 -86 -17.5t-90 -84t-72.5 -195.5t-31.5 -352z" />
<glyph unicode="&#xf9;" horiz-adv-x="825" d="M772 1446q-10 -70 -13 -146.5t-3 -169.5q0 -63 1 -134.5t1 -153.5q0 -195 -1 -334t-10.5 -235.5t-30 -155t-58 -89t-99 -41t-149.5 -10.5q-59 0 -113.5 13.5t-97.5 69t-71 169t-34 314.5q-4 100 -6 189t-2 171q0 70 2 131.5t2 118.5q0 166 -18 299h141 q-10 -92 -16.5 -204.5t-6.5 -260.5q0 -92 2.5 -194.5t8.5 -219.5q6 -154 19 -248t34 -139q43 -94 199 -94q72 0 111.5 24.5t59 77t23.5 136.5t4 200q0 322 -5 547.5t-9 372.5zM504 1567l-163 132l-163 136l86 78q53 -78 129 -145.5t174 -104.5z" />
<glyph unicode="&#xfa;" horiz-adv-x="825" d="M772 1446q-10 -70 -13 -146.5t-3 -169.5q0 -63 1 -134.5t1 -153.5q0 -195 -1 -334t-10.5 -235.5t-30 -155t-58 -89t-99 -41t-149.5 -10.5q-59 0 -113.5 13.5t-97.5 69t-71 169t-34 314.5q-4 100 -6 189t-2 171q0 70 2 131.5t2 118.5q0 166 -18 299h141 q-10 -92 -16.5 -204.5t-6.5 -260.5q0 -92 2.5 -194.5t8.5 -219.5q6 -154 19 -248t34 -139q43 -94 199 -94q72 0 111.5 24.5t59 77t23.5 136.5t4 200q0 322 -5 547.5t-9 372.5zM624 1847q-82 -59 -145 -138l-123 -157l-76 86q82 59 142.5 127t113.5 160z" />
<glyph unicode="&#xfb;" horiz-adv-x="825" d="M772 1446q-10 -70 -13 -146.5t-3 -169.5q0 -63 1 -134.5t1 -153.5q0 -195 -1 -334t-10.5 -235.5t-30 -155t-58 -89t-99 -41t-149.5 -10.5q-59 0 -113.5 13.5t-97.5 69t-71 169t-34 314.5q-4 100 -6 189t-2 171q0 70 2 131.5t2 118.5q0 166 -18 299h141 q-10 -92 -16.5 -204.5t-6.5 -260.5q0 -92 2.5 -194.5t8.5 -219.5q6 -154 19 -248t34 -139q43 -94 199 -94q72 0 111.5 24.5t59 77t23.5 136.5t4 200q0 322 -5 547.5t-9 372.5zM561 1597q-35 61 -75 109.5t-81 114.5q-39 -61 -74.5 -109.5t-70.5 -105.5l-94 90 q66 53 119 115.5t114 154.5q72 -92 135.5 -160.5t124.5 -115.5z" />
<glyph unicode="&#xfc;" horiz-adv-x="825" d="M772 1446q-10 -70 -13 -146.5t-3 -169.5q0 -63 1 -134.5t1 -153.5q0 -195 -1 -334t-10.5 -235.5t-30 -155t-58 -89t-99 -41t-149.5 -10.5q-59 0 -113.5 13.5t-97.5 69t-71 169t-34 314.5q-4 100 -6 189t-2 171q0 70 2 131.5t2 118.5q0 166 -18 299h141 q-10 -92 -16.5 -204.5t-6.5 -260.5q0 -92 2.5 -194.5t8.5 -219.5q6 -154 19 -248t34 -139q43 -94 199 -94q72 0 111.5 24.5t59 77t23.5 136.5t4 200q0 322 -5 547.5t-9 372.5zM608 1839q14 -4 31.5 -10t33 -18.5t26 -31t10.5 -46.5q0 -51 -37 -91t-97 -40q-29 0 -50 11 t-35.5 28.5t-21.5 38t-7 36.5q0 47 33.5 86t91.5 39q4 0 10 -1t12 -1zM360 1741q0 -14 -6 -39t-21.5 -47.5t-41 -40t-62.5 -17.5q-49 0 -80.5 31t-31.5 78q0 51 31.5 93t86.5 42q6 0 27 -3t42.5 -14.5t38.5 -30.5t17 -52z" />
<glyph unicode="&#xfd;" horiz-adv-x="835" d="M821 1409q-111 -154 -197.5 -337t-140.5 -388v-385q0 -145 13 -299l-146 -4q6 63 10.5 120.5t7.5 118t4 128t1 151.5v158l-77 173l-89 191l-96 196l-97 183l136 62l128 -322q65 -160 136 -358q66 209 138 373l140 313zM628 1847q-82 -59 -145 -138l-123 -157l-76 86 q82 59 142.5 127t113.5 160z" />
<glyph unicode="&#xfe;" horiz-adv-x="780" d="M225 1448q-4 -51 -8 -127t-8 -186h55q111 0 198 -15.5t147.5 -58.5t93 -122t32.5 -204q0 -274 -113.5 -396t-306.5 -122q-27 0 -52 3t-54 7q4 -74 9 -130t11 -97l-180 -2q12 47 20.5 116.5t12.5 169t6 230.5t2 301q0 233 -6 387t-21 246h162zM616 678q0 92 -10 157.5 t-43 107.5t-92 61.5t-158 19.5q-23 0 -50 -1t-56 -3q0 -47 2 -189.5t2 -345.5v-71q0 -35 -4 -70q63 -12 119 -12q70 0 124 17.5t91 58.5t56 107.5t19 162.5z" />
<glyph unicode="&#xff;" horiz-adv-x="835" d="M821 1409q-111 -154 -197.5 -337t-140.5 -388v-385q0 -145 13 -299l-146 -4q6 63 10.5 120.5t7.5 118t4 128t1 151.5v158l-77 173l-89 191l-96 196l-97 183l136 62l128 -322q65 -160 136 -358q66 209 138 373l140 313zM614 1839q14 -4 31.5 -10t33 -18.5t26 -31 t10.5 -46.5q0 -51 -37 -91t-97 -40q-29 0 -50 11t-35.5 28.5t-21.5 38t-7 36.5q0 47 33.5 86t91.5 39q4 0 10 -1t12 -1zM366 1741q0 -14 -6 -39t-21.5 -47.5t-41 -40t-62.5 -17.5q-49 0 -80.5 31t-31.5 78q0 51 31.5 93t86.5 42q6 0 27 -3t42.5 -14.5t38.5 -30.5t17 -52z " />
<glyph unicode="&#x131;" horiz-adv-x="372" d="M266 1448q-10 -98 -15 -297t-5 -524q0 -455 24 -627h-170q31 190 31 731q0 281 -6 453t-21 264h162z" />
<glyph unicode="&#x152;" horiz-adv-x="1400" d="M1313 764h-559q-2 -18 -2 -38v-38q0 -174 31.5 -296t103.5 -199q78 -84 149 -84q47 0 83 25.5t60.5 68.5t37 98t12.5 115q0 76 -12 135l126 -6q-4 -125 -21 -226.5t-53 -173t-93.5 -110.5t-139.5 -39q-57 0 -106 22.5t-90 62.5t-74 94t-57 118q-25 -115 -62 -181.5 t-80 -101.5t-90 -45t-90 -10q-61 0 -123.5 31.5t-115 110.5t-85 214t-32.5 344q0 193 15 329t43 228.5t62.5 147.5t74.5 82.5t81 36t80 8.5q104 0 183 -67.5t126 -231.5l17 53q41 111 119.5 166t177.5 55q82 0 137 -39t89 -105.5t49 -152.5t20 -180zM137 723 q0 -199 25.5 -326t63.5 -198.5t82 -99t79 -27.5q31 0 74 24.5t82 95t66.5 197.5t27.5 334q0 156 -14.5 265.5t-37 181t-50 112.5t-55 60.5t-52.5 24.5t-41 5q-35 0 -77 -17.5t-79.5 -84t-64.5 -195.5t-29 -352zM1204 938q0 113 -14 191.5t-40 130t-61.5 75t-76.5 23.5 q-80 0 -130.5 -51.5t-78 -125t-36.5 -156.5t-9 -146h446v59z" />
<glyph unicode="&#x153;" horiz-adv-x="1400" d="M1313 764h-559q-2 -18 -2 -38v-38q0 -174 31.5 -296t103.5 -199q78 -84 149 -84q47 0 83 25.5t60.5 68.5t37 98t12.5 115q0 76 -12 135l126 -6q-4 -125 -21 -226.5t-53 -173t-93.5 -110.5t-139.5 -39q-57 0 -106 22.5t-90 62.5t-74 94t-57 118q-25 -115 -62 -181.5 t-80 -101.5t-90 -45t-90 -10q-61 0 -123.5 31.5t-115 110.5t-85 214t-32.5 344q0 193 15 329t43 228.5t62.5 147.5t74.5 82.5t81 36t80 8.5q104 0 183 -67.5t126 -231.5l17 53q41 111 119.5 166t177.5 55q82 0 137 -39t89 -105.5t49 -152.5t20 -180zM137 723 q0 -199 25.5 -326t63.5 -198.5t82 -99t79 -27.5q31 0 74 24.5t82 95t66.5 197.5t27.5 334q0 156 -14.5 265.5t-37 181t-50 112.5t-55 60.5t-52.5 24.5t-41 5q-35 0 -77 -17.5t-79.5 -84t-64.5 -195.5t-29 -352zM1204 938q0 113 -14 191.5t-40 130t-61.5 75t-76.5 23.5 q-80 0 -130.5 -51.5t-78 -125t-36.5 -156.5t-9 -146h446v59z" />
<glyph unicode="&#x178;" horiz-adv-x="835" d="M821 1409q-111 -154 -197.5 -337t-140.5 -388v-385q0 -145 13 -299l-146 -4q6 63 10.5 120.5t7.5 118t4 128t1 151.5v158l-77 173l-89 191l-96 196l-97 183l136 62l128 -322q65 -160 136 -358q66 209 138 373l140 313zM612 1839q14 -4 31.5 -10t33 -18.5t26 -31 t10.5 -46.5q0 -51 -37 -91t-97 -40q-29 0 -50 11t-35.5 28.5t-21.5 38t-7 36.5q0 47 33.5 86t91.5 39q4 0 10 -1t12 -1zM364 1741q0 -14 -6 -39t-21.5 -47.5t-41 -40t-62.5 -17.5q-49 0 -80.5 31t-31.5 78q0 51 31.5 93t86.5 42q6 0 27 -3t42.5 -14.5t38.5 -30.5t17 -52z " />
<glyph unicode="&#x2c6;" horiz-adv-x="831" d="M553 1597q-35 61 -75 109.5t-81 114.5q-39 -61 -74.5 -109.5t-70.5 -105.5l-94 90q66 53 119 115.5t114 154.5q72 -92 135.5 -160.5t124.5 -115.5z" />
<glyph unicode="&#x2da;" horiz-adv-x="563" d="M412 1759q0 47 -33 71.5t-82 24.5q-59 0 -94 -30.5t-35 -77.5q0 -39 25.5 -73t78.5 -34q66 0 103 37t37 82zM500 1804q0 -51 -20.5 -96t-55.5 -78t-81 -52t-95 -19q-47 0 -81 15t-56.5 38.5t-33.5 50.5t-11 51q0 47 21.5 90t57 75t79.5 50.5t89 18.5q88 0 137.5 -37 t49.5 -107z" />
<glyph unicode="&#x2dc;" horiz-adv-x="866" d="M782 1880q-8 -41 -23.5 -88t-39 -87t-58 -65.5t-81.5 -25.5q-57 0 -97.5 27.5t-76.5 97.5q-20 37 -46 55t-51 18q-55 0 -80.5 -38.5t-25.5 -133.5l-115 15q20 63 38.5 109t41 77t52.5 45.5t75 14.5q68 0 107.5 -33t84.5 -99q25 -37 47.5 -52t43.5 -15q33 0 59.5 36 t26.5 91q0 37 -9 67z" />
<glyph unicode="&#x2000;" horiz-adv-x="983" />
<glyph unicode="&#x2001;" horiz-adv-x="1966" />
<glyph unicode="&#x2002;" horiz-adv-x="983" />
<glyph unicode="&#x2003;" horiz-adv-x="1966" />
<glyph unicode="&#x2004;" horiz-adv-x="655" />
<glyph unicode="&#x2005;" horiz-adv-x="491" />
<glyph unicode="&#x2006;" horiz-adv-x="327" />
<glyph unicode="&#x2007;" horiz-adv-x="327" />
<glyph unicode="&#x2008;" horiz-adv-x="245" />
<glyph unicode="&#x2009;" horiz-adv-x="393" />
<glyph unicode="&#x200a;" horiz-adv-x="108" />
<glyph unicode="&#x2010;" horiz-adv-x="708" d="M582 600q-121 18 -236 18q-55 0 -114.5 -3t-118.5 -7l6 142q59 -10 117.5 -14.5t117.5 -4.5q57 0 116.5 2t119.5 6z" />
<glyph unicode="&#x2011;" horiz-adv-x="708" d="M582 600q-121 18 -236 18q-55 0 -114.5 -3t-118.5 -7l6 142q59 -10 117.5 -14.5t117.5 -4.5q57 0 116.5 2t119.5 6z" />
<glyph unicode="&#x2012;" horiz-adv-x="708" d="M582 600q-121 18 -236 18q-55 0 -114.5 -3t-118.5 -7l6 142q59 -10 117.5 -14.5t117.5 -4.5q57 0 116.5 2t119.5 6z" />
<glyph unicode="&#x2013;" horiz-adv-x="825" d="M756 600q-121 18 -346 18q-117 0 -202 -3t-145 -7l7 142q104 -18 290 -19q135 0 235 3l167 5z" />
<glyph unicode="&#x2014;" horiz-adv-x="1200" d="M1137 600q-117 18 -537 18q-217 0 -347 -3t-190 -7l7 142q104 -18 436 -19q260 0 416.5 3t222.5 5z" />
<glyph unicode="&#x2018;" horiz-adv-x="335" d="M197 1501q-43 -20 -52 -67q27 10 37 10q41 0 65.5 -39t24.5 -80q0 -49 -34.5 -81t-81.5 -32q-57 0 -80 38t-23 87q0 59 18.5 111.5t65.5 110.5z" />
<glyph unicode="&#x2019;" horiz-adv-x="335" d="M125 1255q47 23 53 72q-18 -12 -41 -12q-41 0 -63.5 40t-22.5 81q0 45 35 78.5t82 33.5q53 0 78.5 -39t25.5 -90q0 -57 -19.5 -108t-68.5 -111z" />
<glyph unicode="&#x201a;" horiz-adv-x="335" d="M131 -117q45 20 51 70q-25 -10 -37 -10q-37 0 -62.5 28.5t-25.5 69.5q0 66 32 100.5t83 34.5q53 0 78.5 -38t25.5 -89q0 -59 -19 -111.5t-67 -109.5z" />
<glyph unicode="&#x201c;" horiz-adv-x="577" d="M463 1501q-45 -18 -53 -67q27 10 39 10q41 0 64.5 -39t23.5 -80q0 -49 -35 -81t-82 -32q-55 0 -79 38t-24 87q0 59 19.5 111.5t66.5 110.5zM197 1501q-43 -20 -52 -67q27 10 37 10q41 0 65.5 -39t24.5 -80q0 -49 -34.5 -81t-81.5 -32q-57 0 -80 38t-23 87 q0 59 18.5 111.5t65.5 110.5z" />
<glyph unicode="&#x201d;" horiz-adv-x="595" d="M391 1255q43 20 53 72q-23 -12 -41 -12q-41 0 -64.5 40t-23.5 81q0 45 36 78.5t81 33.5q55 0 80 -39t25 -90q0 -57 -18.5 -108t-67.5 -111zM125 1255q47 23 53 72q-18 -12 -41 -12q-41 0 -63.5 40t-22.5 81q0 45 35 78.5t82 33.5q53 0 78.5 -39t25.5 -90 q0 -57 -19.5 -108t-68.5 -111z" />
<glyph unicode="&#x201e;" horiz-adv-x="583" d="M377 -117q45 20 51 70q-25 -10 -37 -10q-37 0 -62.5 28.5t-25.5 69.5q0 66 32 100.5t83 34.5q53 0 78.5 -38t25.5 -89q0 -59 -19 -111.5t-67 -109.5zM131 -117q45 20 51 70q-25 -10 -37 -10q-37 0 -62.5 28.5t-25.5 69.5q0 66 32 100.5t83 34.5q53 0 78.5 -38t25.5 -89 q0 -59 -19 -111.5t-67 -109.5z" />
<glyph unicode="&#x2022;" horiz-adv-x="643" d="M110.475 580.461q-25.9531 57.3984 -27.8066 124.055q0 112.945 86.2021 174.047q86.2031 61.1016 180.748 61.1016q98.252 0 156.647 -65.7305t58.3955 -180.527q0 -90.7266 -60.249 -161.086t-186.309 -70.3594q-57.4688 0 -114.011 28.6992 q-56.541 28.6992 -93.6182 89.8008z" />
<glyph unicode="&#x2026;" horiz-adv-x="1128" d="M72 -57q-14 31 -15 67q0 61 46.5 94t97.5 33q53 0 84.5 -35.5t31.5 -97.5q0 -49 -32.5 -87t-100.5 -38q-31 0 -61.5 15.5t-50.5 48.5zM449 -57q-14 31 -15 67q0 61 46.5 94t97.5 33q53 0 84.5 -35.5t31.5 -97.5q0 -49 -32.5 -87t-100.5 -38q-31 0 -61.5 15.5t-50.5 48.5z M826 -57q-14 31 -15 67q0 61 46.5 94t97.5 33q53 0 84.5 -35.5t31.5 -97.5q0 -49 -32.5 -87t-100.5 -38q-31 0 -61.5 15.5t-50.5 48.5z" />
<glyph unicode="&#x202f;" horiz-adv-x="393" />
<glyph unicode="&#x2039;" horiz-adv-x="647" d="M520 1047q-102 -78 -186 -175l-164 -186q86 -80 183.5 -157.5t201.5 -131.5l-96 -123q-43 49 -94.5 100.5t-104.5 98.5t-104.5 87t-94.5 67l-2 84q41 33 91.5 83t99.5 109.5t92 123t68 122.5z" />
<glyph unicode="&#x203a;" horiz-adv-x="690" d="M582 711q-41 -35 -91.5 -86.5t-99.5 -110.5t-91 -122.5t-67 -121.5l-108 105q104 78 187 173l163 187q-86 78 -185.5 156t-203.5 133l98 123q41 -47 91.5 -99.5t103.5 -100.5t104.5 -88t96.5 -64z" />
<glyph unicode="&#x2044;" horiz-adv-x="671" d="M1059 1436q-76 -66 -238 -243l-415 -478l-411 -490q-153 -184 -214 -270l-115 90q78 72 239 252l412 481l408 486l221 258z" />
<glyph unicode="&#x205f;" horiz-adv-x="491" />
<glyph unicode="&#x20ac;" horiz-adv-x="839" d="M700 1133q-2 45 -17 86t-42 71.5t-60.5 49t-72.5 18.5q-61 0 -109.5 -42t-83 -107.5t-54 -147.5t-23.5 -164q92 0 178 6t184 17l-61 -127h-119q-35 0 -81 -1t-108 -4v-122l258 18l-57 -137q-25 8 -84 8q-29 0 -56.5 -2t-55.5 -6q0 -45 15 -121t47 -149.5t79 -127 t112 -53.5q86 0 138.5 62.5t64.5 197.5l94 -59q-2 -2 -2 -10q-12 -61 -34.5 -117.5t-57.5 -99.5t-81 -69t-103 -26q-102 0 -171 57.5t-113 141.5t-66.5 182.5t-30.5 178.5q-27 -2 -51.5 -3.5t-48.5 -5.5l-13 133h107v123l-107 -6l13 142q51 -10 98 -13q2 117 32.5 220.5 t83 180t125 122t158.5 45.5q111 0 175.5 -50.5t93.5 -128.5z" />
<glyph unicode="&#x2122;" horiz-adv-x="948" d="M831 1407v-18q-2 -25 2.5 -54.5t8.5 -70.5l16 -150q0 -16 2 -18l25 -203q12 -106 33 -166h-95v29q0 23 -5 76t-12 120l-15 143l-15 142l-96 -508h-72l-45 266q-8 47 -16 99.5t-12 111.5q-8 -76 -19.5 -151.5t-23 -142t-21.5 -117t-16 -72.5l-82 4q12 49 33 144l40 200 q20 104 35 199.5t15 144.5v19h88v-17q0 -27 5 -77t14 -117l20 -147l20 -163q10 78 27 150l32 137q23 88 32 142.5t9 74.5v15h88v-25zM352 1352q-27 4 -53 6l-53 4q0 -47 -1 -125t-1 -195v-47q0 -104 3 -167.5t7 -98.5h-90q12 74 12 344v84v98v61q0 26 -4 44l-56 -4 q-28 -2 -53 -6v88q68 -6 146 -6q76 0 143 6v-86z" />
<glyph unicode="&#xe000;" horiz-adv-x="1475" d="M0 1475h1475v-1475h-1475v1475z" />
<glyph unicode="&#xfb01;" horiz-adv-x="1077" d="M971 1448q-10 -98 -15 -297t-5 -524q0 -455 24 -627h-170q31 190 31 731q0 281 -6 453t-21 264h162zM676 1321q-59 10 -119.5 12t-124.5 2q-55 0 -111.5 -1t-115.5 -1q-2 -53 -3 -102t-1 -96q0 -66 1 -131.5t5 -137.5q33 -2 59.5 -3t48.5 -1h66q35 0 84 6t104 11l-4 -142 q-53 8 -92 10.5t-74 2.5q-25 0 -50 -1t-58 -1q-16 0 -35.5 1t-42.5 1q-4 -111 -6 -215.5t-2 -215.5q0 -211 12 -323h-147q14 59 20 120.5t6 123.5v473q0 123 2 216t2 165q0 88 -1 141t-4 89t-8 63.5t-15 64.5h583z" />
<glyph unicode="&#xfb02;" horiz-adv-x="1251" d="M949 1450q-14 -59 -21 -224l-16 -446q-10 -279 -17.5 -444.5t-13.5 -224.5h88q68 0 139.5 5t131.5 17v-145q-84 12 -207 12h-283q29 119 47 721l7 274q3 121 3 213t-3 151.5t-7 90.5h152zM676 1321q-59 10 -119.5 12t-124.5 2q-55 0 -111.5 -1t-115.5 -1q-2 -53 -3 -102 t-1 -96q0 -66 1 -131.5t5 -137.5q33 -2 59.5 -3t48.5 -1h66q35 0 84 6t104 11l-4 -142q-53 8 -92 10.5t-74 2.5q-25 0 -50 -1t-58 -1q-16 0 -35.5 1t-42.5 1q-4 -111 -6 -215.5t-2 -215.5q0 -211 12 -323h-147q14 59 20 120.5t6 123.5v473q0 123 2 216t2 165q0 88 -1 141 t-4 89t-8 63.5t-15 64.5h583z" />
<glyph unicode="&#xfb03;" horiz-adv-x="1781" d="M1675 1448q-10 -98 -15 -297t-5 -524q0 -455 24 -627h-170q31 190 31 731q0 281 -6 453t-21 264h162zM1381 1321q-59 10 -119.5 12t-124.5 2q-55 0 -111.5 -1t-115.5 -1q-2 -53 -3 -102t-1 -96q0 -66 1 -131.5t5 -137.5q33 -2 59.5 -3t48.5 -1h66q35 0 84 6t104 11 l-4 -142q-53 8 -92 10.5t-74 2.5q-25 0 -50 -1t-58 -1q-16 0 -35.5 1t-42.5 1q-4 -111 -6 -215.5t-2 -215.5q0 -211 12 -323h-147q14 59 20 120.5t6 123.5v473q0 123 2 216t2 165q0 88 -1 141t-4 89t-8 63.5t-15 64.5h583zM676 1321q-59 10 -119.5 12t-124.5 2 q-55 0 -111.5 -1t-115.5 -1q-2 -53 -3 -102t-1 -96q0 -66 1 -131.5t5 -137.5q33 -2 59.5 -3t48.5 -1h66q35 0 84 6t104 11l-4 -142q-53 8 -92 10.5t-74 2.5q-25 0 -50 -1t-58 -1q-16 0 -35.5 1t-42.5 1q-4 -111 -6 -215.5t-2 -215.5q0 -211 12 -323h-147q14 59 20 120.5 t6 123.5v473q0 123 2 216t2 165q0 88 -1 141t-4 89t-8 63.5t-15 64.5h583z" />
<glyph unicode="&#xfb04;" horiz-adv-x="1955" d="M1653 1450q-14 -59 -21 -224l-16 -446q-10 -279 -17.5 -444.5t-13.5 -224.5h88q68 0 139.5 5t131.5 17v-145q-84 12 -207 12h-283q29 119 47 721l7 274q3 121 3 213t-3 151.5t-7 90.5h152zM1381 1321q-59 10 -119.5 12t-124.5 2q-55 0 -111.5 -1t-115.5 -1 q-2 -53 -3 -102t-1 -96q0 -66 1 -131.5t5 -137.5q33 -2 59.5 -3t48.5 -1h66q35 0 84 6t104 11l-4 -142q-53 8 -92 10.5t-74 2.5q-25 0 -50 -1t-58 -1q-16 0 -35.5 1t-42.5 1q-4 -111 -6 -215.5t-2 -215.5q0 -211 12 -323h-147q14 59 20 120.5t6 123.5v473q0 123 2 216t2 165 q0 88 -1 141t-4 89t-8 63.5t-15 64.5h583zM676 1321q-59 10 -119.5 12t-124.5 2q-55 0 -111.5 -1t-115.5 -1q-2 -53 -3 -102t-1 -96q0 -66 1 -131.5t5 -137.5q33 -2 59.5 -3t48.5 -1h66q35 0 84 6t104 11l-4 -142q-53 8 -92 10.5t-74 2.5q-25 0 -50 -1t-58 -1q-16 0 -35.5 1 t-42.5 1q-4 -111 -6 -215.5t-2 -215.5q0 -211 12 -323h-147q14 59 20 120.5t6 123.5v473q0 123 2 216t2 165q0 88 -1 141t-4 89t-8 63.5t-15 64.5h583z" />
</font>
</defs>
</svg>
