<?xml version="1.0" standalone="no"?>
<!DOCTYPE svg PUBLIC "-//W3C//DTD SVG 1.1//EN" "http://www.w3.org/Graphics/SVG/1.1/DTD/svg11.dtd" >
<svg xmlns="http://www.w3.org/2000/svg">
<metadata>
This is a custom SVG webfont generated by Font Squirrel.
Copyright   : Copyright c 2010 by Designed and produced by Robby Woodard All rights reserved
Designer    : Robby Woodard
Foundry     : Designed and produced by Robby Woodard
</metadata>
<defs>
<font id="webfontD52N88cw" horiz-adv-x="526" >
<font-face units-per-em="2048" ascent="1679" descent="-369" />
<missing-glyph horiz-adv-x="481" />
<glyph unicode=" "  horiz-adv-x="481" />
<glyph unicode="&#x09;" horiz-adv-x="481" />
<glyph unicode="&#xa0;" horiz-adv-x="481" />
<glyph unicode="!" horiz-adv-x="294" d="M72 86q0 41 28.5 69.5t67.5 28.5t67.5 -28.5t28.5 -69.5q0 -39 -28.5 -67.5t-67.5 -28.5t-67.5 28.5t-28.5 67.5zM94 328v925q0 33 21 54q23 23 53.5 22.5t52.5 -22.5q20 -20 21 -54v-925q0 -31 -21 -52q-23 -23 -53.5 -22.5t-52.5 22.5q-21 21 -21 52z" />
<glyph unicode="&#x22;" horiz-adv-x="471" d="M37 991v264q0 29 22.5 51.5t49 22.5t49 -22.5t22.5 -51.5v-264q0 -29 -22 -51q-20 -20 -49 -20q-27 0 -49.5 22t-22.5 49zM291 991v264q0 29 22.5 51.5t49 22.5t49 -22.5t22.5 -51.5v-264q0 -29 -22 -51q-20 -20 -50 -20q-27 0 -49 22t-22 49z" />
<glyph unicode="#" horiz-adv-x="1058" d="M43 747.5q0 28.5 20 49.5q23 23 52 22h155l52 148h-105q-31 0 -51.5 20.5t-20.5 50.5q0 29 21 49q23 23 51 23h154l57 166q15 49 68 49q4 0 24 -4q49 -18 49 -68q0 -4 -4 -24l-43 -119h176l58 166q14 49 69 49q2 0 10 -1q7 -3 13 -3q49 -15 49 -68q0 -4 -4 -24l-41 -119 h94q31 0 53 -23q20 -20 21 -49q0 -31 -20.5 -51t-53.5 -20h-145l-49 -148h92q29 0 51 -22q20 -20 20 -49q0 -27 -22.5 -49.5t-48.5 -22.5h-142l-69 -199q-15 -49 -68 -49q-6 0 -22 4q-49 15 -49 68q0 4 4 24l51 152h-176l-68 -199q-15 -49 -67 -49l-25 4q-47 16 -47 68 q0 12 4 24l51 152h-106q-29 0 -52 22q-20 21 -20 49.5zM424 819h174l51 148h-176z" />
<glyph unicode="$" horiz-adv-x="718" d="M33 395q0 27 22 49q20 20 49 20.5t50 -26.5q33 -43 88 -67.5t114 -24.5q76 0 117 35t41 80q0 57 -41 98t-145 66q-108 28 -185 92q-76 63 -75 168q0 94 59 157q57 59 145 78v137q0 28 19 50q18 20 49 20q29 0 47 -20q18 -22 19 -50v-133q90 -12 180 -53q39 -14 39 -61 q0 -28 -19 -49q-18 -23 -47 -23q-14 0 -29 6q-98 45 -180 45q-70 0 -108.5 -26.5t-38.5 -73.5q0 -94 153 -127q143 -31 217 -111q76 -82 76 -182q0 -111 -71 -178q-71 -68 -172 -80v-156q0 -28 -19 -49q-18 -20 -47 -20q-31 0 -49 20q-18 22 -19 49v160q-143 33 -223 137 q-16 23 -16 43z" />
<glyph unicode="%" horiz-adv-x="1411" d="M53 829q0 166 137 336q138 172 302 172q94 0 147 -65q51 -63 51 -158q0 -166 -137 -336q-138 -172 -301 -172q-94 0 -146 64q-53 65 -53 159zM197 829q0 -82 55 -81q98 0 196.5 129t98.5 237q0 82 -55 82q-98 0 -196.5 -129t-98.5 -238zM205 57q0 20 14 41l848 1200 q23 29 57 29q31 0 51.5 -20.5t20.5 -49.5q0 -25 -12 -43l-850 -1200q-18 -29 -58 -28q-31 0 -51 20t-20 51zM723 203q0 164 135 336t301 172q94 0 147.5 -65.5t53.5 -158.5q0 -168 -137 -337q-138 -172 -301 -173q-92 0 -145.5 66t-53.5 160zM864 203q0 -82 58 -82 q98 0 196.5 129t98.5 237q0 82 -58 82q-98 0 -196.5 -128.5t-98.5 -237.5z" />
<glyph unicode="&#x26;" horiz-adv-x="952" d="M53 430q0 141 160 252q-59 53 -59 137q0 111 94 193t209 114v140q0 29 20.5 49t49 20t49 -20.5t20.5 -48.5v-113q47 8 127 8q57 0 74 -2q33 -4 49 -22q18 -23 18 -52q0 -27 -22 -49q-20 -20 -47 -20h-4q-14 2 -64 2q-207 0 -321 -66q-113 -63 -113 -133q0 -20 22 -37 q20 -14 54 -14q4 0 32 4q133 33 373 68h12q31 0 49.5 -20.5t18.5 -53.5q0 -55 -59 -68l-220 -32q-168 -25 -274 -93q-109 -68 -108 -139q0 -98 231 -98q158 0 362 57q6 2 21 2q31 0 49 -22t18 -49q0 -55 -51 -68q-123 -34 -227 -49v-158q0 -31 -20.5 -51.5t-49 -20.5 t-49 20.5t-20.5 51.5v146h-33q-162 0 -266.5 61t-104.5 174z" />
<glyph unicode="'" horiz-adv-x="212" d="M37 991v264q0 29 22.5 51.5t49 22.5t49 -22.5t22.5 -51.5v-264q0 -29 -22 -51q-20 -20 -49 -20q-27 0 -49.5 22t-22.5 49z" />
<glyph unicode="(" horiz-adv-x="555" d="M20 545q0 243 111 473q109 225 295 393q18 18 43 19q27 0 47.5 -18.5t20.5 -53.5t-23 -53q-174 -180 -264 -359q-94 -184 -94 -401q0 -422 346 -658q35 -23 35 -61q0 -31 -20.5 -51.5t-47.5 -20.5q-16 0 -31 8q-197 109 -307 322q-111 215 -111 461z" />
<glyph unicode=")" horiz-adv-x="555" d="M20 -176q0 27 23 53q174 176 266 359q94 184 94 401q0 422 -348 655q-35 29 -35 64q0 31 20.5 51t47.5 20q16 0 31 -8q199 -106 309.5 -321t110.5 -461q0 -248 -113 -475q-114 -230 -295 -393q-23 -16 -43 -17q-27 0 -47.5 18.5t-20.5 53.5z" />
<glyph unicode="*" horiz-adv-x="614" d="M10 1079q0 31 21 49q23 18 51 19h90l-49 76q-12 18 -12 39q0 25 20 49q18 20 47 20q40 0 62 -31l67 -102l68 102q18 31 59 31q29 0 49.5 -20.5t20.5 -48.5q0 -20 -12 -39l-52 -76h92q70 0 70 -74q0 -29 -18.5 -47t-51.5 -18l-98 -2l58 -86q12 -18 12 -39q0 -28 -19 -50 q-18 -20 -49 -20q-40 0 -61 31l-68 102l-67 -102q-23 -31 -60 -31q-33 0 -51 20q-18 22 -18 50q0 20 12 39l55 86h-96q-72 -1 -72 73z" />
<glyph unicode="+" horiz-adv-x="948" d="M51 563.5q0 28.5 20.5 49t49.5 20.5h289v309q0 29 20.5 49.5t49 20.5t49 -20.5t20.5 -49.5v-309h280q29 0 49.5 -20.5t20.5 -49t-20.5 -49t-49.5 -20.5h-280v-299q0 -29 -20.5 -49.5t-49 -20.5t-49 20.5t-20.5 49.5v299h-289q-29 0 -49.5 20.5t-20.5 49z" />
<glyph unicode="," horiz-adv-x="278" d="M0 -192.5q0 30.5 25 55.5q25 20 47 67q20 43 24 84q-33 27 -33 74q0 39 29 66q33 29 68 28q49 0 73.5 -30.5t24.5 -77.5q0 -70 -43 -174.5t-92 -147.5q-22 -18 -49 -18q-31 0 -51 20q-23 23 -23 53.5z" />
<glyph unicode="-" d="M53 512q0 31 20.5 51.5t51.5 20.5h281q31 0 51 -20.5t20 -51.5q0 -29 -22 -51q-20 -20 -49 -21h-281q-31 0 -51.5 20.5t-20.5 51.5z" />
<glyph unicode="." horiz-adv-x="268" d="M57 86q0 41 29 69.5t68 28.5t67.5 -28.5t28.5 -69.5q0 -39 -28.5 -67.5t-67.5 -28.5t-68 28.5t-29 67.5z" />
<glyph unicode="/" horiz-adv-x="1001" d="M31 53q0 20 12 39l793 1211q20 33 59 32q33 0 53 -20q23 -23 23 -53q0 -23 -13 -41l-790 -1209q-25 -33 -62 -32q-33 0 -53 20q-22 22 -22 53z" />
<glyph unicode="0" horiz-adv-x="1380" d="M53 446q0 201 117 410q115 207 315 344q199 137 404 137q201 0 321 -133q119 -131 119 -334q0 -201 -117 -409q-115 -205 -315 -346q-195 -137 -403 -138q-201 0 -322 134q-119 130 -119 335zM197 444q0 -144 79 -233q80 -90 218 -90q172 0 331 115q166 119 262 290 q98 175 99 344q0 147 -78 234q-80 90 -219 90q-172 0 -332 -115q-162 -117 -260 -291q-100 -178 -100 -344z" />
<glyph unicode="1" horiz-adv-x="571" d="M61 1028q0 34 25 55l256 228q28 18 49 18q31 0 53 -22q20 -20 21 -52v-1194q0 -33 -20.5 -53t-53.5 -20q-31 0 -53 22q-20 20 -21 51v1031l-131 -119q-33 -20 -51 -21q-31 0 -53 23q-21 20 -21 53z" />
<glyph unicode="2" horiz-adv-x="1011" d="M74 76q0 16 8 39q86 174 213 305q117 119 317 266q186 131 187 279q0 106 -84 167.5t-199 61.5q-143 0 -330 -111q-16 -10 -36 -10q-28 0 -50 19q-20 18 -20 53t33 59q74 57 190 94q115 37 211 37q168 0 297 -98q127 -96 127 -272q0 -219 -246 -396q-176 -127 -260 -207 q-96 -90 -176 -221h594q29 0 49.5 -20.5t20.5 -48.5q0 -31 -20.5 -51.5t-49.5 -20.5h-707q-35 0 -53 23q-16 18 -16 53z" />
<glyph unicode="3" horiz-adv-x="1075" d="M55 1159q0 37 37 64q63 41 174 77q96 33 180 33q113 0 191 -65q76 -63 76 -181q0 -96 -60 -163q150 -8 258 -97q109 -86 109 -235q0 -166 -139 -309q-139 -141 -340 -220q-205 -80 -404 -81l-4 -2q-29 0 -53 20q-20 18 -21 51q0 29 17 47q18 23 45 25q305 33 534 168 q223 131 224 301q0 100 -86 149.5t-203 49.5q-102 0 -234 -33l-104 -25q-70 -20 -90 -22h-10q-27 0 -47.5 20.5t-20.5 48.5t12 43q12 16 29 23q20 8 39 10q10 2 37.5 8t84 19.5l111.5 25.5q100 18 138 60q39 41 38 110q0 53 -34.5 82t-92.5 29q-113 0 -288 -94 q-15 -6 -31 -6q-27 0 -51 20q-21 18 -21 49z" />
<glyph unicode="4" horiz-adv-x="1155" d="M33 414q0 25 16 47l696 839q20 27 56 27q33 0 53 -20q23 -23 23 -54q0 -25 -19 -47l-594 -719h479v316q0 33 20.5 53.5t53.5 20.5t53.5 -20.5t20.5 -53.5v-316h160q29 0 51 -22.5t22 -51t-22.5 -51t-50.5 -22.5h-160v-281q0 -33 -20.5 -53t-53.5 -20q-31 0 -53 22 q-20 20 -21 51v281h-637q-31 0 -53 22q-20 21 -20 52z" />
<glyph unicode="5" horiz-adv-x="1024" d="M35 49q0 28 18 49q16 18 43 23q301 35 508 155q209 123 209 293q0 101 -80 154q-82 53 -192 53q-25 0 -70 -4q-16 -2 -76 -14q-25 -6 -63 -17l-76 -22q-53 -16 -66 -21q-8 -4 -20 -4q-29 0 -49.5 20.5t-20.5 51.5v477q0 31 20.5 51.5t49.5 20.5h612q29 0 49 -21 q23 -23 23 -51.5t-23 -50.5q-20 -20 -49 -21h-542v-309q178 57 299 58q164 0 290 -91q125 -88 125 -258q0 -131 -84 -249q-80 -113 -215 -187q-137 -76 -272 -112q-145 -41 -272 -43l-2 -3q-31 0 -52 19q-22 18 -22 53z" />
<glyph unicode="6" horiz-adv-x="1204" d="M74 514q0 225 133 412q131 182 344 291q150 76 356 116q2 2 15 2q27 0 49 -22q20 -20 20 -49q0 -55 -57 -70q-151 -34 -234 -68q-215 -84 -350 -243.5t-135 -368.5q0 -115 45 -205q4 219 174 406q172 186 385 186q139 0 227.5 -94t88.5 -234q0 -219 -176.5 -407.5 t-391.5 -188.5q-221 0 -356 156q-137 160 -137 381zM393 307q0 -90 45 -137q46 -49 129 -49q158 0 291 145q135 147 135 307q0 82 -47 136q-45 51 -127 51q-158 0 -291 -146q-135 -147 -135 -307z" />
<glyph unicode="7" horiz-adv-x="1079" d="M49 1241q0 33 20.5 53.5t53.5 20.5h846q33 0 53 -21q23 -23 22 -53q0 -20 -14 -41l-788 -1182q-20 -33 -62 -32q-31 0 -53 22q-20 20 -21 51q0 23 13 41l712 1067h-708q-33 0 -53.5 20.5t-20.5 53.5z" />
<glyph unicode="8" horiz-adv-x="1236" d="M57 309q0 129 76 250q78 123 189 207q-137 63 -138 207q0 154 147.5 258t303.5 104q115 0 201 -61.5t86 -173.5q0 -94 -64 -176q139 -23 229 -109q92 -90 93 -229q0 -163 -117 -307q-115 -141 -287 -222q-168 -78 -323 -77q-162 0 -279 85.5t-117 243.5zM199 309 q0 -92 73 -139q76 -47 179 -47q125 0 264 63q133 61 229 172q94 109 94 228q0 94 -73 145q-76 53 -177 53q-113 0 -253 -65q-137 -63 -236 -178q-100 -117 -100 -232zM326 969q0 -41 43 -65.5t100 -24.5q102 0 206.5 67.5t104.5 155.5q0 43 -43 67q-39 23 -100 23 q-106 0 -207 -66q-104 -67 -104 -157z" />
<glyph unicode="9" horiz-adv-x="1204" d="M72 741q0 217 176 405.5t391 188.5q219 0 356 -155q135 -154 135 -379.5t-133 -411.5q-131 -182 -344 -291q-147 -77 -356 -116q-2 -2 -14 -2q-27 0 -50 22q-20 20 -20 49q0 55 57 70q129 29 234 67q215 84 350 244t135 369q0 115 -45 203q-2 -217 -174 -403.5 t-385 -186.5q-139 0 -227 94q-86 92 -86 233zM213 741q0 -84 45 -135t127 -51q156 0 291 147.5t135 305.5q0 90 -45 137q-46 49 -129 49q-154 0 -289 -147.5t-135 -305.5z" />
<glyph unicode=":" horiz-adv-x="274" d="M51 305q0 41 27 68q29 29 69 28q39 0 68 -28.5t29 -67.5t-29 -67.5t-68 -28.5q-41 0 -69 29q-27 26 -27 67zM51 674q0 41 29 69.5t67.5 28.5t67.5 -28.5t29 -69.5q0 -39 -29 -67.5t-68 -28.5q-41 0 -69 28q-27 27 -27 68z" />
<glyph unicode=";" horiz-adv-x="301" d="M10 39q0 34 25 55q25 20 47 68q20 43 24 84q-33 27 -32 73q0 40 30 68q33 29 66 29q49 0 73.5 -31t24.5 -78q0 -72 -43 -176t-92 -147q-20 -16 -49 -17q-31 0 -51 19q-23 18 -23 53zM72 674q0 41 28.5 69.5t67.5 28.5t67.5 -28.5t28.5 -69.5q0 -39 -28.5 -67.5 t-67.5 -28.5t-67.5 28.5t-28.5 67.5z" />
<glyph unicode="&#x3c;" horiz-adv-x="856" d="M20 530q0 43 37 64l652 381q16 10 36 10q29 0 51.5 -22.5t22.5 -51.5q0 -43 -37 -65l-542 -316l542 -317q37 -20 37 -63q0 -31 -22 -54q-20 -20 -52 -20q-23 0 -36 10l-652 379q-37 22 -37 65z" />
<glyph unicode="=" horiz-adv-x="784" d="M23 342q0 29 22 51q20 20 51 21h592q31 0 51.5 -20.5t20.5 -51.5t-20.5 -51.5t-51.5 -20.5h-592q-33 0 -53 20.5t-20 51.5zM23 674q0 27 22.5 49t50.5 22h592q29 0 51 -22q20 -20 21 -49q0 -31 -20.5 -51.5t-51.5 -20.5h-592q-33 0 -53 20.5t-20 51.5z" />
<glyph unicode="&#x3e;" horiz-adv-x="856" d="M41 150q0 45 35 63l542 317l-542 316q-35 23 -35 65q0 29 22.5 51.5t51.5 22.5q12 0 37 -10l651 -381q37 -20 37 -63.5t-37 -65.5l-651 -379q-16 -10 -37 -10q-31 0 -52 20q-22 23 -22 54z" />
<glyph unicode="?" horiz-adv-x="956" d="M33 1141q0 35 35 57q229 137 442 137q195 0 303 -100q111 -100 111 -244q0 -129 -90.5 -241.5t-264.5 -169.5q-90 -33 -159 -88q-63 -51 -64 -115v-53q0 -29 -20 -50q-23 -23 -49.5 -22.5t-49 23t-22.5 49.5v53q0 94 71.5 184t247.5 152q125 45 192.5 118.5t67.5 157.5 q0 88 -73 146q-76 59 -205 59q-166 0 -367 -117q-18 -12 -37 -12q-29 0 -49 22.5t-20 53.5zM188 86q0 41 29 69.5t68 28.5t67.5 -28.5t28.5 -69.5q0 -39 -28.5 -67.5t-67.5 -28.5t-68 28.5t-29 67.5z" />
<glyph unicode="@" horiz-adv-x="1746" d="M43 557q0 353 276 565q279 213 685 213q172 0 311 -49q141 -51 221 -127q86 -84 127 -176q43 -98 43 -199q0 -188 -102 -333q-100 -143 -281 -144q-90 0 -156 45q-70 47 -100 127q-205 -168 -397 -168q-119 0 -193 67.5t-74 180.5q0 144 105 258q100 109 248 164 q143 53 282 53q70 0 181 -16q63 -14 63 -76q0 -4 -4 -20q-2 -2 -18 -54l-15.5 -49t-13.5 -45q-12 -35 -27 -98q-12 -55 -12 -84q0 -63 35 -102t96 -39q111 0 176 98q63 96 64 235q0 162 -144 285q-147 125 -415 125q-206 0 -388 -68q-184 -68 -305 -217q-123 -152 -123 -354 q0 -215 166 -325.5t408 -110.5q250 0 450 110q16 10 39 11q29 0 49.5 -20.5t20.5 -49.5q0 -46 -43 -68q-225 -127 -516 -127q-135 0 -264 35q-119 31 -228 103q-104 68 -165.5 182.5t-61.5 261.5zM547 563q0 -49 30.5 -79.5t94.5 -30.5q170 0 381 206q2 16 63 228 q-18 2 -78 2q-223 0 -356 -107q-135 -106 -135 -219z" />
<glyph unicode="A" horiz-adv-x="1275" d="M41 59q0 16 6 29l518 1200q22 49 74 49q53 0 76 -47l518 -1202q6 -15 6 -31q0 -29 -22.5 -51t-51.5 -22q-53 0 -67 45l-166 385h-584l-166 -383q-14 -45 -67 -45q-29 0 -51.5 22t-22.5 51zM412 561h456l-229 529z" />
<glyph unicode="B" horiz-adv-x="1228" d="M94 59v1102q0 43 41 66q89 46 203 80q111 33 205 32q125 0 215 -65.5t90 -188.5q0 -94 -70 -161q172 -12 291 -90q123 -80 123 -234q0 -133 -84 -238q-88 -111 -211 -176q-137 -74 -272 -118q-145 -47 -265 -70q-115 -20 -196 -21q-28 0 -49 25q-21 22 -21 57zM242 127 q131 23 186 37q92 25 211 65q109 39 201 93q86 51 145 124q59 76 59 152q0 102 -100 150q-96 45 -229 45q-209 0 -473 -115v-551zM242 829q152 59 278 80q8 2 17.5 4t14.5 3.5t10 2.5t7 1q49 14 90 65q39 47 39 100q0 106 -155 107q-121 0 -301 -78v-285z" />
<glyph unicode="C" horiz-adv-x="1157" d="M49 504q0 174 88 323q88 147 236 252q143 100 311 166q170 66 338 90q2 2 12 2q33 0 53 -20q23 -23 23 -51q0 -25 -18.5 -47.5t-44.5 -24.5q-145 -20 -295 -78q-156 -59 -271 -135q-125 -82 -205 -209q-80 -125 -79 -268q0 -166 108.5 -274.5t269.5 -108.5q199 0 429 160 q20 14 43 14q31 0 51 -21q23 -23 22 -53q0 -35 -28 -57q-272 -186 -525 -187q-223 0 -370 150q-148 152 -148 377z" />
<glyph unicode="D" horiz-adv-x="1255" d="M94 57v1100q0 43 43 66q101 46 240 80q133 33 250 32q240 0 413 -137q170 -133 170 -369q0 -137 -63 -268q-61 -127 -164 -219q-100 -90 -238 -166q-137 -74 -278 -121q-137 -45 -287 -69h-12q-33 0 -53.5 20t-20.5 51zM242 133q135 29 280 90q129 55 262 146 q123 84 201 204q76 119 76 254q0 170 -125 268.5t-309 98.5q-174 0 -385 -84v-977z" />
<glyph unicode="E" horiz-adv-x="890" d="M94 70v1173q0 31 20.5 51.5t53.5 20.5h592q33 0 53 -21q23 -23 23 -51.5t-23 -50.5q-20 -20 -53 -21h-518v-309h481q33 0 53.5 -20.5t20.5 -48.5q0 -31 -20.5 -51.5t-53.5 -20.5h-481v-580h528q33 0 53.5 -20.5t20.5 -50.5q0 -29 -20.5 -49.5t-53.5 -20.5h-602 q-33 0 -53.5 20.5t-20.5 49.5z" />
<glyph unicode="F" horiz-adv-x="897" d="M94 59v1184q0 31 20.5 51.5t53.5 20.5h606q33 0 53.5 -20.5t20.5 -51.5t-20.5 -51.5t-53.5 -20.5h-532v-309h460q31 0 52 -20q23 -23 22 -49q0 -29 -22 -52q-20 -20 -52 -20h-460v-662q0 -31 -20.5 -51t-53.5 -20q-31 0 -53 22q-21 20 -21 49z" />
<glyph unicode="G" horiz-adv-x="1204" d="M49 481q0 184 88 336q92 160 236 258q154 106 313 168q174 68 342 94h14q33 0 52 -22q18 -20 18 -51q0 -57 -59 -68q-141 -20 -297 -80q-147 -55 -275 -141q-131 -88 -207 -215q-78 -131 -77 -283q0 -150 94 -254q91 -100 233 -100h8q186 0 443 174v143h-313 q-31 0 -52 21q-23 23 -22.5 51.5t22.5 50.5q20 20 52 21h387q33 0 53 -21q23 -23 22 -51v-457q0 -29 -22 -51q-20 -20 -53 -20q-29 0 -51.5 22.5t-22.5 48.5v88q-90 -78 -209 -120q-117 -41 -231 -46q-217 0 -351 146q-135 147 -135 358z" />
<glyph unicode="H" horiz-adv-x="1134" d="M94 59v1196q0 29 21 50q23 23 53.5 22.5t52.5 -22.5q20 -20 21 -50v-395h653v395q0 27 22.5 49.5t51 22.5t51 -22.5t22.5 -49.5v-1196q0 -29 -22 -51q-20 -20 -51 -20q-29 0 -51.5 22.5t-22.5 48.5v660h-653v-660q0 -31 -20.5 -51t-53.5 -20q-31 0 -53 22q-21 20 -21 49z " />
<glyph unicode="I" horiz-adv-x="333" d="M94 59v1196q0 29 21 50q23 23 53.5 22.5t52.5 -22.5q20 -20 21 -50v-1196q0 -31 -20.5 -51t-53.5 -20q-31 0 -53 22q-21 20 -21 49z" />
<glyph unicode="J" horiz-adv-x="952" d="M29 168q0 31 22 53q20 20 51 21q27 0 62 -29q39 -31 90 -57q57 -29 133 -29q154 0 240 104.5t86 268.5v751q0 31 22.5 53.5t51 22.5t51 -22.5t22.5 -53.5v-751q0 -217 -127 -368.5t-346 -151.5q-92 0 -188 36q-90 35 -152 103q-18 20 -18 49z" />
<glyph unicode="K" horiz-adv-x="1056" d="M94 66v1185q0 33 21 54q23 23 53.5 22.5t52.5 -22.5q20 -20 21 -54v-450l549 510q22 18 49 18q31 0 53 -22.5t22 -51.5q0 -31 -24 -53l-496 -457l602 -636q20 -18 21 -50q0 -33 -21 -53q-23 -23 -53.5 -22.5t-52.5 24.5l-649 682v-624q0 -31 -21 -52q-23 -23 -53.5 -22.5 t-52.5 22.5q-21 21 -21 52z" />
<glyph unicode="L" horiz-adv-x="851" d="M94 72v1183q0 29 21 50q23 23 53.5 22.5t52.5 -22.5q20 -20 21 -50v-1112h487q31 0 53 -22q20 -20 21 -49q0 -31 -20.5 -51.5t-53.5 -20.5h-561q-33 0 -53.5 20.5t-20.5 51.5z" />
<glyph unicode="M" horiz-adv-x="1495" d="M94 59v1203q0 33 20.5 53t53.5 20q40 0 61 -30l521 -777l518 777q23 31 61 30q31 0 53 -22q20 -20 21 -51v-1203q0 -33 -20.5 -53t-53.5 -20q-31 0 -53 22q-20 20 -21 51v961l-446 -666q-20 -33 -59 -32.5t-62 32.5l-446 666v-961q0 -33 -20.5 -53t-53.5 -20 q-31 0 -53 22q-21 20 -21 51z" />
<glyph unicode="N" horiz-adv-x="1155" d="M94 57v1203q0 31 20.5 51t53.5 20q41 0 61 -33l686 -1003v960q0 29 21 50q23 23 53.5 22.5t52.5 -22.5q20 -20 21 -50v-1198q0 -29 -20.5 -49t-53.5 -20q-43 0 -61 30l-686 1004v-965q0 -29 -20.5 -49t-53.5 -20t-53.5 20t-20.5 49z" />
<glyph unicode="O" horiz-adv-x="1304" d="M47 508q0 188 94.5 376.5t268.5 321.5q170 131 372 131q219 0 346 -157.5t127 -370.5q0 -131 -57 -285q-55 -147 -151.5 -268t-233.5 -201q-135 -78 -291 -78q-221 0 -348 158t-127 373zM195 508q0 -156 88 -272q86 -115 239.5 -115t292.5 110.5t215 266.5q78 160 78 311 q0 158 -86 272q-86 113 -240 113q-158 0 -297 -109q-133 -104 -213 -266q-77 -159 -77 -311z" />
<glyph unicode="P" horiz-adv-x="1050" d="M94 59v1086q0 82 201 137q200 55 307 55q163 0 289 -86q125 -86 125 -243q0 -125 -78 -228q-80 -104 -205 -172q-119 -63 -250 -108q-115 -39 -241 -60v-381q0 -31 -20.5 -51t-53.5 -20q-31 0 -53 22q-21 20 -21 49zM242 575q121 20 264 78q135 53 250 154 q113 98 112 201q0 90 -80 139q-76 47 -188 47q-174 0 -358 -92v-527z" />
<glyph unicode="Q" horiz-adv-x="1304" d="M49 508q0 131 57 285q57 152 150 268q96 121 235.5 198.5t290.5 77.5q221 0 348 -157.5t127 -370.5q0 -276 -190 -528l283 -287q23 -23 22 -53q0 -29 -22.5 -51.5t-51.5 -22.5q-31 0 -53 22l-276 281q-205 -193 -447 -193q-221 0 -348 158q-125 156 -125 373zM197 508 q0 -160 86 -272q86 -115 239 -115q186 0 344 151l-112 115q-23 23 -23 51q0 31 23 54q20 20 51 20q33 0 53 -20l107 -109q145 211 145 426q0 158 -86 272q-86 113 -242 113q-154 0 -293 -109q-137 -106 -214.5 -265.5t-77.5 -311.5z" />
<glyph unicode="R" horiz-adv-x="1062" d="M94 59v1069q0 43 39 64q256 145 479 145q150 0 269 -84q117 -82 116 -237q0 -89 -43 -166q-43 -78 -112 -129q-71 -52 -148 -86q-78 -35 -162 -55l429 -471q20 -23 20 -52q0 -33 -20.5 -53t-53.5 -20q-31 0 -55 24l-510 561q-18 18 -18 49q0 28 18 50q18 23 45 24 q463 82 463 322q0 86 -69.5 131t-172.5 45q-166 0 -366 -107v-1024q0 -33 -20.5 -53t-53.5 -20q-31 0 -53 22q-21 20 -21 51z" />
<glyph unicode="S" horiz-adv-x="946" d="M37 172q0 35 22 53t50 19q31 0 49 -17q143 -106 307 -106q127 0 209 59q80 57 80 168q0 96 -72 166q-74 70 -176 117l-207 92q-98 43 -174 123q-74 76 -74 180q0 141 121 225q123 86 268 86q101 0 252 -43q152 -43 152 -114q0 -33 -25 -52q-27 -20 -55 -20q-25 0 -39 8 q-145 78 -285 78q-90 0 -165.5 -45t-75.5 -123q0 -114 196 -190q84 -31 168 -72q70 -35 160 -98q84 -59 131 -141.5t47 -176.5q0 -174 -127 -272.5t-309 -98.5q-102 0 -219 37q-115 37 -185 107q-24 22 -24 51z" />
<glyph unicode="T" horiz-adv-x="1071" d="M53 1243q0 31 20.5 51.5t51.5 20.5h823q31 0 51.5 -20.5t20.5 -51.5t-20.5 -51.5t-51.5 -20.5h-342v-1114q0 -31 -20.5 -51t-48.5 -20q-27 0 -49.5 22.5t-22.5 48.5v1114h-340q-31 0 -51.5 20.5t-20.5 51.5z" />
<glyph unicode="U" horiz-adv-x="1144" d="M94 518v739q0 29 21 50q23 23 53.5 22.5t52.5 -22.5q20 -20 21 -50v-739q0 -168 84 -282.5t247 -114.5q162 0 246 114.5t84 282.5v739q0 27 22.5 49.5t53.5 22.5q29 0 51.5 -22.5t22.5 -49.5v-739q0 -227 -123 -383q-123 -158 -357 -158q-236 0 -358 158 q-121 154 -121 383z" />
<glyph unicode="V" horiz-adv-x="1282" d="M45 1257q0 31 21 52q23 23 53 22q52 0 67 -43l459 -1061l453 1059q14 45 67 45q29 0 51.5 -22.5t22.5 -53.5q0 -14 -6 -28l-514 -1202q-22 -49 -74 -49.5t-74 49.5l-520 1206q-6 18 -6 26z" />
<glyph unicode="W" horiz-adv-x="1871" d="M45 1253q0 31 22.5 53.5t51.5 22.5q49 0 69 -45l455 -1057l211 494l-217 504q-6 16 -6 28q0 31 22.5 53.5t51.5 22.5q47 0 67 -45l455 -1057l456 1057q20 45 68 45q31 0 53 -22q20 -20 21 -54q0 -12 -6 -28l-519 -1198q-22 -49 -73 -50q-55 0 -76 52l-217 506l-217 -508 q-20 -49 -76 -50q-53 0 -74 52l-516 1196q-6 16 -6 28z" />
<glyph unicode="X" horiz-adv-x="1189" d="M53 57q0 20 15 41l440 621l-352 495q-14 20 -15 41q0 29 21 50q23 23 51 22q33 0 57 -31l326 -456l328 458q23 31 57 31q27 0 49 -22q20 -20 21 -50q0 -23 -13 -40l-356 -498l442 -621q14 -20 15 -41q0 -31 -20.5 -51t-51.5 -20q-35 0 -57 28l-414 582l-414 -582 q-23 -29 -57 -28q-29 0 -51 22q-21 20 -21 49z" />
<glyph unicode="Y" horiz-adv-x="1140" d="M35 1255q0 29 22.5 51.5t53.5 22.5q39 0 57 -29l410 -540l395 540q25 31 59 31q31 0 53 -22q20 -20 21 -54q0 -29 -14 -43l-439 -600v-553q0 -31 -22 -53q-20 -20 -51 -20q-29 0 -51.5 22.5t-22.5 50.5v551l-455 600q-16 22 -16 45z" />
<glyph unicode="Z" horiz-adv-x="1005" d="M55 72q0 20 13 39l669 1063h-540q-29 0 -49.5 20t-20.5 51q0 29 20.5 49.5t49.5 20.5h669q29 0 49.5 -20.5t20.5 -49.5q0 -25 -12 -39l-670 -1063h639q27 0 49 -22q20 -20 21 -49q0 -31 -20.5 -51.5t-49.5 -20.5h-768q-29 0 -49.5 20.5t-20.5 51.5z" />
<glyph unicode="[" horiz-adv-x="464" d="M0 -238v1657q0 31 20.5 51.5t47.5 20.5h321q27 0 47.5 -20.5t20.5 -51.5q0 -29 -21 -49q-23 -23 -47 -22h-256v-1514h256q25 0 47 -22q20 -20 20.5 -49t-18.5 -52q-18 -20 -49 -20h-321q-29 0 -48 20q-20 24 -20 51z" />
<glyph unicode="\" horiz-adv-x="1105" d="M47 1253q0 33 21 54q23 23 53 22q39 0 61 -35l785 -1196q12 -18 12 -39q0 -33 -21 -53q-23 -23 -53 -22q-39 0 -61 34l-785 1196q-12 19 -12 39z" />
<glyph unicode="]" horiz-adv-x="468" d="M16 -238q0 28 19 50q18 23 47 22h258v1514h-258q-29 0 -47 22t-19 49q0 31 18.5 51.5t47.5 20.5h324q27 0 47 -20.5t20 -51.5v-1657q0 -27 -20 -51q-18 -20 -47 -20h-324q-29 0 -47 20q-19 22 -19 51z" />
<glyph unicode="^" horiz-adv-x="985" d="M43 612q0 14 10 35l379 647q18 35 62 35q41 0 59 -35l381 -647q10 -20 10 -35q0 -27 -22 -49q-20 -20 -50 -20q-37 0 -59 35l-319 544l-320 -544q-23 -35 -61 -35q-29 0 -49.5 20t-20.5 49z" />
<glyph unicode="_" horiz-adv-x="1038" d="M-74 -190q0 33 21 53q23 23 53 22h1040q29 0 51.5 -22.5t22.5 -52.5q0 -29 -22.5 -51.5t-51.5 -22.5h-1040q-31 0 -53 22q-21 21 -21 52z" />
<glyph unicode="`" horiz-adv-x="903" d="M276 1270q0 29 18.5 47t47.5 18q14 0 39 -10l207 -145q29 -18 28 -56q0 -29 -18 -47t-47 -18q-14 0 -39 10l-207 145q-29 19 -29 56z" />
<glyph unicode="a" horiz-adv-x="1030" d="M35 199q0 111 82 192q80 80 213 125q121 41 243 64q114 22 222 24q-57 147 -287 148q-160 0 -299 -86q-18 -12 -43 -13q-33 0 -51 17q-20 18 -21 51q0 29 29 53q63 55 176 82q119 29 211 29q209 0 327.5 -100.5t118.5 -301.5v-430q0 -31 -20 -49q-23 -18 -51 -18 q-31 0 -51.5 20.5t-20.5 46.5v90q-252 -166 -475 -166q-123 0 -211 54q-92 55 -92 168zM178 215q0 -39 41 -70q39 -31 119 -30q221 0 475 188l2 178q-65 0 -160 -12q-68 -8 -209 -43q-111 -27 -190 -84q-78 -55 -78 -127z" />
<glyph unicode="b" horiz-adv-x="1052" d="M76 57v1198q0 27 22.5 49.5t49 22.5t49 -22.5t22.5 -49.5v-473q213 100 402 101q164 0 282.5 -82t118.5 -244q0 -135 -90 -250q-88 -113 -227 -182q-133 -66 -279 -105q-141 -37 -266 -43h-6q-33 0 -55.5 22.5t-22.5 57.5zM219 121q25 6 180 47q82 23 176 61 q102 43 158 82q59 43 105 109q41 61 41 137q0 96 -74 139t-189 43q-199 0 -397 -102v-516z" />
<glyph unicode="c" horiz-adv-x="1028" d="M35 303q0 127 88 240q88 115 221 180q141 70 279 108q139 39 276 52q2 2 8 2q35 0 54 -21q18 -22 18 -49q0 -61 -64 -67q-115 -10 -237 -43q-115 -31 -238 -89q-113 -51 -188 -137q-74 -83 -74 -178q0 -92 80 -137q82 -47 191 -47q182 0 425 123q27 10 37 10q31 0 50 -21 q20 -25 20 -49q0 -40 -37 -61q-280 -141 -498 -142q-164 0 -288 84q-123 82 -123 242z" />
<glyph unicode="d" horiz-adv-x="1046" d="M35 283q0 117 53 209q55 96 137 159q88 68 192.5 115t209.5 76q61 16 202 43v372q0 31 21 52q23 23 51.5 22.5t50.5 -22.5q20 -20 21 -52v-1198q0 -31 -20.5 -51t-51.5 -20q-29 0 -51 22q-20 20 -21 49v74q-231 -156 -444 -156q-156 0 -252 78q-98 81 -98 228zM178 283 q0 -160 209 -160q186 0 442 176v440q-119 -20 -213 -51q-104 -35 -206.5 -86t-167.5 -135q-64 -82 -64 -184z" />
<glyph unicode="e" horiz-adv-x="1069" d="M35 326q0 166 118.5 297t286.5 196q164 63 328 64q100 0 184 -47.5t84 -143.5q0 -125 -129 -217q-125 -90 -311 -133q-168 -39 -362 -39h-29h-15h-12q10 -92 78 -139q71 -49 178 -49q162 0 438 133q14 8 35 8q27 0 51 -20q20 -18 21 -48q0 -40 -37 -61 q-113 -63 -254 -107q-143 -43 -254 -43q-172 0 -284 93q-115 92 -115 256zM199 422q262 2 483 86q211 80 211 170q0 33 -33 51q-34 18 -92 19q-188 0 -346 -89q-160 -87 -223 -237z" />
<glyph unicode="f" horiz-adv-x="770" d="M31 788.5q0 28.5 22 51.5q20 20 49 20h93q2 203 106 338q102 133 293 133q12 0 27.5 -1t19.5 -1q18 0 45 -6q29 -6 41 -23q14 -18 14 -43q0 -35 -16 -53q-18 -23 -51 -22h-15q-37 6 -65 6h-2q-123 0 -186 -88q-61 -86 -66 -240h252q31 0 51.5 -20.5t20.5 -51t-20.5 -51 t-51.5 -20.5h-252v-658q0 -31 -20.5 -51t-51 -20t-53.5 22q-20 20 -20 49v658h-93q-29 0 -51 22q-20 21 -20 49.5z" />
<glyph unicode="g" horiz-adv-x="1183" d="M37 477q0 113 86 211t199 150q111 51 219 51q86 0 155 -35l138 141q20 20 49 21q28 0 49 -19q20 -18 20 -51q0 -27 -20 -47l-135 -141q27 -45 26 -107q0 -82 -45 -153q152 -4 260.5 -94.5t108.5 -247.5q0 -160 -121 -287q-123 -129 -287 -186.5t-327 -57.5 q-133 0 -242 62q-106 61 -107 192q0 82 41 137q43 57 109 88q53 25 135 43q63 14 133 15q137 0 232 -27q53 -16 53 -67q0 -29 -20.5 -49.5t-49.5 -20.5l-2 1q-2 1 -4 1h-8q-114 25 -203 25q-39 0 -82 -7q-49 -6 -90 -20q-45 -14 -75.5 -45t-30.5 -74q0 -59 65 -88 q68 -29 146 -29q224 0 411 111q186 111 187 283q0 92 -72 147q-71 55 -172 55q-52 0 -129 -12q-150 -106 -315 -106q-113 0 -199 61t-86 176zM176 477q0 -49 41 -71q47 -27 102 -27q113 0 240 84t127 188q0 49 -43 74t-102 25q-113 0 -240 -84q-125 -83 -125 -189z" />
<glyph unicode="h" horiz-adv-x="958" d="M76 57v1198q0 27 22.5 49.5t48.5 22.5q29 0 52 -22q20 -20 20 -50v-514q141 141 320 142q162 0 254 -113q92 -115 92 -334v-381q0 -31 -20.5 -51t-51.5 -20t-53 22q-20 20 -21 49v389q0 166 -51 232q-53 70 -156 69q-98 0 -182 -65q-86 -68 -131 -162v-461 q0 -33 -20.5 -53t-51.5 -20q-29 0 -51 22q-20 20 -20 51z" />
<glyph unicode="i" horiz-adv-x="292" d="M53 1241q0 37 29 65.5t65 28.5q39 0 68 -28.5t29 -65.5q0 -39 -29 -67q-27 -27 -68 -27q-39 0 -65 27q-29 28 -29 67zM76 55v750q0 29 22 51q20 20 49 21q31 0 52 -21q23 -23 22 -51v-750q0 -29 -22 -51q-20 -20 -52 -20q-29 0 -51 22q-20 20 -20 49z" />
<glyph unicode="j" horiz-adv-x="307" d="M-324 -276q0 31 20.5 51t53.5 20l4 -1q4 -1 6 -1h9q43 -14 96 -14q225 0 225 280v748q0 31 20.5 51.5t51.5 20.5t51 -20.5t20 -51.5v-748q0 -188 -94 -307t-274 -119q-189 1 -189 91zM66 1241q0 37 28.5 65.5t67.5 28.5t67 -28q27 -27 27 -66q0 -41 -26.5 -67.5 t-67.5 -26.5t-68 27q-28 28 -28 67z" />
<glyph unicode="k" horiz-adv-x="808" d="M76 57v1198q0 29 22.5 51.5t49 22.5t49 -22.5t22.5 -51.5v-671l428 282q18 12 39 13q31 0 51.5 -20.5t20.5 -51.5q0 -37 -31 -59l-354 -232l383 -412q18 -18 18 -46.5t-22.5 -51t-49.5 -22.5q-29 0 -53 24l-430 465v-416q0 -29 -22 -51q-20 -20 -50 -20q-27 0 -49 22 t-22 49z" />
<glyph unicode="l" horiz-adv-x="292" d="M76 57v1198q0 29 22.5 51.5t49 22.5t49 -22.5t22.5 -51.5v-1198q0 -29 -22 -51q-20 -20 -50 -20q-27 0 -49 22t-22 49z" />
<glyph unicode="m" horiz-adv-x="1579" d="M76 59v744q0 31 22 53q20 20 49 21q31 0 51.5 -20.5t20.5 -53.5v-60q133 139 297 140q217 0 299 -185q57 84 154 136q92 49 190 49q160 0 254 -113q92 -111 92 -334v-379q0 -29 -22 -51q-20 -20 -49 -20t-52 22q-20 20 -20 49v387q0 162 -53.5 231.5t-153.5 69.5 q-186 0 -297 -217q4 -37 4 -92v-379q0 -29 -22 -51q-20 -20 -49 -20q-27 0 -49.5 22.5t-22.5 48.5v387q0 166 -51 232q-53 70 -156 69q-184 0 -293 -227v-459q0 -33 -20.5 -53t-51.5 -20q-29 0 -51 22q-20 20 -20 51z" />
<glyph unicode="n" horiz-adv-x="958" d="M76 59v744q0 31 22 53q20 20 49 21q31 0 51.5 -20.5t20.5 -53.5v-62q141 141 320 142q162 0 256 -113q90 -109 90 -334v-379q0 -31 -20.5 -51t-51.5 -20t-53 22q-20 20 -21 49v389q0 168 -51 234q-53 68 -156 68q-98 0 -182 -66q-86 -68 -131 -162v-461q0 -33 -20.5 -53 t-51.5 -20q-29 0 -51 22q-20 20 -20 51z" />
<glyph unicode="o" horiz-adv-x="946" d="M35 305q0 211 172 395q170 182 393 183q147 0 229 -95q84 -96 84 -231q0 -211 -172 -395.5t-393 -184.5q-147 0 -229 95q-84 96 -84 233zM178 305q0 -84 43 -137t127 -53q160 0 291 143t131 299q0 82 -45 137q-43 53 -125 54q-160 0 -291 -143.5t-131 -299.5z" />
<glyph unicode="p" horiz-adv-x="1054" d="M76 -293v961q0 41 37 63q121 72 252 111q141 43 258 43q166 0 282.5 -80t116.5 -240q0 -127 -78 -235q-74 -104 -203 -176q-121 -68 -258 -113q-132 -43 -264 -61v-273q0 -29 -22 -51q-20 -20 -49 -20.5t-50 20.5q-22 22 -22 51zM219 115q184 41 324 98 q143 59 239.5 149.5t96.5 202.5q0 90 -74 133t-184 43q-174 0 -402 -116v-510z" />
<glyph unicode="q" horiz-adv-x="1087" d="M35 291q0 117 63 217q61 96 162 166q104 72 219 114q133 49 238 70q127 25 215 27h6h7q28 0 48.5 -20.5t20.5 -57.5v-1102q0 -31 -20.5 -51.5t-51.5 -20.5t-51.5 20.5t-20.5 51.5v436q-236 -164 -473 -164q-156 0 -258 82q-104 85 -104 232zM178 291q0 -86 62 -127 q63 -41 159 -41q203 0 471 182v426q-336 -53 -514 -172q-178 -121 -178 -268z" />
<glyph unicode="r" horiz-adv-x="714" d="M76 57v746q0 29 22 51q20 20 49 20t52 -22q20 -20 20 -49v-51q45 63 113 96q74 35 145 35q63 0 137 -29q72 -29 72 -84q0 -31 -20.5 -53.5t-51.5 -22.5q-23 0 -41 13q-47 33 -96 32q-88 0 -158 -69q-66 -66 -100 -164v-449q0 -31 -20.5 -51t-51.5 -20q-29 0 -51 22 q-20 20 -20 49z" />
<glyph unicode="s" horiz-adv-x="671" d="M25 163.5q0 26.5 22 49.5q20 20 47 20q29 0 51 -26q27 -39 86 -66q55 -25 117 -24q72 0 117 35q41 33 41 77q0 119 -189 162q-109 25 -184.5 88.5t-75.5 165.5q0 113 82 176.5t193 63.5q49 0 100 -8q63 -10 123 -37q61 -29 61 -72q0 -14 -6 -29q-18 -41 -61 -41 q-14 0 -27 7q-96 43 -182 43q-66 0 -106.5 -25t-40.5 -72q0 -94 153 -127q145 -31 219 -108q76 -80 76 -178q0 -125 -88 -193q-90 -68 -205 -68q-94 0 -174 39t-135 107q-14 14 -14 40.5z" />
<glyph unicode="t" horiz-adv-x="722" d="M31 791q0 31 20.5 51t50.5 20h91v312q0 31 22 53q20 20 49 20q31 0 53 -22q20 -20 21 -51v-312h250q31 0 51 -20.5t20 -50.5q0 -27 -22.5 -49.5t-48.5 -22.5h-250v-348q0 -137 47 -195q46 -55 160 -55q4 0 37 4q16 2 36 2q28 0 50 -18q23 -18 22 -48q0 -84 -143 -84 q-354 0 -354 394v348h-91q-29 0 -51 22q-20 21 -20 50z" />
<glyph unicode="u" horiz-adv-x="958" d="M76 426v379q0 29 22 51q20 20 49 21q31 0 51.5 -20.5t20.5 -51.5v-387q0 -164 51.5 -233.5t155.5 -69.5q94 0 182 65q86 63 131 162v463q0 31 20.5 51.5t53.5 20.5q31 0 51.5 -20.5t20.5 -51.5v-746q0 -31 -20.5 -51t-51.5 -20t-53 22q-20 20 -21 49v62 q-141 -141 -317 -141q-162 0 -254 112.5t-92 333.5z" />
<glyph unicode="v" horiz-adv-x="921" d="M35 803q0 31 20.5 51t50.5 20q45 0 64 -40l293 -625l289 625q23 41 65 40q31 0 51.5 -20t20.5 -51q0 -15 -6 -31l-348 -752q-18 -43 -72 -43q-51 0 -72 46l-350 749q-6 16 -6 31z" />
<glyph unicode="w" horiz-adv-x="1464" d="M35 803q0 31 20.5 51t50.5 20q45 0 64 -40l285 -607l209 609q18 49 67 49q51 0 70 -49l209 -609l284 607q23 41 66 40q31 0 51.5 -20t20.5 -51q0 -15 -7 -31l-354 -749q-18 -45 -72 -46q-59 0 -73 54l-195 561l-192 -563q-23 -53 -76 -54q-51 0 -72 48l-350 749 q-6 16 -6 31z" />
<glyph unicode="x" horiz-adv-x="796" d="M39 57q0 20 14 41l256 367l-209 297q-12 18 -12 41q0 31 20.5 51t51.5 20q39 0 57 -28l180 -256l181 254q25 31 59 30q29 0 51 -22q20 -20 21 -49q0 -27 -15 -41l-209 -297l260 -365q12 -18 13 -43q0 -31 -20.5 -51t-51.5 -20q-35 0 -59 30l-230 324l-227 -324 q-18 -31 -59 -30q-27 0 -49.5 22t-22.5 49z" />
<glyph unicode="y" horiz-adv-x="952" d="M0 -283q0 25 20 50q18 23 48 22q2 0 22 -4q57 -14 94 -14q77 0 129 49q51 49 99 157l-369 795q-8 14 -8 33q0 28 24 49q23 20 52 20q43 0 61 -40l315 -678l295 675q18 43 64 43q27 0 51 -20q23 -18 23 -51q0 -10 -7 -29l-358 -827q-72 -166 -160 -242q-90 -78 -209 -78 q-72 0 -135 21q-51 14 -51 69z" />
<glyph unicode="z" horiz-adv-x="841" d="M41 72q0 23 16 45l488 600h-422q-29 0 -51 22q-20 20 -20.5 51t20 51.5t51.5 20.5h573q29 0 52 -22q20 -20 20 -49q0 -25 -16 -48l-488 -600h469q29 0 51 -22q20 -20 21 -49q0 -31 -20.5 -51.5t-51.5 -20.5h-620q-29 0 -50 20q-22 23 -22 52z" />
<glyph unicode="{" horiz-adv-x="710" d="M0 592q0 25 18 43q20 20 41 20q164 0 164 119q0 35 -10 86q-43 180 -43 293q0 94 27 156q29 68 67 100q41 35 109 53q74 20 121 23q74 4 137 4q31 0 49 -21q18 -22 18 -49q0 -25 -20 -49q-18 -20 -47 -20h-47q-127 0 -185 -23q-94 -39 -94 -174q0 -102 39 -260 q14 -63 14 -119q0 -131 -79 -182q80 -51 79 -182q0 -55 -14 -119q-39 -158 -39 -260.5t49 -145.5t150 -49q20 -2 96 -2h31q31 0 49 -20q18 -22 18 -50q0 -25 -20 -49q-18 -23 -47 -22q-63 0 -137 4q-39 2 -121 24q-68 18 -109 54q-39 33 -67 100q-27 61 -27 156 q0 113 43 293q10 51 10 77q0 127 -164 127q-23 0 -41 18.5t-18 45.5z" />
<glyph unicode="|" horiz-adv-x="305" d="M82 57v1198q0 29 22.5 51.5t49 22.5t49 -22.5t22.5 -51.5v-1198q0 -29 -22 -51q-20 -20 -49 -20q-27 0 -49.5 22t-22.5 49z" />
<glyph unicode="}" horiz-adv-x="716" d="M18 -236q0 29 21 50q23 23 47 22l47 -2q123 0 184 25q94 39 95 174q0 100 -39 258q-14 63 -15 121q0 131 82 182q-82 49 -82 180q0 57 15 121q39 158 39 260q0 106 -50 145q-49 41 -149 50q-20 2 -96 2h-31q-31 0 -49 20q-18 22 -18.5 49.5t18.5 48.5q18 20 49 21 q61 0 135 -4q51 -2 123 -23q63 -16 109 -55q40 -34 67 -98q27 -61 27 -156q0 -111 -43 -293q-10 -57 -10 -86q0 -119 163 -119q20 0 41 -20q18 -18 19 -43q0 -27 -18.5 -45.5t-41.5 -18.5q-164 0 -163 -129q0 -25 10 -75q43 -181 43 -295q0 -94 -27 -156q-28 -65 -67 -98 q-41 -35 -109 -53q-82 -23 -123 -25q-74 -4 -135 -4q-31 0 -49 20q-19 21 -19 49z" />
<glyph unicode="~" horiz-adv-x="1200" d="M47 612q0 12 10 33q47 96 119 166t168 76h18q89 0 246 -80t228 -80q61 0 116 43q14 10 84 92q25 27 58 27q31 0 51 -21q23 -23 22 -49q0 -20 -14 -43q-51 -76 -129 -131q-72 -51 -164 -61h-24q-102 0 -260 79.5t-214 79.5h-8q-10 0 -26 -4q-12 -3 -25 -12q-12 -8 -22 -14 q-8 -6 -21 -21l-16 -20l-17 -25q-2 -4 -6 -10t-7 -9t-3 -5l-16 -25l-6.5 -10l-4.5 -7l-2 -3q-23 -37 -59 -37q-33 0 -53 20q-23 22 -23 51z" />
<glyph unicode="&#xa2;" horiz-adv-x="1028" d="M53 571.5q0 157.5 111 278.5q115 125 287 199v208q0 29 20 48q25 20 47 20q25 0 49 -20q20 -18 21 -48v-155q158 47 289 59h8q33 0 51 -22q16 -18 16 -49q0 -61 -59 -68q-111 -9 -227 -43q-117 -33 -226 -88q-106 -53 -180 -139q-70 -82 -70 -183q0 -92 76 -141 q74 -47 183 -47q170 0 405 127q14 8 35 8q31 0 49 -22.5t18 -47.5q0 -40 -36 -61q-175 -95 -332 -129v-203q0 -29 -20.5 -49t-49.5 -20q-27 0 -47 20.5t-20 48.5v189h-5q-160 0 -276.5 86t-116.5 243.5z" />
<glyph unicode="&#xa3;" horiz-adv-x="1050" d="M35 745.5q0 28.5 20 49.5q23 23 49 22h91q-16 76 -17 127q0 199 115 295t317 96q186 0 342 -75q41 -23 41 -66q0 -31 -20.5 -51.5t-48.5 -20.5q-14 0 -27 6q-160 66 -287 66q-147 0 -221 -57q-72 -55 -72 -193q0 -45 21 -127h307q29 0 51 -22q20 -20 20.5 -49t-20.5 -50 q-23 -23 -51 -22h-268q45 -133 45 -228q0 -154 -76 -303h580q27 0 49 -22q20 -20 20 -49q0 -31 -20.5 -51.5t-48.5 -20.5h-701q-31 0 -51 20.5t-20 51.5q0 20 14 41q59 92 88 166q27 68 27 167q0 35 -7 66q-10 45 -10 49q-2 6 -7 24.5l-9 32.5q-4 16 -12.5 35t-8.5 21h-125 q-27 0 -49 22q-20 21 -20 49.5z" />
<glyph unicode="&#xa5;" horiz-adv-x="1126" d="M53 1257q0 29 21 50q23 23 51 22q37 0 55 -29l389 -520l379 520q18 29 56 29q31 0 51 -20.5t20 -49t-14 -42.5l-418 -580v-70h131q27 0 49 -22q20 -20 20.5 -49t-20.5 -50q-23 -23 -49 -22h-131v-76h131q29 0 49.5 -20.5t20.5 -49t-21 -49.5q-23 -23 -49 -22h-131v-152 q0 -27 -22 -49q-20 -20 -49 -20t-49.5 20.5t-20.5 48.5v152h-148q-27 0 -49 22q-20 20 -20 49t20.5 49.5t48.5 20.5h148v76h-148q-27 0 -49 22q-20 20 -20 49t20 50q23 23 49 22h148v68l-434 579q-15 20 -15 43z" />
<glyph unicode="&#xa9;" horiz-adv-x="1769" d="M53 565q0 168 90 319.5t230 245.5q137 92 309 150q166 55 326 55q182 0 335 -63q162 -68 267 -201q109 -139 108 -323q0 -139 -57 -263q-59 -127 -156 -215q-98 -88 -223 -157.5t-256 -102.5q-129 -33 -260 -33q-180 0 -338 64q-160 66 -266 201q-109 139 -109 323z M193 565q0 -209 174 -329q170 -119 399 -119q137 0 278 45q143 45 263 125q117 78 194.5 202.5t77.5 260.5q0 209 -172 329q-170 119 -399 119q-141 0 -279 -45q-145 -47 -262 -125q-123 -82 -197 -201q-77 -125 -77 -262zM467 590q0 172 178 295t455 159h12q29 0 49 -20 q18 -18 19 -49q0 -58 -62 -68q-15 -3 -67 -12l-80 -16q-131 -33 -248 -111q-117 -77 -117 -178q0 -61 51 -92q52 -31 123 -31q109 0 299 90q14 8 33 8q28 0 49 -18q20 -18 21 -51q0 -40 -37 -62q-70 -45 -178 -76q-104 -31 -189 -30q-119 0 -217 69q-94 68 -94 193z" />
<glyph unicode="&#xad;" d="M53 512q0 31 20.5 51.5t51.5 20.5h281q31 0 51 -20.5t20 -51.5q0 -29 -22 -51q-20 -20 -49 -21h-281q-31 0 -51.5 20.5t-20.5 51.5z" />
<glyph unicode="&#xae;" horiz-adv-x="1769" d="M53 565q0 168 90 319.5t230 245.5q137 92 309 150q166 55 326 55q182 0 335 -63q162 -68 267 -201q109 -139 108 -323q0 -139 -57 -263q-59 -127 -156 -215q-98 -88 -223 -157.5t-256 -102.5q-129 -33 -260 -33q-180 0 -338 64q-160 66 -266 201q-109 139 -109 323z M193 565q0 -209 174 -329q170 -119 399 -119q137 0 278 45q143 45 263 125q117 78 194.5 202.5t77.5 260.5q0 209 -172 329q-170 119 -399 119q-141 0 -279 -45q-145 -47 -262 -125q-123 -82 -197 -201q-77 -125 -77 -262zM670 297v653q0 27 22 49q20 20 49 20.5t49.5 -20 t20.5 -49.5v-10q96 102 250 102q63 0 113 -14q51 -14 51 -65q0 -28 -19 -50q-18 -23 -49 -22q-14 0 -20 2q-43 12 -80 12q-113 0 -180 -90q-66 -86 -66 -221v-297q0 -29 -20.5 -49.5t-49 -20.5t-49.5 21q-22 22 -22 49z" />
<glyph unicode="&#xb4;" horiz-adv-x="903" d="M272 1124q0 37 29 56l207 145q25 10 39 10q29 0 47 -18.5t18 -46.5q0 -37 -28 -56l-209 -145q-16 -10 -37 -10q-27 0 -47 20q-19 18 -19 45z" />
<glyph unicode="&#x2000;" horiz-adv-x="743" />
<glyph unicode="&#x2001;" horiz-adv-x="1490" />
<glyph unicode="&#x2002;" horiz-adv-x="743" />
<glyph unicode="&#x2003;" horiz-adv-x="1490" />
<glyph unicode="&#x2004;" horiz-adv-x="495" />
<glyph unicode="&#x2005;" horiz-adv-x="370" />
<glyph unicode="&#x2006;" horiz-adv-x="247" />
<glyph unicode="&#x2007;" horiz-adv-x="247" />
<glyph unicode="&#x2008;" horiz-adv-x="184" />
<glyph unicode="&#x2009;" horiz-adv-x="296" />
<glyph unicode="&#x200a;" horiz-adv-x="81" />
<glyph unicode="&#x2010;" d="M53 512q0 31 20.5 51.5t51.5 20.5h281q31 0 51 -20.5t20 -51.5q0 -29 -22 -51q-20 -20 -49 -21h-281q-31 0 -51.5 20.5t-20.5 51.5z" />
<glyph unicode="&#x2011;" d="M53 512q0 31 20.5 51.5t51.5 20.5h281q31 0 51 -20.5t20 -51.5q0 -29 -22 -51q-20 -20 -49 -21h-281q-31 0 -51.5 20.5t-20.5 51.5z" />
<glyph unicode="&#x2012;" d="M53 512q0 31 20.5 51.5t51.5 20.5h281q31 0 51 -20.5t20 -51.5q0 -29 -22 -51q-20 -20 -49 -21h-281q-31 0 -51.5 20.5t-20.5 51.5z" />
<glyph unicode="&#x2013;" horiz-adv-x="899" d="M82 512q0 29 22 51q20 20 50 21h594q31 0 51 -20.5t20 -51.5q0 -29 -22 -51q-20 -20 -49 -21h-594q-29 0 -50 21q-22 22 -22 51z" />
<glyph unicode="&#x2014;" horiz-adv-x="1183" d="M82 512q0 29 22 51q20 20 50 21h878q31 0 51.5 -20.5t20.5 -51.5t-20.5 -51.5t-51.5 -20.5h-878q-29 0 -50 21q-22 22 -22 51z" />
<glyph unicode="&#x2018;" horiz-adv-x="296" d="M23 1036q0 70 43 164q43 96 92 139q23 18 49 19q31 0 51 -21q23 -23 23 -53.5t-25 -54.5q-61 -59 -74 -133q35 -29 35 -74q0 -41 -29 -68q-33 -29 -67 -28q-47 0 -74 32q-24 31 -24 78z" />
<glyph unicode="&#x2019;" horiz-adv-x="299" d="M14 979q0 31 25 55q61 51 72 133q-33 27 -33 74q0 37 28.5 65.5t65.5 28.5q51 0 75.5 -30.5t24.5 -77.5q0 -66 -43 -164t-92 -141q-20 -16 -49 -17q-31 0 -51 21q-23 22 -23 53z" />
<glyph unicode="&#x201c;" horiz-adv-x="571" d="M23 1036q0 70 43 164q43 96 92 139q23 18 49 19q31 0 51 -21q23 -23 23 -53.5t-25 -54.5q-61 -59 -74 -133q35 -29 35 -74q0 -41 -29 -68q-33 -29 -67 -28q-47 0 -74 32q-24 31 -24 78zM295 1036q0 70 43 164q43 96 92 139q22 18 49 19q31 0 51 -21q23 -23 23 -53.5 t-25 -54.5q-61 -59 -73 -133q35 -29 34 -74q0 -40 -30 -68q-33 -29 -66 -28q-47 0 -74 32q-24 31 -24 78z" />
<glyph unicode="&#x201d;" horiz-adv-x="571" d="M14 979q0 31 25 55q61 51 72 133q-33 27 -33 74q0 37 28.5 65.5t65.5 28.5q51 0 75.5 -30.5t24.5 -77.5q0 -66 -43 -164t-92 -141q-20 -16 -49 -17q-31 0 -51 21q-23 22 -23 53zM287 979q0 31 24 55q61 51 72 133q-33 27 -33 74q0 37 29 65.5t65 28.5q51 0 76 -30.5 t25 -77.5q0 -66 -43 -164t-92 -141q-20 -16 -50 -17q-31 0 -51 21q-22 22 -22 53z" />
<glyph unicode="&#x2022;" horiz-adv-x="487" d="M39 575q0 84 61.5 145.5t145.5 61.5t145 -61q59 -59 59.5 -145.5t-59 -145.5t-145.5 -59q-84 0 -145.5 61t-61.5 143z" />
<glyph unicode="&#x2026;" horiz-adv-x="817" d="M57 86q0 41 29 69.5t68 28.5t67.5 -28.5t28.5 -69.5q0 -39 -28.5 -67.5t-67.5 -28.5t-68 28.5t-29 67.5zM315 86q0 41 29 69.5t68 28.5t67.5 -28.5t28.5 -69.5q0 -39 -28.5 -67.5t-67.5 -28.5t-68 28.5t-29 67.5zM571 86q0 41 29 69.5t68 28.5t67.5 -28.5t28.5 -69.5 t-27 -68q-29 -29 -69.5 -28.5t-69.5 28.5q-27 27 -27 68z" />
<glyph unicode="&#x202f;" horiz-adv-x="296" />
<glyph unicode="&#x205f;" horiz-adv-x="370" />
<glyph unicode="&#x20ac;" horiz-adv-x="1302" d="M49 446q0 29 21 50q23 23 53 22h55q3 71 12 105h-67q-31 0 -53 22q-20 20 -21 49q0 31 20.5 51.5t53.5 20.5h113q70 154 225 278.5t330 194.5q178 72 362 96q2 2 12 2q31 0 52 -20q23 -23 22 -51q0 -25 -18 -47t-43 -25q-240 -35 -453 -145q-215 -113 -324 -283h426 q29 0 50 -21q23 -23 22 -51q0 -27 -22.5 -49t-49.5 -22h-485q-14 -55 -14 -105h499q27 0 49.5 -22.5t22.5 -49.5q0 -29 -22 -51q-20 -20 -50 -20h-481q40 -117 135 -185q98 -70 224 -69q201 0 428 160q23 14 43 14q33 0 53 -21q23 -23 22 -53q0 -33 -30 -57 q-268 -186 -525 -187q-184 0 -321 111q-141 113 -180 287h-72q-33 0 -53.5 20t-20.5 51z" />
<glyph unicode="&#x2122;" horiz-adv-x="1449" d="M33 1249.5q0 26.5 20.5 47t48.5 20.5h342q29 0 49.5 -20.5t20.5 -47t-20 -45.5q-25 -20 -50 -20h-104v-283q0 -29 -21 -47q-22 -18 -49 -18t-49 18q-23 18 -22 47v283h-97q-25 0 -49 20q-20 19 -20 45.5zM559 901v371q0 29 21 47q22 18 49 18q39 0 61 -34q51 35 121 34 q102 0 168 -69q63 70 166 69q25 0 45 -4q78 -14 133 -75.5t55 -174.5v-182q0 -29 -20 -47q-22 -18 -49.5 -18t-48.5 18q-20 18 -21 47v182q0 63 -27 93q-28 31 -67 30q-72 0 -107 -69q4 -20 4 -54v-182q0 -29 -20 -47q-22 -18 -49.5 -18t-48.5 18q-20 18 -21 47v182 q0 106 -76 121q-4 2 -22 2q-72 0 -107 -80v-225q0 -29 -20 -47q-22 -18 -49.5 -18t-48.5 18t-21 47z" />
<glyph unicode="&#xe000;" horiz-adv-x="875" d="M0 875h875v-875h-875v875z" />
<glyph unicode="&#xfb01;" horiz-adv-x="989" d="M35 793q0 25 20 49q18 20 47 20h107q9 190 104 332q96 141 275 141q141 0 237.5 -57t96.5 -137q0 -35 -25 -64q-25 -27 -66 -26q-39 0 -63 26q-27 31 -27 66v12q-53 41 -153 41q-115 0 -176 -98q-59 -94 -66 -236h479q31 0 52 -18q23 -18 22 -51v-738q0 -23 -20 -47 q-18 -20 -47 -20t-48 20q-20 25 -20 47v668h-420v-668q0 -25 -20 -49q-18 -20 -47 -20t-48 20q-20 25 -20 49v668h-107q-31 0 -49 20q-18 22 -18 50z" />
<glyph unicode="&#xfb02;" horiz-adv-x="991" d="M33 793q0 25 20 49q18 20 47 20h109q6 125 45 228q41 106 129 176q90 72 215 71q53 0 244 -30q29 -4 43 -23q16 -23 16 -45v-1184q0 -25 -20 -49q-18 -20 -47 -20t-49.5 20.5t-20.5 48.5v1123q-125 20 -164 20q-125 0 -186 -94q-61 -96 -68 -242h232q31 0 49 -20 q18 -22 18 -49q0 -29 -20.5 -49.5t-46.5 -20.5h-232v-666q0 -29 -20.5 -49t-49.5 -20q-27 0 -47 20.5t-20 48.5v666h-109q-27 0 -47 20.5t-20 49.5z" />
<glyph unicode="&#xfb03;" horiz-adv-x="1837" d="M1597 1241q0 37 29 65.5t65 28.5q39 0 68 -28.5t29 -65.5q0 -39 -29 -67q-27 -27 -68 -27q-39 0 -65 27q-29 28 -29 67zM1620 55v750q0 29 22 51q20 20 49 21q31 0 52 -21q23 -23 22 -51v-750q0 -29 -22 -51q-20 -20 -52 -20q-29 0 -51 22q-20 20 -20 49zM803 788.5 q0 28.5 22 51.5q20 20 49 20h93q2 203 106 338q102 133 293 133q12 0 27.5 -1t19.5 -1q18 0 45 -6q29 -6 41 -23q14 -18 14 -43q0 -35 -16 -53q-18 -23 -51 -22h-15q-37 6 -65 6h-2q-123 0 -186 -88q-61 -86 -66 -240h252q31 0 51.5 -20.5t20.5 -51t-20.5 -51t-51.5 -20.5 h-252v-658q0 -31 -20.5 -51t-51 -20t-53.5 22q-20 20 -20 49v658h-93q-29 0 -51 22q-20 21 -20 49.5zM31 788.5q0 28.5 22 51.5q20 20 49 20h93q2 203 106 338q102 133 293 133q12 0 27.5 -1t19.5 -1q18 0 45 -6q29 -6 41 -23q14 -18 14 -43q0 -35 -16 -53q-18 -23 -51 -22 h-15q-37 6 -65 6h-2q-123 0 -186 -88q-61 -86 -66 -240h252q31 0 51.5 -20.5t20.5 -51t-20.5 -51t-51.5 -20.5h-252v-658q0 -31 -20.5 -51t-51 -20t-53.5 22q-20 20 -20 49v658h-93q-29 0 -51 22q-20 21 -20 49.5z" />
<glyph unicode="&#xfb04;" horiz-adv-x="1837" d="M1620 57v1198q0 29 22.5 51.5t49 22.5t49 -22.5t22.5 -51.5v-1198q0 -29 -22 -51q-20 -20 -50 -20q-27 0 -49 22t-22 49zM803 788.5q0 28.5 22 51.5q20 20 49 20h93q2 203 106 338q102 133 293 133q12 0 27.5 -1t19.5 -1q18 0 45 -6q29 -6 41 -23q14 -18 14 -43 q0 -35 -16 -53q-18 -23 -51 -22h-15q-37 6 -65 6h-2q-123 0 -186 -88q-61 -86 -66 -240h252q31 0 51.5 -20.5t20.5 -51t-20.5 -51t-51.5 -20.5h-252v-658q0 -31 -20.5 -51t-51 -20t-53.5 22q-20 20 -20 49v658h-93q-29 0 -51 22q-20 21 -20 49.5zM31 788.5q0 28.5 22 51.5 q20 20 49 20h93q2 203 106 338q102 133 293 133q12 0 27.5 -1t19.5 -1q18 0 45 -6q29 -6 41 -23q14 -18 14 -43q0 -35 -16 -53q-18 -23 -51 -22h-15q-37 6 -65 6h-2q-123 0 -186 -88q-61 -86 -66 -240h252q31 0 51.5 -20.5t20.5 -51t-20.5 -51t-51.5 -20.5h-252v-658 q0 -31 -20.5 -51t-51 -20t-53.5 22q-20 20 -20 49v658h-93q-29 0 -51 22q-20 21 -20 49.5z" />
<glyph horiz-adv-x="481" />
</font>
</defs>
</svg>
