<?xml version="1.0" standalone="no"?>
<!DOCTYPE svg PUBLIC "-//W3C//DTD SVG 1.1//EN" "http://www.w3.org/Graphics/SVG/1.1/DTD/svg11.dtd" >
<svg xmlns="http://www.w3.org/2000/svg">
<metadata></metadata>
<defs>
<font id="DellaRobbiaBTBold" horiz-adv-x="1118" >
<font-face units-per-em="2048" ascent="1556" descent="-492" />
<missing-glyph horiz-adv-x="559" />
<glyph horiz-adv-x="0" />
<glyph horiz-adv-x="2048" />
<glyph unicode="&#xd;" horiz-adv-x="559" />
<glyph unicode=" "  horiz-adv-x="559" />
<glyph unicode="&#x09;" horiz-adv-x="559" />
<glyph unicode="&#xa0;" horiz-adv-x="559" />
<glyph unicode="!" horiz-adv-x="606" d="M164 125l147 141l140 -149l-152 -142zM164 1432v38h295v-38q-25 -40 -29 -71l-84 -994l-92 -52l-61 1047q0 26 -29 70z" />
<glyph unicode="&#x22;" horiz-adv-x="686" d="M86 1360q0 48 24 75t66 27q90 0 90 -106q0 -24 -2 -38l-69 -458h-35l-70 459q-4 34 -4 41zM420 1356q0 106 88 106q42 0 66 -27t24 -59q0 -41 -2 -57l-70 -459h-34l-70 459q-2 14 -2 37z" />
<glyph unicode="#" horiz-adv-x="1575" d="M88 449l51 139h312l98 276h-336l51 140h334l162 454h155l-161 -454h276l162 454h156l-162 -454h301l-49 -140h-301l-97 -276h320l-49 -139h-320l-162 -453h-155l162 453h-279l-162 -453h-153l159 453h-313zM604 588h283l96 276h-281z" />
<glyph unicode="$" d="M135 324q0 109 64 188l200 -115l-16 -45q-37 0 -58.5 -20.5t-21.5 -55.5q0 -64 49 -105t133 -46l23 573q-165 95 -240 186.5t-75 209.5t95.5 203.5t252.5 93.5l4 116h96l-6 -118q116 -16 221 -58l25 -239l-62 -23q-47 95 -89.5 137t-100.5 54l-17 -383q199 -128 274 -227 t75 -224q0 -164 -109 -282.5t-277 -135.5l-10 -203h-94l8 201q-163 12 -253.5 96t-90.5 222zM387 1118q0 -105 133 -188l14 336q-147 -20 -147 -148zM580 133q88 12 141 79t53 157.5t-39 152t-131 121.5z" />
<glyph unicode="%" horiz-adv-x="1479" d="M55 1105q0 156 88.5 260.5t219 104.5t218 -103.5t87.5 -262t-86 -260t-219 -101.5t-220.5 103t-87.5 259zM209 -25l911 1518h148l-910 -1518h-149zM238 1106.5q0 -111.5 34 -176t90.5 -64.5t89.5 64.5t33 175t-33 175.5t-90 65t-90.5 -64t-33.5 -175.5zM811 361.5 q0 156.5 88.5 261t219 104.5t217.5 -104t87 -262t-85.5 -259.5t-219 -101.5t-220.5 102.5t-87 259zM993 363q0 -112 33.5 -176t90 -64t90.5 65t34 174.5t-34 174.5t-91 65t-90 -63.5t-33 -175.5z" />
<glyph unicode="&#x26;" horiz-adv-x="1587" d="M72 483q0 163 83.5 284t227.5 167q-168 59 -168 237q0 125 87 203t226 78q52 0 115.5 -17.5t82.5 -17.5t28 17l39 -4l24 -263l-57 -10q-34 88 -73.5 121t-110 33t-111.5 -40.5t-41 -115.5t55.5 -117.5t159.5 -42.5q25 0 57.5 2t36.5 2v-114h-10q-193 0 -306.5 -102 t-113.5 -265t94 -260.5t239.5 -97.5t224 85t79.5 240h-250q-82 0 -129.5 -18t-81.5 -59l-47 14l62 221h858q75 0 110.5 17t71.5 61l49 -23l-86 -213h-350v-4q0 -232 -141 -369t-385 -137t-396.5 142t-152.5 366z" />
<glyph unicode="'" horiz-adv-x="352" d="M86 1356q0 50 23.5 78t66 28t66.5 -27t24 -75q0 -17 -4 -42l-67 -458h-35l-70 459z" />
<glyph unicode="(" horiz-adv-x="692" d="M158 571q0 490 397 922l86 -72q-262 -366 -262 -849t262 -851l-86 -71q-397 432 -397 921z" />
<glyph unicode=")" horiz-adv-x="692" d="M51 -279q262 368 262 851t-262 849l86 72q398 -435 398 -922q0 -486 -398 -921z" />
<glyph unicode="*" horiz-adv-x="854" d="M76 1016l33 18h20q31 0 54 9l186 71l-185 74q-32 8 -59 8h-16l-33 21l90 153l33 -19q18 -35 45 -59l153 -125l-30 194q-8 37 -29 71v38h180v-38q-23 -37 -31 -71l-30 -194l153 125q26 20 45 60l33 18l90 -153l-35 -21h-28q-27 0 -45 -8l-185 -72l187 -74q18 -8 53 -8h20 l33 -18l-90 -156l-33 19q-22 44 -45 61l-153 125l30 -196q8 -39 29 -70v-39h-178v39q21 31 29 70l30 196l-153 -125q-27 -23 -45 -61l-33 -19z" />
<glyph unicode="+" horiz-adv-x="1706" d="M254 541v139h528v541h142v-541h528v-139h-528v-541h-142v541h-528z" />
<glyph unicode="," horiz-adv-x="559" d="M57 -184l160 213l-86 75l135 162l152 -133l-297 -350z" />
<glyph unicode="-" horiz-adv-x="635" d="M72 236v165l491 240v-166z" />
<glyph unicode="." horiz-adv-x="559" d="M135 125l148 141l139 -149l-150 -142z" />
<glyph unicode="/" horiz-adv-x="592" d="M-123 -190l645 1683h131l-647 -1683h-129z" />
<glyph unicode="0" d="M61 735q0 335 142.5 546.5t355.5 211.5t355.5 -211.5t142.5 -546t-142.5 -547.5t-356 -213t-355.5 212.5t-142 547.5zM317 740q0 -276 63 -432t178.5 -156t179 152.5t63.5 430.5t-63.5 431t-176.5 153t-178.5 -151.5t-65.5 -427.5z" />
<glyph unicode="1" d="M338 0v51q67 8 92 36.5t25 111.5v921q0 64 -24.5 86.5t-92.5 24.5v49l295 201h37v-1282q0 -81 22 -110.5t80 -37.5v-51h-434z" />
<glyph unicode="2" d="M16 0v88q476 467 601.5 655.5t125.5 350.5q0 114 -58 180.5t-148 66.5t-141.5 -49.5t-51.5 -135t94 -138.5l-32 -64l-338 136q44 195 171.5 299t323 104t313 -110t117.5 -294t-155 -397t-527 -526h207q192 0 287 32t143 107l74 -31l-109 -274h-897z" />
<glyph unicode="3" d="M18 -27l1 113q320 3 508 124.5t188 321.5q0 138 -90.5 214.5t-251.5 76.5l-41 -2v121h20q132 0 209.5 67t77.5 165t-43.5 146t-108.5 48t-100 -32t-35 -79t39 -86l-43 -57l-254 170q97 209 395 209q175 0 287.5 -87.5t112.5 -221.5q0 -98 -69.5 -174.5t-186.5 -108.5 q338 -105 338 -360.5t-255 -411.5t-689 -156h-9z" />
<glyph unicode="4" d="M82 479v160l596 831h225v-819q64 0 109 66l53 -21l-88 -217h-74v-280q0 -76 19.5 -104.5t70.5 -43.5v-51h-405v51q62 11 85 40t23 108v280h-614zM274 651h422v590z" />
<glyph unicode="5" d="M119 -27v107q299 38 472 165.5t173 305.5q0 114 -70.5 178t-197.5 64q-157 0 -369 -91l135 768h455q118 0 164 15t71 51l54 -29q-53 -131 -147 -182t-300 -51q-85 0 -133 2l-61 -346q104 24 200 24q204 0 323.5 -99.5t119.5 -266.5q0 -257 -245.5 -429t-643.5 -186z" />
<glyph unicode="6" d="M76 516.5q0 234.5 146.5 458t400.5 371.5q224 131 411 147l23 -98q-313 -77 -524 -333t-211 -554q0 -167 76.5 -278t182 -111t163 74.5t57.5 218.5t-70.5 236.5t-191.5 92.5q-61 0 -125 -26l28 129q84 28 158 28q203 0 320.5 -117t117.5 -322.5t-123.5 -331.5 t-337.5 -126t-357.5 153.5t-143.5 388z" />
<glyph unicode="7" d="M100 1202l162 268h813v-116q-487 -765 -487 -1184q0 -53 14.5 -80t48.5 -39v-51h-319q-8 50 -8 102q0 218 151 538.5t412 635.5h-389q-139 0 -210 -23t-120 -77z" />
<glyph unicode="8" d="M88 393q0 113 65.5 212.5t206.5 199.5q-123 84 -176 164t-53 180q0 155 114 249.5t310.5 94.5t313 -91t116.5 -249q0 -104 -58 -182t-194 -154q173 -116 239 -212t66 -220q0 -177 -128 -293.5t-335.5 -116.5t-347 119t-139.5 299zM299 391q0 -113 74.5 -185.5 t192.5 -72.5t188.5 64.5t70.5 164t-65.5 176t-241.5 179.5q-219 -145 -219 -326zM352 1172q0 -74 51 -134t177 -131q196 108 196 252q0 82 -58.5 131t-155 49t-153.5 -46.5t-57 -120.5z" />
<glyph unicode="9" d="M68 1045.5q0 195.5 123.5 321.5t312.5 126q237 0 382.5 -166.5t145.5 -436.5q0 -539 -573 -925l-135 53q230 165 351.5 383t121.5 453.5t-75 365.5t-200 130q-102 0 -160.5 -77.5t-58.5 -220t67.5 -225t190.5 -82.5q81 0 160 27l-21 -125q-82 -33 -180 -33 q-207 0 -329.5 118t-122.5 313.5z" />
<glyph unicode=":" horiz-adv-x="606" d="M160 125l147 141l139 -149l-149 -142zM160 735l147 142l139 -148l-149 -141z" />
<glyph unicode=";" horiz-adv-x="606" d="M82 -184l158 213l-84 75l133 162l153 -133l-299 -350zM160 735l147 142l139 -148l-149 -141z" />
<glyph unicode="&#x3c;" horiz-adv-x="1706" d="M264 547v129l1178 483v-153l-969 -396l969 -393v-154z" />
<glyph unicode="=" horiz-adv-x="1706" d="M254 342v139h1198v-139h-1198zM254 739v140h1198v-140h-1198z" />
<glyph unicode="&#x3e;" horiz-adv-x="1706" d="M264 63v154l971 393l-971 396v153l1178 -483v-129z" />
<glyph unicode="?" horiz-adv-x="934" d="M41 1217q45 133 156.5 204.5t285.5 71.5t285 -94t111 -258.5t-269 -448.5q-44 -47 -87 -93q-103 -110 -103 -214l2 -20l-172 -134q-21 40 -21 109q0 153 154 358q24 34 71 94q189 245 189 392q0 83 -51.5 133.5t-134 50.5t-128.5 -39t-46 -99.5t59 -119.5l-51 -53z M264 125l148 141l139 -149l-152 -142z" />
<glyph unicode="@" horiz-adv-x="2019" d="M141 540q0 200 86.5 377.5t236.5 300.5q285 236 641.5 236t565.5 -188.5t209 -499.5q0 -159 -58.5 -298t-166.5 -237q-123 -108 -260 -108q-195 0 -209 209q-122 -207 -307 -207q-129 0 -206 92t-77 246q0 109 49.5 216t128.5 183q152 146 313 146q181 0 222 -191l51 174 h158l-172 -612q-19 -57 -19 -103t23.5 -74t61.5 -28q80 0 187 81t167.5 219.5t60.5 295t-52.5 268.5t-149.5 195q-194 166 -488 166q-367 0 -611 -242q-254 -250 -254 -645q0 -182 57 -313t173 -229q231 -195 570 -195t624 207l33 -41q-297 -222 -658 -222q-383 0 -620 181 q-151 113 -230.5 276.5t-79.5 363.5zM760 377q0 -94 39.5 -146.5t102.5 -52.5q126 0 233 176q55 93 88.5 204t33.5 200.5t-42 146t-103.5 56.5t-106 -30.5t-103 -118.5t-100.5 -214.5t-42 -220.5z" />
<glyph unicode="A" horiz-adv-x="1395" d="M-39 0v51q24 16 48 53.5t71 139.5l557 1226h135l547 -1243q68 -154 115 -176v-51h-390v51q52 22 52 68q0 36 -23 90l-86 207h-631l-88 -208q-22 -52 -22 -93.5t49 -63.5v-51h-334zM436 596h473l-231 549z" />
<glyph unicode="B" horiz-adv-x="1247" d="M104 0v51q40 14 56 38.5t16 82.5v1126q0 57 -15.5 81.5t-56.5 37.5v53h443q141 0 222 -20t141 -66t94 -115.5t34 -165t-66 -176t-188 -112.5q169 -32 266 -140t97 -263q0 -412 -541 -412h-502zM412 166h186q159 0 231 65.5t72 207.5t-78.5 206t-251.5 64h-67v163h22 q277 0 277 236q0 103 -66 150t-217 47h-108v-1139z" />
<glyph unicode="C" horiz-adv-x="1526" d="M70 723.5q0 333.5 206 551.5t506 218q156 0 332 -59q52 -17 66 -17q27 0 51 29l41 -8l67 -351l-63 -22q-124 266 -465 266q-233 0 -369.5 -150.5t-136.5 -413t155.5 -435t393.5 -172.5q328 0 541 346l104 -111q-258 -420 -706 -420q-326 0 -524.5 207.5t-198.5 541z" />
<glyph unicode="D" horiz-adv-x="1413" d="M104 0v51q40 14 56 38.5t16 82.5v1126q0 57 -15.5 81.5t-56.5 37.5v53h463q275 0 437 -106t249.5 -272.5t87.5 -356.5q0 -333 -200.5 -534t-536.5 -201h-500zM422 178h135q124 0 192 16q205 46 291 239q56 127 56 302q0 283 -136.5 420t-416.5 137h-121v-1114z" />
<glyph unicode="E" horiz-adv-x="1290" d="M104 0v51q41 14 56.5 39t15.5 92v1106q0 66 -15.5 90.5t-56.5 38.5v53h1010l96 -237l-63 -21q-40 43 -88 60.5t-164 17.5h-473v-403h442q124 0 159 18.5t46 67.5h51v-352h-51q-11 48 -47.5 67t-157.5 19h-442v-527h524q92 0 139.5 18t81.5 62l52 -24l-99 -236h-1016z" />
<glyph unicode="F" horiz-adv-x="1237" d="M104 0v51q41 14 56.5 39t15.5 90v1108q0 66 -15.5 90.5t-56.5 38.5v53h1010l96 -237l-63 -21q-40 43 -88 60.5t-164 17.5h-473v-403h442q124 0 159 18.5t46 67.5h51v-352h-51q-11 48 -47.5 67t-157.5 19h-442v-527q0 -65 15.5 -90t56.5 -39v-51h-390z" />
<glyph unicode="G" horiz-adv-x="1536" d="M70 710.5q0 343.5 208.5 563t544.5 219.5q140 0 276 -40t150.5 -40t26.5 25l49 -6l68 -357l-60 -10q-107 144 -226.5 210t-272.5 66q-237 0 -380 -161.5t-143 -429t150 -432t397 -164.5q176 0 299 92v356q0 59 -15 83.5t-55 37.5v51h388v-51q-40 -15 -55 -38.5t-15 -82.5 v-454q-18 -4 -196.5 -88.5t-366.5 -84.5q-355 0 -563.5 196t-208.5 539.5z" />
<glyph unicode="H" horiz-adv-x="1792" d="M104 0v51q40 14 56 38.5t16 82.5v1126q0 57 -15.5 81.5t-56.5 37.5v53h390v-53q-41 -15 -56.5 -39t-15.5 -80v-374h948v374q0 57 -15.5 81.5t-56.5 37.5v53h390v-53q-41 -15 -56.5 -39t-15.5 -80v-1126q0 -58 16 -82.5t56 -38.5v-51h-390v51q40 14 56 38.5t16 82.5v571 h-948v-571q0 -58 16 -82.5t56 -38.5v-51h-390z" />
<glyph unicode="I" horiz-adv-x="616" d="M115 0v51q39 13 54 37.5t15 83.5v1126q0 59 -15 82.5t-54 36.5v53h387v-53q-40 -14 -55 -37.5t-15 -81.5v-1126q0 -59 15.5 -83.5t54.5 -37.5v-51h-387z" />
<glyph unicode="J" horiz-adv-x="1030" d="M4 307q0 72 29.5 141t29.5 71t-6 26l33 49l246 -172l-31 -51l-12 2q-30 0 -50 -26t-20 -76.5t48 -91t118 -40.5q121 0 175 83.5t54 277.5v798q0 57 -15.5 81.5t-55.5 37.5v53h389v-53q-41 -15 -56.5 -39t-15.5 -80v-997q-113 -170 -228 -248t-268.5 -78t-258.5 92.5 t-105 239.5z" />
<glyph unicode="K" horiz-adv-x="1219" d="M104 0v51q40 14 56 38.5t16 82.5v1126q0 57 -15.5 81.5t-56.5 37.5v53h377v-53q-41 -15 -56 -39t-15 -80v-426l403 459q23 27 23 49t-31 37v53h391v-63q-87 -37 -188 -147l-387 -420l518 -666q76 -97 133 -123v-51h-400l1 51q30 9 30 35q0 23 -21 50l-472 609v-573 q0 -58 15.5 -82.5t55.5 -38.5v-51h-377z" />
<glyph unicode="L" horiz-adv-x="1214" d="M104 0v51q41 14 56.5 39t15.5 92v1108q0 65 -15.5 89t-56.5 38v53h390v-53q-41 -13 -56.5 -36.5t-15.5 -90.5v-1110h524q92 0 139.5 18t81.5 62l52 -24l-99 -236h-1016z" />
<glyph unicode="M" horiz-adv-x="1901" d="M59 0v51q69 28 89 205q1 9 2 14l116 1106q-24 4 -90 4l-86 -5l-14 67q154 39 348 39q34 0 82 -2l440 -766l424 766q50 2 120 2q160 0 322 -39l-12 -68q-72 6 -88 6q-39 0 -90 -4l137 -1122q14 -117 33 -155t57 -48v-51h-385v51q66 33 66 107q0 4 -3 28.5t-5 44.5 l-115 959l-449 -801h-67l-461 799l-80 -980q-2 -14 -2 -54t15.5 -65t56.5 -38v-51h-361z" />
<glyph unicode="N" horiz-adv-x="1749" d="M104 0v51q40 13 55 37.5t15 83.5v1126q0 59 -15 82.5t-55 36.5v53h340l951 -997v825q0 59 -15.5 82.5t-54.5 36.5v53h332v-53q-41 -15 -56.5 -39t-15.5 -80v-1298h-61l-1159 1208v-1036q0 -58 15.5 -82.5t55.5 -38.5v-51h-332z" />
<glyph unicode="O" horiz-adv-x="1716" d="M70 731q0 177 78.5 333t222.5 265q215 166 499 166q330 0 553.5 -221.5t223.5 -557.5q0 -170 -79.5 -325t-228.5 -262q-211 -154 -487 -154q-181 0 -335 68.5t-265 198.5q-182 209 -182 489zM291 768.5q0 -240.5 174 -414.5t419 -174t395.5 143t150.5 381.5t-176.5 412 t-422.5 173.5t-393 -140.5t-147 -381z" />
<glyph unicode="P" horiz-adv-x="1139" d="M104 0v51q40 14 56 38.5t16 82.5v1126q0 57 -15.5 81.5t-56.5 37.5v53h420q160 0 247.5 -16.5t162.5 -62.5t122.5 -131.5t47.5 -188.5q0 -195 -136.5 -308.5t-373.5 -113.5q-50 0 -96 2v174h39q168 0 248.5 55t80.5 177t-80.5 177.5t-287.5 55.5h-76v-1118 q0 -58 16 -82.5t56 -38.5v-51h-390z" />
<glyph unicode="Q" horiz-adv-x="1716" d="M70 731q0 178 78 333.5t223 264.5q215 166 499 166q330 0 551 -221q109 -108 167.5 -249.5t58.5 -312.5t-79 -325.5t-222 -251.5q65 -51 133.5 -51t107.5 47l39 -25l-119 -247q-149 20 -307 188q-164 -72 -345 -72t-336.5 68.5t-266.5 198.5q-182 209 -182 489zM291 766 q0 -243 174 -419.5t419 -176.5t395.5 146.5t150.5 390.5t-177.5 417.5t-424.5 173.5t-392 -144.5t-145 -387.5z" />
<glyph unicode="R" horiz-adv-x="1251" d="M104 0v51q40 14 56 38.5t16 82.5v1124q0 59 -15.5 83.5t-56.5 37.5v53h392q277 0 379 -46q210 -96 210 -322q0 -137 -90 -228.5t-262 -128.5q226 -126 434 -524q76 -146 138 -170v-51h-379v51q20 27 20 52.5t-38.5 100t-112 181t-153.5 188t-146 117.5v144 q350 24 350 251q0 113 -69.5 163t-233.5 50h-121v-1126q0 -58 16 -82.5t56 -38.5v-51h-390z" />
<glyph unicode="S" horiz-adv-x="1067" d="M61 354l66 19q82 -120 171 -176t202.5 -56t182.5 58.5t69 158.5q0 138 -272 301l-31 19q-219 129 -293 223t-74 217q0 166 109.5 269.5t287.5 103.5q104 0 203 -43t118.5 -43t32.5 30l50 -8l14 -346l-59 -10q-77 137 -155.5 196.5t-173 59.5t-146.5 -46t-52 -122 q0 -113 238 -253q22 -13 32 -19q245 -143 323.5 -251.5t78.5 -269t-123 -276t-307 -115.5q-113 0 -251 46q-40 14 -56.5 14t-55.5 -41l-40 10z" />
<glyph unicode="T" horiz-adv-x="1608" d="M8 1202l74 266h1431l74 -266l-59 -14q-44 62 -90.5 86t-153.5 24h-362v-1126q0 -59 15 -83.5t54 -37.5v-51h-389v51q40 14 56 38.5t16 82.5v1126h-363q-107 0 -153 -24t-90 -86z" />
<glyph unicode="U" horiz-adv-x="1565" d="M94 1417v53h389v-53q-41 -15 -56 -39t-15 -80v-602q0 -269 99 -401.5t300.5 -132.5t293 115.5t91.5 371.5v649q0 59 -15 82.5t-55 36.5v53h347v-53q-41 -15 -56.5 -39t-15.5 -80v-647q0 -169 -16 -251q-47 -237 -267 -352q-142 -73 -318.5 -73t-314.5 70t-221 197 q-52 81 -75 178.5t-23 245.5v632q0 57 -15.5 81.5t-56.5 37.5z" />
<glyph unicode="V" horiz-adv-x="1327" d="M-63 1417v53h387v-53q-52 -15 -52 -53q0 -34 13 -60l405 -952l402 951q12 29 12 65.5t-49 48.5v53h334v-53q-53 -51 -86 -131l-558 -1298h-147l-578 1319q-32 73 -83 110z" />
<glyph unicode="W" horiz-adv-x="2441" d="M-63 1417v53h387v-53q-52 -15 -52 -53q0 -30 13 -60l405 -968l402 967q12 29 12 65.5t-49 48.5v53h383v-53q-52 -15 -52 -53q2 -35 13 -60l405 -968l402 967q12 29 12 65.5t-49 48.5v53h334v-53q-53 -51 -86 -131l-557 -1298h-148l-489 1120l-478 -1120h-147l-578 1319 q-32 73 -83 110z" />
<glyph unicode="X" horiz-adv-x="1470" d="M-18 1417v53h444v-53q-39 -16 -39 -51q0 -32 29 -68l334 -415l337 415q27 33 27 69t-37 50v53h391v-53q-58 -33 -182 -182l-405 -490l383 -464q12 -15 35 -44q131 -159 202 -186v-51h-463v51q37 16 37 42q0 44 -33 81l-317 406l-295 -369q-51 -67 -51 -107t53 -53v-51 h-430v51q89 55 188 174l406 494l-436 524q-114 140 -178 174z" />
<glyph unicode="Y" horiz-adv-x="1309" d="M-63 1417v53h389l-1 -53q-30 -17 -30 -34q0 -27 22 -60l353 -498l350 475q43 58 43 80t-39 37v53h348v-53q-36 -13 -143 -151l-449 -594v-500q0 -58 16 -82.5t56 -38.5v-51h-389v51q39 13 54 37.5t15 83.5v467l-475 645q-66 98 -120 133z" />
<glyph unicode="Z" horiz-adv-x="1331" d="M37 0v68l835 1222h-438q-158 0 -220.5 -28.5t-107.5 -100.5l-61 21l96 288h1088v-69l-842 -1221h578q136 0 197.5 30.5t103.5 106.5l61 -22l-98 -295h-1192z" />
<glyph unicode="[" horiz-adv-x="692" d="M209 -328v1798h430v-104h-231v-1589h231v-105h-430z" />
<glyph unicode="\" horiz-adv-x="592" d="M-59 1493h129l647 -1683h-131z" />
<glyph unicode="]" horiz-adv-x="692" d="M53 -223h232v1589h-232v104h430v-1798h-430v105z" />
<glyph unicode="^" horiz-adv-x="2048" d="M412 897l514 565h194l512 -565h-98l-512 420l-514 -420h-96z" />
<glyph unicode="_" horiz-adv-x="1024" d="M0 -340h1024v-143h-1024v143z" />
<glyph unicode="`" horiz-adv-x="1024" d="M209 1265.5q0 36.5 25 61.5t73.5 25t126.5 -82l273 -283h-91l-313 166q-56 30 -75 53t-19 59.5z" />
<glyph unicode="a" horiz-adv-x="977" d="M55 205q0 182 483 310l13 3l-6 39q-19 123 -47.5 152.5t-94 29.5t-104.5 -42t-39 -117l4 -29l-45 -23l-115 140q100 110 185.5 159.5t177.5 49.5q231 0 295 -403l6 -36l1 -7q53 -320 128 -320q36 0 61 43l54 -31q-57 -148 -195 -148q-102 0 -164 107 q-187 -107 -318.5 -107t-205.5 63.5t-74 166.5zM256 227q0 -49 33 -75.5t91 -26.5q121 0 232 66q-16 69 -41 208q-44 -15 -119 -38q-196 -61 -196 -134z" />
<glyph unicode="b" horiz-adv-x="1075" d="M45 1280v51l223 139h58v-702q127 98 289 98t279.5 -121t117.5 -317.5t-126 -323.5t-333 -127q-161 0 -344 123q-75 50 -117 70q29 60 29 154v860q0 57 -16.5 76.5t-59.5 19.5zM326 340q0 -105 59 -162t172 -57t182.5 76.5t69.5 212t-74 222.5t-189.5 87t-219.5 -98v-281z " />
<glyph unicode="c" horiz-adv-x="938" d="M61 423q0 190 137 322t334 132q180 0 338 -97l-88 -245l-55 12l2 26q0 85 -53.5 132t-160.5 47t-183 -80.5t-76 -213.5t93.5 -224t248.5 -91t264 115l72 -47q-71 -113 -179 -174.5t-235 -61.5q-195 0 -327 129t-132 319z" />
<glyph unicode="d" horiz-adv-x="1100" d="M61 413.5q0 186.5 135 319.5t332 133q114 0 234 -59v377q0 57 -16 76.5t-60 19.5v51l225 139h56v-1208q0 -53 12 -72t45 -25v-50l-207 -140h-55v101q-136 -99 -273 -99q-178 0 -303 125t-125 311.5zM279 448q0 -135 79.5 -228t191 -93t212.5 80v411q-94 119 -219.5 119 t-194.5 -77t-69 -212z" />
<glyph unicode="e" horiz-adv-x="1006" d="M61 424q0 191 131.5 322t313.5 131t300.5 -80.5t156.5 -221.5l-674 -251q81 -199 280 -199t312 168l77 -57q-157 -261 -442 -261q-188 0 -321.5 129t-133.5 320zM262 500q0 -29 2 -51l449 167q-20 61 -73.5 95t-146.5 34t-162 -68.5t-69 -176.5z" />
<glyph unicode="f" horiz-adv-x="627" d="M16 854h121v176q30 176 169 308t300 132q166 0 264 -110l-116 -174h-57q-8 170 -115 170q-81 0 -151 -102.5t-89 -256.5v-143h305v-125h-305v-557q0 -62 17 -86t63 -35v-51h-356v51q40 15 55.5 38.5t15.5 82.5v557h-55z" />
<glyph unicode="g" horiz-adv-x="934" d="M41 -160l125 154l63 -23q-6 -32 -6 -53q0 -91 78 -151t189 -60t174 38.5t63 100.5q0 81 -318 147q-150 30 -243 52l100 213q-174 88 -174 274q0 145 104.5 245t250.5 100t249 -80l29 90h195v-72q-74 -10 -106 -30.5t-46 -61.5q53 -90 53 -188q0 -136 -99 -228t-251 -92 q-75 0 -141 20q-4 -11 -4 -18q0 -37 208 -75q267 -47 333.5 -100.5t66.5 -150.5q0 -141 -117.5 -228t-312 -87t-317 70t-146.5 194zM274 606q0 -101 72.5 -183.5t161.5 -82.5q59 0 95 40t36 105q0 101 -72.5 183t-145.5 82t-110 -39.5t-37 -104.5z" />
<glyph unicode="h" horiz-adv-x="1085" d="M57 0v51q43 15 59.5 38.5t16.5 82.5v1012q0 57 -16 76.5t-60 19.5v51l224 139h55v-690q196 97 289 97q175 0 278 -134q55 -72 55 -159v-412q0 -60 15.5 -83.5t54.5 -37.5v-51h-346v51q41 15 56.5 38.5t15.5 82.5v416q0 72 -51.5 111.5t-143.5 39.5t-223 -59v-508 q0 -59 15.5 -82.5t56.5 -38.5v-51h-351z" />
<glyph unicode="i" horiz-adv-x="473" d="M66 0v51q40 15 55.5 38.5t15.5 82.5v440q0 41 -14 53.5t-57 18.5v51l215 142l61 -27v-678q0 -60 15 -83.5t55 -37.5v-51h-346zM147 1102v209l185 78v-209z" />
<glyph unicode="j" horiz-adv-x="446" d="M-12 -350q75 100 109 201.5t34 267.5v493q0 41 -14 53.5t-57 18.5l-1 51l213 142l62 -27v-727q0 -36 6 -104q-98 -249 -291 -384zM139 1102v209l187 78v-209z" />
<glyph unicode="k" horiz-adv-x="868" d="M59 0v51q43 15 59.5 38.5t16.5 82.5v1012q0 57 -16 76.5t-60 19.5v51l224 139h45v-964l172 170q57 57 57 89.5t-37 46.5v42h279v-53l-279 -275l336 -475v-51h-307v51q35 7 35 33q0 16 -27 57l-170 258l-59 -57v-170q0 -59 15.5 -82.5t55.5 -38.5v-51h-340z" />
<glyph unicode="l" horiz-adv-x="492" d="M68 0v51q43 15 59 38.5t16 82.5v1012q0 57 -16 76.5t-59 19.5v51l223 139h55v-1298q0 -59 15.5 -82.5t56.5 -38.5v-51h-350z" />
<glyph unicode="m" horiz-adv-x="1581" d="M66 0v51q40 15 55.5 38.5t15.5 82.5v440q0 41 -14 53.5t-57 18.5v51l215 142l61 -27v-70q182 97 291.5 97t210.5 -101q193 101 287 101q174 0 272 -134q51 -71 51 -143l-2 -51v-377q0 -59 15.5 -82.5t56.5 -38.5v-51h-346v51q40 15 55.5 38.5t15.5 82.5v416 q0 72 -41 111.5t-120 39.5t-183 -59v-508q0 -59 15.5 -82.5t56.5 -38.5v-51h-346v51q40 15 55.5 38.5t15.5 82.5v416q0 71 -45 111t-123 40t-192 -59v-508q0 -60 15 -83.5t55 -37.5v-51h-346z" />
<glyph unicode="n" horiz-adv-x="1090" d="M66 0v51q40 15 55.5 38.5t15.5 82.5v440q0 41 -14 53.5t-57 18.5v51l215 142l61 -27v-70q196 97 288 97q174 0 277 -134q56 -73 56 -159v-412q0 -59 15.5 -82.5t55.5 -38.5v-51h-346v51q40 14 55 37.5t15 83.5v416q0 72 -51.5 111.5t-143.5 39.5t-221 -59v-508 q0 -60 15 -83.5t55 -37.5v-51h-346z" />
<glyph unicode="o" horiz-adv-x="1071" d="M61 421q0 193 135 324.5t335 131.5t339.5 -134.5t139.5 -320t-138 -316.5t-337.5 -131t-336.5 126.5t-137 319.5zM252 504q0 -139 112 -258t244 -119q96 0 153.5 60.5t57.5 162.5q0 139 -111.5 257t-244.5 118q-97 0 -154 -59.5t-57 -161.5z" />
<glyph unicode="p" horiz-adv-x="1090" d="M55 -313q44 10 61 34.5t17 85.5v805q0 41 -14 53.5t-57 18.5l-1 51l213 142h62v-107q141 107 268 107q178 0 301 -132t123 -324t-127.5 -319t-320.5 -127q-142 0 -244 72v-240q0 -60 17 -84t63 -36v-52h-361v52zM336 289q39 -84 111.5 -132t168.5 -48t160 68t64 202.5 t-87.5 236t-209 101.5t-207.5 -76v-352z" />
<glyph unicode="q" horiz-adv-x="1090" d="M61 429.5q0 189.5 134.5 318.5t339.5 129q146 0 296 -95l62 72h127v-31q-30 -12 -41.5 -62t-11.5 -222v-732q0 -63 17 -86.5t60 -33.5v-52h-360v52q44 10 61 34.5t17 85.5v271q-132 -88 -273 -88q-180 0 -304 125t-124 314.5zM264 459q0 -132 85 -226t197 -94t216 80v404 q-55 67 -111 96t-149 29t-165.5 -78.5t-72.5 -210.5z" />
<glyph unicode="r" horiz-adv-x="721" d="M66 0v51q40 15 55.5 38.5t15.5 82.5v440q0 41 -14 53.5t-57 18.5v51l215 142l61 -27v-143q87 97 149 134.5t132 37.5q29 0 49 -9l57 -215l-55 -24q-56 78 -118 78q-126 0 -214 -140v-397q0 -64 18 -87.5t66 -33.5v-51h-360z" />
<glyph unicode="s" horiz-adv-x="778" d="M74 229l57 15q31 -72 93.5 -112t146.5 -40q143 0 143 103q0 57 -144 136q-27 15 -42 23h-1q-245 142 -245 275q0 117 85 182.5t233 65.5t247 -39v-197h-57q-17 57 -66 89t-115 32t-99.5 -24.5t-33.5 -67.5q0 -61 154 -144q24 -13 37 -20q149 -84 195.5 -142.5 t46.5 -140.5q0 -116 -89.5 -182t-250.5 -66q-131 0 -260 39z" />
<glyph unicode="t" horiz-adv-x="578" d="M51 729v111q95 7 142 54t55 140h94v-180h209v-125h-209v-518q0 -109 76 -109q34 0 112 48l39 -54q-131 -121 -227 -121q-88 0 -156 70q-49 53 -49 127v557h-86z" />
<glyph unicode="u" horiz-adv-x="1090" d="M57 685v50l213 142l62 -27v-498q0 -112 54 -171.5t146 -59.5t218 63v498q0 58 -15.5 81t-56.5 38v53h274v-592q0 -56 15 -75t57 -22v-50l-219 -140h-55v105q-143 -103 -277.5 -103t-240 103.5t-105.5 236.5v295q0 42 -14.5 54.5t-55.5 18.5z" />
<glyph unicode="v" horiz-adv-x="958" d="M2 801v53h295v-53q-41 -21 -41 -56q0 -14 8 -36l244 -535l227 518q17 36 17 63.5t-39 45.5v53h243v-53l-385 -801h-178z" />
<glyph unicode="w" horiz-adv-x="1677" d="M2 801v53h295v-53q-41 -21 -41 -56q0 -14 8 -36l240 -510l223 493q16 41 16 67.5t-36 41.5v53h311v-53q-41 -21 -41 -56q0 -14 8 -36l242 -523l229 506q14 35 14 64.5t-36 44.5v53h243v-53l-385 -801h-178l-280 600l-271 -600h-170z" />
<glyph unicode="x" horiz-adv-x="938" d="M4 0v51l350 375l-325 375v53h313v-53q-25 -5 -25 -27q0 -21 23 -47l154 -174l147 170q27 31 27 52.5t-25 25.5v53h275v-53l-334 -350l348 -400v-51h-314l1 51q24 4 24 31q0 18 -22 43l-175 199l-160 -198q-3 -4 -16.5 -19.5t-13.5 -28.5q0 -23 24 -27l1 -51h-277z" />
<glyph unicode="y" horiz-adv-x="909" d="M-20 -313q94 17 190 117.5t207 297.5l-381 711v41h313v-53q-47 -15 -47 -49q0 -13 10 -35l211 -428l211 427q8 14 8 36q0 34 -45 49v53h258v-53l-337 -641q-186 -352 -353 -525h-245v52z" />
<glyph unicode="z" horiz-adv-x="905" d="M10 0v55l561 670h-231q-95 0 -144.5 -19.5t-93.5 -68.5l-51 12l72 205h727v-74l-549 -653h281q112 0 164.5 21.5t97.5 74.5l49 -16l-72 -207h-811z" />
<glyph unicode="{" horiz-adv-x="1024" d="M178 604v64q161 13 219 73.5t58 221.5v206q0 199 82 273t301 74h10v-53q-136 -2 -186 -55t-50 -210v-141q0 -227 -59 -308.5t-217 -113.5q159 -32 217.5 -113.5t58.5 -308.5v-141q0 -157 49.5 -209t186.5 -54v-53h-10q-219 0 -301 74t-82 272v207q0 161 -59 221.5 t-218 73.5z" />
<glyph unicode="|" horiz-adv-x="1024" d="M438 -483v2048h150v-2048h-150z" />
<glyph unicode="}" horiz-adv-x="1024" d="M176 -191q137 2 186.5 54.5t49.5 208.5v141q0 227 58.5 308.5t217.5 113.5q-158 32 -217 113.5t-59 308.5v141q0 157 -50 210t-186 55v53h10q220 0 302.5 -74t82.5 -273v-206q0 -161 58 -221.5t219 -73.5v-64q-161 -13 -219 -73.5t-58 -221.5v-207q0 -198 -82.5 -272 t-302.5 -74h-10v53z" />
<glyph unicode="~" horiz-adv-x="1706" d="M178 451v155q212 144 387 144q134 0 338 -79q159 -57 240 -57q166 0 387 156v-156q-204 -141 -389 -141q-93 0 -256 58q-212 77 -322 77q-160 0 -385 -157z" />
<glyph unicode="&#xa0;" />
<glyph unicode="&#xa1;" horiz-adv-x="606" d="M162 0v39q27 40 31 68l83 995l93 51l59 -1047q0 -17 31 -67v-39h-297zM172 1352l150 141l137 -147l-148 -142z" />
<glyph unicode="&#xa2;" d="M119 434q0 163 115.5 282.5t302.5 143.5l8 164h94l-6 -161q173 -24 285 -120l-78 -206l-55 10l1 31q0 132 -159 161l-27 -571q28 -4 62 -4q135 0 243 98l58 -76q-153 -168 -367 -178l-10 -217h-94l8 221q-172 29 -276.5 144t-104.5 278zM311 469q0 -104 52.5 -177.5 t144.5 -101.5l22 547q-96 -14 -157.5 -89t-61.5 -179z" />
<glyph unicode="&#xa3;" d="M4 205.5q0 96.5 62 160.5t147.5 64t187.5 -65q2 9 2 15v17q0 47 -49 170.5t-63 159.5h-221l45 123h129q-35 132 -35 248q0 183 113.5 289t312.5 106q272 0 422 -201l-197 -254l-59 37q35 74 35 115q0 72 -54.5 120t-145 48t-147.5 -63.5t-57 -172.5q0 -67 56 -272h264 l-43 -123h-179q58 -206 58 -288.5t-27 -169.5q136 -91 219 -91t128.5 37t45.5 90.5t-26.5 83t-66 29.5t-73.5 -14l-30 71q57 39 139.5 39t142.5 -69.5t60 -187t-80 -200t-203 -82.5q-165 0 -321 160q-114 -147 -263 -147q-103 0 -166 60.5t-63 157zM123 204q0 -41 27 -65 t74 -24q96 0 149 102q-92 80 -158 80q-40 0 -66 -26t-26 -67z" />
<glyph unicode="&#xa4;" d="M18 838l25 104h111q47 246 187.5 398.5t317.5 152.5q132 0 259 -66q19 -10 22 -10q22 2 37 29l35 -8l51 -355l-55 -18q-93 266 -306 266q-133 0 -222 -101t-118 -288h498l-24 -104h-480v-66q0 -68 3 -94h440l-25 -105h-405q30 -188 123.5 -300.5t214.5 -112.5 q197 0 319 315l88 -80q-152 -420 -489 -420q-190 0 -319.5 160t-162.5 438h-120l24 105h88v55q0 67 4 105h-121z" />
<glyph unicode="&#xa5;" horiz-adv-x="1147" d="M-45 1418v52h336v-53q-27 -16 -27 -33q0 -27 20 -60l302 -499l301 475q37 60 37 79.5t-33 37.5v53h299v-53q-17 -7 -42 -38t-81 -113l-188 -285h208v-104h-274l-133 -203h407v-105h-407v-397q0 -59 13.5 -83t47.5 -38v-51h-333v51q34 14 47.5 38t13.5 83v397h-418v105 h393l-129 203h-264v104h197l-187 303q-58 96 -106 134z" />
<glyph unicode="&#xa6;" horiz-adv-x="1024" d="M438 -350v758h150v-758h-150zM438 674v758h150v-758h-150z" />
<glyph unicode="&#xa7;" horiz-adv-x="1006" d="M90 741q0 92 59.5 160t165.5 98q-106 113 -106 232t87.5 190.5t240.5 71.5q129 0 270 -55l-72 -228l-55 15q2 8 2 24q0 62 -39 96.5t-107 34.5t-107.5 -32t-39.5 -82.5t35 -99.5q49 -70 258 -247q248 -209 248 -356q0 -93 -62.5 -162t-167.5 -92q61 -62 86 -115t25 -116 q0 -121 -87.5 -191.5t-238.5 -70.5q-161 0 -315 73l76 244l61 -15q-2 -10 -2 -30q0 -162 184 -162q67 0 104.5 34t37.5 90t-43 111t-211 193l-28 23q-259 216 -259 364zM260 786q0 -76 203 -252q107 -92 170 -151q59 15 93 52.5t34 86.5q0 80 -241 291q-81 71 -128 113 q-62 -15 -96.5 -52t-34.5 -88z" />
<glyph unicode="&#xa8;" horiz-adv-x="1024" d="M225 1036v230h205v-230h-205zM592 1036v230h205v-230h-205z" />
<glyph unicode="&#xa9;" horiz-adv-x="1683" d="M131 678q0 291 209 502q100 101 230.5 156t271 55t271.5 -54.5t230.5 -153t154 -231.5t54.5 -274q0 -291 -209 -502q-205 -209 -501 -209q-289 0 -502 209q-209 207 -209 502zM223 678q0 -259 183 -440q185 -183 436 -183q257 0 436 183q184 186 184 440q0 123 -48 241 t-134 203.5t-201 134t-236.5 48.5t-236.5 -49t-203 -138q-180 -184 -180 -440zM420 671.5q0 181.5 118.5 306t290.5 124.5q75 0 149.5 -33t80.5 -33q52 0 63 62h37l2 -316h-43q-65 273 -280 273q-240 0 -240 -371q0 -187 66.5 -284t193.5 -97q165 0 281 176l39 -26 q-123 -211 -347 -211q-173 0 -292 124t-119 305.5z" />
<glyph unicode="&#xaa;" horiz-adv-x="733" d="M41 1016q0 127 364 217l9 2l-4 27q-15 86 -36.5 107.5t-70.5 21.5t-78.5 -30t-29.5 -83l3 -21l-34 -14l-86 96q140 148 272 148q175 0 222 -285l5 -32q41 -220 97 -220q25 0 45 31l41 -23q-44 -102 -148 -102q-76 0 -123 74q-136 -74 -236 -74t-156 44.5t-56 115.5z M193 1032q0 -71 94 -71q91 0 171 44l-30 148q-34 -11 -90 -28q-145 -43 -145 -93z" />
<glyph unicode="&#xab;" horiz-adv-x="930" d="M61 428l246 317h205l-246 -317l246 -317h-205zM432 428l246 317h205l-248 -317l248 -317h-205z" />
<glyph unicode="&#xac;" horiz-adv-x="1706" d="M254 721v139h1198v-502h-137v363h-1061z" />
<glyph unicode="&#xad;" horiz-adv-x="635" d="M72 236v165l491 240v-166z" />
<glyph unicode="&#xae;" horiz-adv-x="1683" d="M131 678q0 291 207 502q100 101 231.5 156t273 55t274.5 -56t231.5 -156t151 -231.5t52.5 -273t-56 -272.5t-158 -232q-207 -203 -507 -203q-134 0 -261.5 54.5t-229.5 154.5q-209 206 -209 502zM223 678q0 -259 183 -440q181 -183 436 -183q257 0 436 183 q182 186 182 440q0 125 -47.5 242t-133 202.5t-200.5 134t-236.5 48.5t-236.5 -49t-203 -138q-180 -184 -180 -440zM467 289v44q69 4 95 25.5t26 73.5v516q0 53 -26 74.5t-95 26.5v45h397q144 0 231 -54t87 -139t-66 -133.5t-219 -75.5q95 -28 145 -76q60 -59 71 -171.5 t67 -112.5q63 0 63 131h45v-19q0 -84 -41 -129t-105 -45q-116 0 -149 62q-20 37 -22 110t-8 97q-37 139 -197 139h-29v-246q0 -51 25.5 -72t93.5 -27v-44h-389zM737 981l1 -260q26 -2 63 -2q105 0 163 45t58 122t-50 121t-142.5 44t-92.5 -70z" />
<glyph unicode="&#xaf;" horiz-adv-x="1024" d="M236 1077v148h552v-148h-552z" />
<glyph unicode="&#xb0;" horiz-adv-x="674" d="M49 1167q0 120 85 204.5t203.5 84.5t203 -84.5t84.5 -204t-84 -203t-205 -83.5t-204 83t-83 203zM143 1169q0 -81 57 -138.5t138 -57.5t136.5 57.5t55.5 138.5t-55.5 137t-136.5 56t-138 -56t-57 -137z" />
<glyph unicode="&#xb1;" horiz-adv-x="1706" d="M254 29v141h1198v-141h-1198zM254 713v139h528v340h142v-340h528v-139h-528v-340h-142v340h-528z" />
<glyph unicode="&#xb2;" horiz-adv-x="737" d="M10 588v53q317 282 399.5 394t82.5 194.5t-39 123t-98.5 40.5t-93.5 -30t-34 -82t62 -83l-21 -37l-223 80q29 117 113.5 179.5t213.5 62.5t206 -65.5t77 -176t-102.5 -238.5t-347.5 -315h137q129 0 190.5 18.5t94.5 63.5l47 -18l-72 -164h-592z" />
<glyph unicode="&#xb3;" horiz-adv-x="737" d="M12 571l1 68q209 1 333.5 74.5t124.5 193.5q0 83 -59 128.5t-166 45.5h-27v72h14q87 0 138 40.5t51 99t-29 87.5t-72 29t-65.5 -19t-21.5 -49t24 -51l-29 -35l-168 103q67 125 263 125q114 0 188 -52.5t74 -121t-45.5 -115t-122.5 -66.5q223 -61 223 -215t-168 -248 t-455 -94h-6z" />
<glyph unicode="&#xb4;" horiz-adv-x="1024" d="M317 987l273 283q78 82 126.5 82t73.5 -25t25 -61t-18.5 -58.5t-75.5 -54.5l-313 -166h-91z" />
<glyph unicode="&#xb5;" horiz-adv-x="1169" d="M-102 -326q0 44 70 277t110 422l108 512h168l-100 -475q-18 -80 -18 -142t41.5 -100.5t128.5 -38.5q179 0 227 227l112 529h173l-115 -532q-19 -91 -19 -128q0 -100 103 -100q44 0 81 25t54 60.5t32.5 86.5t37.5 51t22 -32q0 -83 -44 -173t-97.5 -129t-128.5 -39 t-119.5 55t-44.5 154v13q-52 -115 -123 -168.5t-169 -53.5q-198 0 -222 220q-33 -143 -67 -379t-113 -236q-88 0 -88 94z" />
<glyph unicode="&#xb6;" horiz-adv-x="1024" d="M66 1133q0 154 107.5 250t285.5 96h499v-86h-120v-1393h-111v1393h-176v-1393h-113v782q-170 8 -271 102.5t-101 248.5z" />
<glyph unicode="&#xb7;" horiz-adv-x="559" d="M141 734q0 55 42.5 96.5t98 41.5t96 -40t40.5 -98.5t-39 -97t-97.5 -38.5t-99.5 40.5t-41 95.5z" />
<glyph unicode="&#xb8;" horiz-adv-x="1024" d="M240 -373l39 84q142 -71 238.5 -71t96.5 81q0 89 -108 89q-37 0 -55 -9v199h69v-112q37 3 95 4.5t106.5 -45.5t48.5 -127t-58.5 -128.5t-143.5 -48.5q-152 0 -328 84z" />
<glyph unicode="&#xb9;" horiz-adv-x="739" d="M223 588v30q45 6 61.5 23t16.5 66v553q0 37 -16 51t-61 16l-1 29l195 121h24v-770q0 -47 15 -65t53 -24v-30h-287z" />
<glyph unicode="&#xba;" horiz-adv-x="803" d="M47 1167q0 135 100.5 227.5t251 92.5t255 -94t104.5 -224t-103.5 -221.5t-253.5 -91.5t-252 88t-102 223zM188 1212q0 -85 84.5 -168t170.5 -83t128.5 42.5t42.5 127t-83 167t-170 82.5t-130 -41.5t-43 -126.5z" />
<glyph unicode="&#xbb;" horiz-adv-x="930" d="M47 111l248 317l-248 317h205l246 -317l-246 -317h-205zM418 111l246 317l-246 317h203l247 -317l-247 -317h-203z" />
<glyph unicode="&#xbc;" horiz-adv-x="1751" d="M213 647v29q42 4 58 20t16 62v516q0 36 -15.5 49t-58.5 15v26l184 113h25v-719q0 -46 14 -62t49 -20v-29h-272zM362 -25l898 1518h126l-890 -1518h-134zM1098 268v90l377 465h141v-458q39 0 67 36l35 -12l-55 -121h-47v-157q0 -43 12.5 -58.5t44.5 -23.5v-29h-256v28 q39 6 53.5 22t14.5 61v157h-387zM1219 365h266v329z" />
<glyph unicode="&#xbd;" horiz-adv-x="1751" d="M213 647v29q42 4 58 20t16 62v516q0 36 -15.5 49t-58.5 15v26l184 113h25v-719q0 -46 14 -62t49 -20v-29h-272zM362 -25l898 1518h126l-890 -1518h-134zM1057 0v49q303 266 381 370t78 180.5t-37 114.5t-93.5 38t-89 -28.5t-32.5 -76t59 -78.5l-20 -34l-213 75 q27 110 107 168t203.5 58t198 -62t74.5 -164.5t-98 -222t-332 -295.5h129q119 0 180.5 18t92.5 60l45 -16l-68 -154h-565z" />
<glyph unicode="&#xbe;" horiz-adv-x="1751" d="M12 633v63q201 2 320 70t119 180q0 76 -57 119t-158 43h-27v68h12q83 0 132.5 37.5t49.5 91.5q0 108 -104 108q-34 0 -56 -17.5t-22 -42.5t25 -50l-27 -31l-160 94q63 117 250 117q110 0 180 -48.5t70 -113.5t-43 -108.5t-117 -61.5q213 -58 213 -199q0 -145 -160.5 -232 t-435.5 -87h-4zM362 -25l898 1518h126l-890 -1518h-134zM1098 268v90l377 465h141v-458q39 0 67 36l35 -12l-55 -121h-47v-157q0 -43 12.5 -58.5t44.5 -23.5v-29h-256v28q39 6 53.5 22t14.5 61v157h-387zM1219 365h266v329z" />
<glyph unicode="&#xbf;" horiz-adv-x="934" d="M63 319q0 176 269 459l88 94q102 111 102 211l-2 21l170 135q21 -38 21 -108q0 -150 -154 -361q-22 -30 -65 -86q-193 -250 -193 -387q0 -92 49 -143.5t133 -51.5t130 39.5t46 98t-57 120.5l51 54l250 -162q-45 -134 -156 -205.5t-285 -71.5t-285.5 95t-111.5 249z M391 1352l152 141l135 -147l-148 -142z" />
<glyph unicode="&#xc0;" horiz-adv-x="1395" d="M-39 0v51q24 16 48 53.5t71 139.5l557 1226h135l547 -1243q68 -154 115 -176v-51h-390v51q52 22 52 68q0 36 -23 90l-86 207h-631l-88 -208q-22 -52 -22 -93.5t49 -63.5v-51h-334zM395 1881.5q0 36.5 25 61.5t73.5 25t126.5 -82l273 -283h-91l-313 166q-56 30 -75 53 t-19 59.5zM436 596h473l-231 549z" />
<glyph unicode="&#xc1;" horiz-adv-x="1395" d="M-39 0v51q24 16 48 53.5t71 139.5l557 1226h135l547 -1243q68 -154 115 -176v-51h-390v51q52 22 52 68q0 36 -23 90l-86 207h-631l-88 -208q-22 -52 -22 -93.5t49 -63.5v-51h-334zM436 596h473l-231 549zM503 1603l273 283q78 82 126.5 82t73.5 -25t25 -61t-18.5 -58.5 t-75.5 -54.5l-313 -166h-91z" />
<glyph unicode="&#xc2;" horiz-adv-x="1395" d="M-39 0v51q24 16 48 53.5t71 139.5l557 1226h135l547 -1243q68 -154 115 -176v-51h-390v51q52 22 52 68q0 36 -23 90l-86 207h-631l-88 -208q-22 -52 -22 -93.5t49 -63.5v-51h-334zM399 1603l225 350h148l225 -350h-84l-215 180l-215 -180h-84zM436 596h473l-231 549z" />
<glyph unicode="&#xc3;" horiz-adv-x="1395" d="M-39 0v51q24 16 48 53.5t71 139.5l557 1226h135l547 -1243q68 -154 115 -176v-51h-390v51q52 22 52 68q0 36 -23 90l-86 207h-631l-88 -208q-22 -52 -22 -93.5t49 -63.5v-51h-334zM407 1634q34 248 211 248q39 0 64 -9l108 -28q14 -4 39 -4q64 0 92 86h66 q-34 -246 -213 -246q-25 0 -49 6l-105 27q-38 10 -57 10q-59 0 -90 -90h-66zM436 596h473l-231 549z" />
<glyph unicode="&#xc4;" horiz-adv-x="1395" d="M-39 0v51q24 16 48 53.5t71 139.5l557 1226h135l547 -1243q68 -154 115 -176v-51h-390v51q52 22 52 68q0 36 -23 90l-86 207h-631l-88 -208q-22 -52 -22 -93.5t49 -63.5v-51h-334zM411 1652v230h205v-230h-205zM436 596h473l-231 549zM778 1652v230h205v-230h-205z" />
<glyph unicode="&#xc5;" horiz-adv-x="1395" d="M-39 0v51q24 16 47.5 52t71.5 141l543 1198h161l535 -1215q68 -154 115 -176v-51h-390v51q52 22 52 68q0 36 -23 90l-86 207h-631l-88 -208q-22 -52 -22 -93.5t49 -63.5v-51h-334zM436 596h473l-231 549zM463 1736.5q0 98.5 68 167t166 68.5t166.5 -68.5t68.5 -167 t-68 -166t-167 -67.5t-166.5 67.5t-67.5 166zM571 1736.5q0 -51.5 37.5 -88t89.5 -36.5t87.5 36t35.5 88.5t-35.5 89t-87 36.5t-89.5 -37t-38 -88.5z" />
<glyph unicode="&#xc6;" horiz-adv-x="1896" d="M-84 0v51q44 26 127 193l526 1044q23 46 23 70.5t-12 35t-58 23.5v53h1200l97 -237l-64 -21q-39 43 -87.5 60.5t-164.5 17.5h-432v-403h399q125 0 161 18.5t46 67.5h52v-352h-52q-11 48 -48 67t-159 19h-399v-527h483q92 0 139.5 18t82.5 62l51 -24l-98 -236h-975v51 q40 14 55.5 39t15.5 92v242h-493l-103 -216q-24 -48 -24 -91.5t51 -65.5v-51h-340zM420 604h405v686h-67z" />
<glyph unicode="&#xc7;" horiz-adv-x="1526" d="M70 723.5q0 333.5 206 551.5t506 218q156 0 332 -59q52 -17 66 -17q27 0 51 29l41 -8l67 -351l-63 -22q-124 266 -465 266q-233 0 -369.5 -150.5t-136.5 -413t155.5 -435t393.5 -172.5q328 0 541 346l104 -111q-258 -420 -706 -420q-326 0 -524.5 207.5t-198.5 541z M514 -373l39 84q142 -71 238.5 -71t96.5 81q0 89 -108 89q-37 0 -55 -9v199h69v-112q37 3 95 4.5t106.5 -45.5t48.5 -127t-58.5 -128.5t-143.5 -48.5q-152 0 -328 84z" />
<glyph unicode="&#xc8;" horiz-adv-x="1290" d="M104 0v51q41 14 56.5 39t15.5 92v1106q0 66 -15.5 90.5t-56.5 38.5v53h1010l96 -237l-63 -21q-40 43 -88 60.5t-164 17.5h-473v-403h442q124 0 159 18.5t46 67.5h51v-352h-51q-11 48 -47.5 67t-157.5 19h-442v-527h524q92 0 139.5 18t81.5 62l52 -24l-99 -236h-1016z M342 1881.5q0 36.5 25 61.5t73.5 25t126.5 -82l273 -283h-91l-313 166q-56 30 -75 53t-19 59.5z" />
<glyph unicode="&#xc9;" horiz-adv-x="1290" d="M104 0v51q41 14 56.5 39t15.5 92v1106q0 66 -15.5 90.5t-56.5 38.5v53h1010l96 -237l-63 -21q-40 43 -88 60.5t-164 17.5h-473v-403h442q124 0 159 18.5t46 67.5h51v-352h-51q-11 48 -47.5 67t-157.5 19h-442v-527h524q92 0 139.5 18t81.5 62l52 -24l-99 -236h-1016z M450 1603l273 283q78 82 126.5 82t73.5 -25t25 -61t-18.5 -58.5t-75.5 -54.5l-313 -166h-91z" />
<glyph unicode="&#xca;" horiz-adv-x="1290" d="M104 0v51q41 14 56.5 39t15.5 92v1106q0 66 -15.5 90.5t-56.5 38.5v53h1010l96 -237l-63 -21q-40 43 -88 60.5t-164 17.5h-473v-403h442q124 0 159 18.5t46 67.5h51v-352h-51q-11 48 -47.5 67t-157.5 19h-442v-527h524q92 0 139.5 18t81.5 62l52 -24l-99 -236h-1016z M346 1603l225 350h148l225 -350h-84l-215 180l-215 -180h-84z" />
<glyph unicode="&#xcb;" horiz-adv-x="1290" d="M104 0v51q41 14 56.5 39t15.5 92v1106q0 66 -15.5 90.5t-56.5 38.5v53h1010l96 -237l-63 -21q-40 43 -88 60.5t-164 17.5h-473v-403h442q124 0 159 18.5t46 67.5h51v-352h-51q-11 48 -47.5 67t-157.5 19h-442v-527h524q92 0 139.5 18t81.5 62l52 -24l-99 -236h-1016z M358 1652v230h205v-230h-205zM725 1652v230h205v-230h-205z" />
<glyph unicode="&#xcc;" horiz-adv-x="616" d="M6 1881.5q0 36.5 25 61.5t73.5 25t126.5 -82l273 -283h-91l-313 166q-56 30 -75 53t-19 59.5zM115 0v51q39 13 54 37.5t15 83.5v1126q0 59 -15 82.5t-54 36.5v53h387v-53q-40 -14 -55 -37.5t-15 -81.5v-1126q0 -59 15.5 -83.5t54.5 -37.5v-51h-387z" />
<glyph unicode="&#xcd;" horiz-adv-x="616" d="M114 1603l273 283q78 82 126.5 82t73.5 -25t25 -61t-18.5 -58.5t-75.5 -54.5l-313 -166h-91zM115 0v51q39 13 54 37.5t15 83.5v1126q0 59 -15 82.5t-54 36.5v53h387v-53q-40 -14 -55 -37.5t-15 -81.5v-1126q0 -59 15.5 -83.5t54.5 -37.5v-51h-387z" />
<glyph unicode="&#xce;" horiz-adv-x="616" d="M10 1603l225 350h148l225 -350h-84l-215 180l-215 -180h-84zM115 0v51q39 13 54 37.5t15 83.5v1126q0 59 -15 82.5t-54 36.5v53h387v-53q-40 -14 -55 -37.5t-15 -81.5v-1126q0 -59 15.5 -83.5t54.5 -37.5v-51h-387z" />
<glyph unicode="&#xcf;" horiz-adv-x="616" d="M22 1652v230h205v-230h-205zM115 0v51q39 13 54 37.5t15 83.5v1126q0 59 -15 82.5t-54 36.5v53h387v-53q-40 -14 -55 -37.5t-15 -81.5v-1126q0 -59 15.5 -83.5t54.5 -37.5v-51h-387zM389 1652v230h205v-230h-205z" />
<glyph unicode="&#xd0;" horiz-adv-x="1432" d="M0 758v143h195v397q0 57 -16 81.5t-56 37.5v53h463q274 0 436.5 -106t250 -272.5t87.5 -356.5q0 -333 -201 -534t-536 -201h-500v51q40 14 56 38.5t16 82.5v586h-195zM440 178h135q126 0 195 16q203 45 288 238q56 127 56 303q0 283 -136 420t-417 137h-121v-391h373 v-143h-373v-580z" />
<glyph unicode="&#xd1;" horiz-adv-x="1749" d="M104 0v51q40 13 55 37.5t15 83.5v1126q0 59 -15 82.5t-55 36.5v53h340l951 -997v825q0 59 -15.5 82.5t-54.5 36.5v53h332v-53q-41 -15 -56.5 -39t-15.5 -80v-1298h-61l-1159 1208v-1036q0 -58 15.5 -82.5t55.5 -38.5v-51h-332zM583 1634q34 248 211 248q39 0 64 -9 l108 -28q14 -4 39 -4q64 0 92 86h66q-34 -246 -213 -246q-25 0 -49 6l-105 27q-38 10 -57 10q-59 0 -90 -90h-66z" />
<glyph unicode="&#xd2;" horiz-adv-x="1716" d="M70 731q0 177 78.5 333t222.5 265q215 166 499 166q330 0 553.5 -221.5t223.5 -557.5q0 -170 -79.5 -325t-228.5 -262q-211 -154 -487 -154q-181 0 -335 68.5t-265 198.5q-182 209 -182 489zM291 768.5q0 -240.5 174 -414.5t419 -174t395.5 143t150.5 381.5t-176.5 412 t-422.5 173.5t-393 -140.5t-147 -381zM555 1881.5q0 36.5 25 61.5t73.5 25t126.5 -82l273 -283h-91l-313 166q-56 30 -75 53t-19 59.5z" />
<glyph unicode="&#xd3;" horiz-adv-x="1716" d="M70 731q0 177 78.5 333t222.5 265q215 166 499 166q330 0 553.5 -221.5t223.5 -557.5q0 -170 -79.5 -325t-228.5 -262q-211 -154 -487 -154q-181 0 -335 68.5t-265 198.5q-182 209 -182 489zM291 768.5q0 -240.5 174 -414.5t419 -174t395.5 143t150.5 381.5t-176.5 412 t-422.5 173.5t-393 -140.5t-147 -381zM663 1603l273 283q78 82 126.5 82t73.5 -25t25 -61t-18.5 -58.5t-75.5 -54.5l-313 -166h-91z" />
<glyph unicode="&#xd4;" horiz-adv-x="1716" d="M70 731q0 177 78.5 333t222.5 265q215 166 499 166q330 0 553.5 -221.5t223.5 -557.5q0 -170 -79.5 -325t-228.5 -262q-211 -154 -487 -154q-181 0 -335 68.5t-265 198.5q-182 209 -182 489zM291 768.5q0 -240.5 174 -414.5t419 -174t395.5 143t150.5 381.5t-176.5 412 t-422.5 173.5t-393 -140.5t-147 -381zM559 1603l225 350h148l225 -350h-84l-215 180l-215 -180h-84z" />
<glyph unicode="&#xd5;" horiz-adv-x="1716" d="M70 731q0 177 78.5 333t222.5 265q215 166 499 166q330 0 553.5 -221.5t223.5 -557.5q0 -170 -79.5 -325t-228.5 -262q-211 -154 -487 -154q-181 0 -335 68.5t-265 198.5q-182 209 -182 489zM291 768.5q0 -240.5 174 -414.5t419 -174t395.5 143t150.5 381.5t-176.5 412 t-422.5 173.5t-393 -140.5t-147 -381zM567 1634q34 248 211 248q39 0 64 -9l108 -28q14 -4 39 -4q64 0 92 86h66q-34 -246 -213 -246q-25 0 -49 6l-105 27q-38 10 -57 10q-59 0 -90 -90h-66z" />
<glyph unicode="&#xd6;" horiz-adv-x="1716" d="M70 731q0 177 78.5 333t222.5 265q215 166 499 166q330 0 553.5 -221.5t223.5 -557.5q0 -170 -79.5 -325t-228.5 -262q-211 -154 -487 -154q-181 0 -335 68.5t-265 198.5q-182 209 -182 489zM291 768.5q0 -240.5 174 -414.5t419 -174t395.5 143t150.5 381.5t-176.5 412 t-422.5 173.5t-393 -140.5t-147 -381zM571 1652v230h205v-230h-205zM938 1652v230h205v-230h-205z" />
<glyph unicode="&#xd7;" horiz-adv-x="1706" d="M293 141l469 469l-469 469l98 99l469 -469l469 469l98 -99l-469 -469l469 -469l-98 -96l-469 467l-469 -467z" />
<glyph unicode="&#xd8;" horiz-adv-x="1716" d="M70 727.5q0 181.5 77 337t222 264.5q215 166 497 166q191 0 351 -76l124 193h168l-172 -269q310 -242 310 -610q0 -187 -79.5 -344t-228.5 -262q-211 -152 -521 -152q-166 0 -320 78l-138 -211h-165l182 285q-148 107 -227.5 263t-79.5 337.5zM291 774q0 -266 209 -461 l598 922q-130 63 -271 63q-243 0 -389.5 -143.5t-146.5 -380.5zM618 236q130 -66 271 -66q240 0 390.5 145t150.5 375q0 139 -57.5 263.5t-158.5 203.5z" />
<glyph unicode="&#xd9;" horiz-adv-x="1565" d="M94 1417v53h389v-53q-41 -15 -56 -39t-15 -80v-602q0 -269 99 -401.5t300.5 -132.5t293 115.5t91.5 371.5v649q0 59 -15 82.5t-55 36.5v53h347v-53q-41 -15 -56.5 -39t-15.5 -80v-647q0 -169 -16 -251q-47 -237 -267 -352q-142 -73 -318.5 -73t-314.5 70t-221 197 q-52 81 -75 178.5t-23 245.5v632q0 57 -15.5 81.5t-56.5 37.5zM479 1881.5q0 36.5 25 61.5t73.5 25t126.5 -82l273 -283h-91l-313 166q-56 30 -75 53t-19 59.5z" />
<glyph unicode="&#xda;" horiz-adv-x="1565" d="M94 1417v53h389v-53q-41 -15 -56 -39t-15 -80v-602q0 -269 99 -401.5t300.5 -132.5t293 115.5t91.5 371.5v649q0 59 -15 82.5t-55 36.5v53h347v-53q-41 -15 -56.5 -39t-15.5 -80v-647q0 -169 -16 -251q-47 -237 -267 -352q-142 -73 -318.5 -73t-314.5 70t-221 197 q-52 81 -75 178.5t-23 245.5v632q0 57 -15.5 81.5t-56.5 37.5zM587 1603l273 283q78 82 126.5 82t73.5 -25t25 -61t-18.5 -58.5t-75.5 -54.5l-313 -166h-91z" />
<glyph unicode="&#xdb;" horiz-adv-x="1565" d="M94 1417v53h389v-53q-41 -15 -56 -39t-15 -80v-602q0 -269 99 -401.5t300.5 -132.5t293 115.5t91.5 371.5v649q0 59 -15 82.5t-55 36.5v53h347v-53q-41 -15 -56.5 -39t-15.5 -80v-647q0 -169 -16 -251q-47 -237 -267 -352q-142 -73 -318.5 -73t-314.5 70t-221 197 q-52 81 -75 178.5t-23 245.5v632q0 57 -15.5 81.5t-56.5 37.5zM483 1603l225 350h148l225 -350h-84l-215 180l-215 -180h-84z" />
<glyph unicode="&#xdc;" horiz-adv-x="1565" d="M94 1417v53h389v-53q-41 -15 -56 -39t-15 -80v-602q0 -269 99 -401.5t300.5 -132.5t293 115.5t91.5 371.5v649q0 59 -15 82.5t-55 36.5v53h347v-53q-41 -15 -56.5 -39t-15.5 -80v-647q0 -169 -16 -251q-47 -237 -267 -352q-142 -73 -318.5 -73t-314.5 70t-221 197 q-52 81 -75 178.5t-23 245.5v632q0 57 -15.5 81.5t-56.5 37.5zM495 1652v230h205v-230h-205zM862 1652v230h205v-230h-205z" />
<glyph unicode="&#xdd;" horiz-adv-x="1309" d="M-63 1417v53h389l-1 -53q-30 -17 -30 -34q0 -27 22 -60l353 -498l350 475q43 58 43 80t-39 37v53h348v-53q-36 -13 -143 -151l-449 -594v-500q0 -58 16 -82.5t56 -38.5v-51h-389v51q39 13 54 37.5t15 83.5v467l-475 645q-66 98 -120 133zM460 1603l273 283 q78 82 126.5 82t73.5 -25t25 -61t-18.5 -58.5t-75.5 -54.5l-313 -166h-91z" />
<glyph unicode="&#xde;" horiz-adv-x="1139" d="M104 0v51q40 14 56 38.5t16 82.5v1126q0 57 -15.5 81.5t-56.5 37.5v53h390v-53q-41 -15 -56.5 -39t-15.5 -80v-129h102q160 0 247.5 -16.5t162.5 -62.5t122.5 -131.5t47.5 -188.5q0 -195 -136.5 -308.5t-373.5 -113.5q-50 0 -96 2v174h39q168 0 248.5 55t80.5 177 t-80.5 177.5t-287.5 55.5h-76v-817q0 -58 16 -82.5t56 -38.5v-51h-390z" />
<glyph unicode="&#xdf;" horiz-adv-x="1075" d="M66 0v51q40 15 55.5 38.5t15.5 82.5v805q0 225 118 359t314 134q150 0 250.5 -83t100.5 -201q0 -57 -28 -110q-38 -69 -117 -137.5t-79 -107.5q0 -44 137 -193q207 -226 207 -357.5t-95 -218.5t-236 -87q-198 0 -322 142l135 184l58 -29q-15 -53 -15 -73 q0 -48 37.5 -79.5t102 -31.5t105 37.5t40.5 96t-30 112t-88 115.5t-94 100q-128 132 -128 203q0 72 107.5 197t107.5 215t-51 144t-145.5 54t-140.5 -72t-46 -246v-1044h-276z" />
<glyph unicode="&#xe0;" horiz-adv-x="977" d="M55 205q0 182 483 310l13 3l-6 39q-19 123 -47.5 152.5t-94 29.5t-104.5 -42t-39 -117l4 -29l-45 -23l-115 140q100 110 185.5 159.5t177.5 49.5q231 0 295 -403l6 -36l1 -7q53 -320 128 -320q36 0 61 43l54 -31q-57 -148 -195 -148q-102 0 -164 107 q-187 -107 -318.5 -107t-205.5 63.5t-74 166.5zM146 1265.5q0 36.5 25 61.5t73.5 25t126.5 -82l273 -283h-91l-313 166q-56 30 -75 53t-19 59.5zM256 227q0 -49 33 -75.5t91 -26.5q121 0 232 66q-16 69 -41 208q-44 -15 -119 -38q-196 -61 -196 -134z" />
<glyph unicode="&#xe1;" horiz-adv-x="977" d="M55 205q0 182 483 310l13 3l-6 39q-19 123 -47.5 152.5t-94 29.5t-104.5 -42t-39 -117l4 -29l-45 -23l-115 140q100 110 185.5 159.5t177.5 49.5q231 0 295 -403l6 -36l1 -7q53 -320 128 -320q36 0 61 43l54 -31q-57 -148 -195 -148q-102 0 -164 107 q-187 -107 -318.5 -107t-205.5 63.5t-74 166.5zM254 987l273 283q78 82 126.5 82t73.5 -25t25 -61t-18.5 -58.5t-75.5 -54.5l-313 -166h-91zM256 227q0 -49 33 -75.5t91 -26.5q121 0 232 66q-16 69 -41 208q-44 -15 -119 -38q-196 -61 -196 -134z" />
<glyph unicode="&#xe2;" horiz-adv-x="977" d="M55 205q0 182 483 310l13 3l-6 39q-19 123 -47.5 152.5t-94 29.5t-104.5 -42t-39 -117l4 -29l-45 -23l-115 140q100 110 185.5 159.5t177.5 49.5q231 0 295 -403l6 -36l1 -7q53 -320 128 -320q36 0 61 43l54 -31q-57 -148 -195 -148q-102 0 -164 107 q-187 -107 -318.5 -107t-205.5 63.5t-74 166.5zM150 987l225 350h148l225 -350h-84l-215 180l-215 -180h-84zM256 227q0 -49 33 -75.5t91 -26.5q121 0 232 66q-16 69 -41 208q-44 -15 -119 -38q-196 -61 -196 -134z" />
<glyph unicode="&#xe3;" horiz-adv-x="977" d="M55 205q0 182 483 310l13 3l-6 39q-19 123 -47.5 152.5t-94 29.5t-104.5 -42t-39 -117l4 -29l-45 -23l-115 140q100 110 185.5 159.5t177.5 49.5q231 0 295 -403l6 -36l1 -7q53 -320 128 -320q36 0 61 43l54 -31q-57 -148 -195 -148q-102 0 -164 107 q-187 -107 -318.5 -107t-205.5 63.5t-74 166.5zM158 1018q34 248 211 248q39 0 64 -9l108 -28q14 -4 39 -4q64 0 92 86h66q-34 -246 -213 -246q-25 0 -49 6l-105 27q-38 10 -57 10q-59 0 -90 -90h-66zM256 227q0 -49 33 -75.5t91 -26.5q121 0 232 66q-16 69 -41 208 q-44 -15 -119 -38q-196 -61 -196 -134z" />
<glyph unicode="&#xe4;" horiz-adv-x="977" d="M55 205q0 182 483 310l13 3l-6 39q-19 123 -47.5 152.5t-94 29.5t-104.5 -42t-39 -117l4 -29l-45 -23l-115 140q100 110 185.5 159.5t177.5 49.5q231 0 295 -403l6 -36l1 -7q53 -320 128 -320q36 0 61 43l54 -31q-57 -148 -195 -148q-102 0 -164 107 q-187 -107 -318.5 -107t-205.5 63.5t-74 166.5zM162 1036v230h205v-230h-205zM256 227q0 -49 33 -75.5t91 -26.5q121 0 232 66q-16 69 -41 208q-44 -15 -119 -38q-196 -61 -196 -134zM529 1036v230h205v-230h-205z" />
<glyph unicode="&#xe5;" horiz-adv-x="977" d="M55 205q0 182 483 310l13 3l-6 39q-19 123 -47.5 152.5t-94 29.5t-104.5 -42t-39 -117l4 -29l-45 -23l-115 140q100 110 185.5 159.5t177.5 49.5q231 0 295 -403l6 -36l1 -7q53 -320 128 -320q36 0 61 43l54 -31q-57 -148 -195 -148q-102 0 -164 107 q-187 -107 -318.5 -107t-205.5 63.5t-74 166.5zM209 1200.5q0 105.5 73.5 178.5t180 73t179.5 -73t73 -179t-73 -179t-179.5 -73t-180 73.5t-73.5 179zM256 227q0 -49 33 -75.5t91 -26.5q121 0 232 66q-16 69 -41 208q-44 -15 -119 -38q-196 -61 -196 -134zM328 1199.5 q0 -56.5 39 -95.5t95.5 -39t95 39t38.5 95.5t-39 96t-94.5 39.5t-95 -39.5t-39.5 -96z" />
<glyph unicode="&#xe6;" horiz-adv-x="1421" d="M55 207.5q0 105.5 87 167.5t407 139l-4 43q-6 99 -38 140.5t-100.5 41.5t-107.5 -42t-39 -117l4 -29l-45 -23l-115 140q187 209 360.5 209t233.5 -144q109 144 303 144q147 0 254 -89t138 -237l-598 -225q70 -193 244.5 -193t273.5 160l67 -57q-136 -261 -397 -261 q-162 0 -287 125q-183 -125 -370 -125q-123 0 -197 63.5t-74 169zM256 227q0 -102 127 -102q117 0 244 72q-42 94 -58 200q-31 -9 -85 -25q-228 -68 -228 -145zM768 500q0 -25 2 -49l391 147q-14 67 -62.5 106t-130 39t-141 -67.5t-59.5 -175.5z" />
<glyph unicode="&#xe7;" horiz-adv-x="938" d="M61 423q0 190 137 322t334 132q180 0 338 -97l-88 -245l-55 12l2 26q0 85 -53.5 132t-160.5 47t-183 -80.5t-76 -213.5t93.5 -224t248.5 -91t264 115l72 -47q-71 -113 -179 -174.5t-235 -61.5q-195 0 -327 129t-132 319zM226 -373l39 84q142 -71 238.5 -71t96.5 81 q0 89 -108 89q-37 0 -55 -9v199h69v-112q37 3 95 4.5t106.5 -45.5t48.5 -127t-58.5 -128.5t-143.5 -48.5q-152 0 -328 84z" />
<glyph unicode="&#xe8;" horiz-adv-x="1006" d="M61 424q0 191 131.5 322t313.5 131t300.5 -80.5t156.5 -221.5l-674 -251q81 -199 280 -199t312 168l77 -57q-157 -261 -442 -261q-188 0 -321.5 129t-133.5 320zM213 1265.5q0 36.5 25 61.5t73.5 25t126.5 -82l273 -283h-91l-313 166q-56 30 -75 53t-19 59.5zM262 500 q0 -29 2 -51l449 167q-20 61 -73.5 95t-146.5 34t-162 -68.5t-69 -176.5z" />
<glyph unicode="&#xe9;" horiz-adv-x="1006" d="M61 424q0 191 131.5 322t313.5 131t300.5 -80.5t156.5 -221.5l-674 -251q81 -199 280 -199t312 168l77 -57q-157 -261 -442 -261q-188 0 -321.5 129t-133.5 320zM262 500q0 -29 2 -51l449 167q-20 61 -73.5 95t-146.5 34t-162 -68.5t-69 -176.5zM321 987l273 283 q78 82 126.5 82t73.5 -25t25 -61t-18.5 -58.5t-75.5 -54.5l-313 -166h-91z" />
<glyph unicode="&#xea;" horiz-adv-x="1006" d="M61 424q0 191 131.5 322t313.5 131t300.5 -80.5t156.5 -221.5l-674 -251q81 -199 280 -199t312 168l77 -57q-157 -261 -442 -261q-188 0 -321.5 129t-133.5 320zM217 987l225 350h148l225 -350h-84l-215 180l-215 -180h-84zM262 500q0 -29 2 -51l449 167q-20 61 -73.5 95 t-146.5 34t-162 -68.5t-69 -176.5z" />
<glyph unicode="&#xeb;" horiz-adv-x="1006" d="M61 424q0 191 131.5 322t313.5 131t300.5 -80.5t156.5 -221.5l-674 -251q81 -199 280 -199t312 168l77 -57q-157 -261 -442 -261q-188 0 -321.5 129t-133.5 320zM229 1036v230h205v-230h-205zM262 500q0 -29 2 -51l449 167q-20 61 -73.5 95t-146.5 34t-162 -68.5 t-69 -176.5zM596 1036v230h205v-230h-205z" />
<glyph unicode="&#xec;" horiz-adv-x="473" d="M-65 1265.5q0 36.5 25 61.5t73.5 25t126.5 -82l273 -283h-91l-313 166q-56 30 -75 53t-19 59.5zM66 0v51q40 15 55.5 38.5t15.5 82.5v440q0 41 -14 53.5t-57 18.5v51l215 142l61 -27v-678q0 -60 15 -83.5t55 -37.5v-51h-346z" />
<glyph unicode="&#xed;" horiz-adv-x="473" d="M43 987l273 283q78 82 126.5 82t73.5 -25t25 -61t-18.5 -58.5t-75.5 -54.5l-313 -166h-91zM66 0v51q40 15 55.5 38.5t15.5 82.5v440q0 41 -14 53.5t-57 18.5v51l215 142l61 -27v-678q0 -60 15 -83.5t55 -37.5v-51h-346z" />
<glyph unicode="&#xee;" horiz-adv-x="473" d="M-61 987l225 350h148l225 -350h-84l-215 180l-215 -180h-84zM66 0v51q40 15 55.5 38.5t15.5 82.5v440q0 41 -14 53.5t-57 18.5v51l215 142l61 -27v-678q0 -60 15 -83.5t55 -37.5v-51h-346z" />
<glyph unicode="&#xef;" horiz-adv-x="473" d="M-49 1036v230h205v-230h-205zM66 0v51q40 15 55.5 38.5t15.5 82.5v440q0 41 -14 53.5t-57 18.5v51l215 142l61 -27v-678q0 -60 15 -83.5t55 -37.5v-51h-346zM318 1036v230h205v-230h-205z" />
<glyph unicode="&#xf0;" horiz-adv-x="1071" d="M61 419.5q0 189.5 121 309t310 119.5q104 0 217 -45q-83 185 -191 313l-307 -180l-53 84l288 174q-122 131 -296 240l63 65q180 -67 369 -223l292 176l54 -88l-264 -160q346 -352 346 -729q0 -339 -281 -461q-91 -39 -184 -39q-210 0 -347 127.5t-137 317zM252 504 q0 -140 111 -258.5t243 -118.5q100 0 159.5 64.5t59.5 173.5q0 145 -99.5 254.5t-224 109.5t-187 -58.5t-62.5 -166.5z" />
<glyph unicode="&#xf1;" horiz-adv-x="1090" d="M66 0v51q40 15 55.5 38.5t15.5 82.5v440q0 41 -14 53.5t-57 18.5v51l215 142l61 -27v-70q196 97 288 97q174 0 277 -134q56 -73 56 -159v-412q0 -59 15.5 -82.5t55.5 -38.5v-51h-346v51q40 14 55 37.5t15 83.5v416q0 72 -51.5 111.5t-143.5 39.5t-221 -59v-508 q0 -60 15 -83.5t55 -37.5v-51h-346zM254 1018q34 248 211 248q39 0 64 -9l108 -28q14 -4 39 -4q64 0 92 86h66q-34 -246 -213 -246q-25 0 -49 6l-105 27q-38 10 -57 10q-59 0 -90 -90h-66z" />
<glyph unicode="&#xf2;" horiz-adv-x="1071" d="M61 421q0 193 135 324.5t335 131.5t339.5 -134.5t139.5 -320t-138 -316.5t-337.5 -131t-336.5 126.5t-137 319.5zM234 1265.5q0 36.5 25 61.5t73.5 25t126.5 -82l273 -283h-91l-313 166q-56 30 -75 53t-19 59.5zM252 504q0 -139 112 -258t244 -119q96 0 153.5 60.5 t57.5 162.5q0 139 -111.5 257t-244.5 118q-97 0 -154 -59.5t-57 -161.5z" />
<glyph unicode="&#xf3;" horiz-adv-x="1071" d="M61 421q0 193 135 324.5t335 131.5t339.5 -134.5t139.5 -320t-138 -316.5t-337.5 -131t-336.5 126.5t-137 319.5zM252 504q0 -139 112 -258t244 -119q96 0 153.5 60.5t57.5 162.5q0 139 -111.5 257t-244.5 118q-97 0 -154 -59.5t-57 -161.5zM342 987l273 283 q78 82 126.5 82t73.5 -25t25 -61t-18.5 -58.5t-75.5 -54.5l-313 -166h-91z" />
<glyph unicode="&#xf4;" horiz-adv-x="1071" d="M61 421q0 193 135 324.5t335 131.5t339.5 -134.5t139.5 -320t-138 -316.5t-337.5 -131t-336.5 126.5t-137 319.5zM238 987l225 350h148l225 -350h-84l-215 180l-215 -180h-84zM252 504q0 -139 112 -258t244 -119q96 0 153.5 60.5t57.5 162.5q0 139 -111.5 257t-244.5 118 q-97 0 -154 -59.5t-57 -161.5z" />
<glyph unicode="&#xf5;" horiz-adv-x="1071" d="M61 421q0 193 135 324.5t335 131.5t339.5 -134.5t139.5 -320t-138 -316.5t-337.5 -131t-336.5 126.5t-137 319.5zM246 1018q34 248 211 248q39 0 64 -9l108 -28q14 -4 39 -4q64 0 92 86h66q-34 -246 -213 -246q-25 0 -49 6l-105 27q-38 10 -57 10q-59 0 -90 -90h-66z M252 504q0 -139 112 -258t244 -119q96 0 153.5 60.5t57.5 162.5q0 139 -111.5 257t-244.5 118q-97 0 -154 -59.5t-57 -161.5z" />
<glyph unicode="&#xf6;" horiz-adv-x="1071" d="M61 421q0 193 135 324.5t335 131.5t339.5 -134.5t139.5 -320t-138 -316.5t-337.5 -131t-336.5 126.5t-137 319.5zM250 1036v230h205v-230h-205zM252 504q0 -139 112 -258t244 -119q96 0 153.5 60.5t57.5 162.5q0 139 -111.5 257t-244.5 118q-97 0 -154 -59.5t-57 -161.5z M617 1036v230h205v-230h-205z" />
<glyph unicode="&#xf7;" horiz-adv-x="1706" d="M254 541v139h1198v-139h-1198zM729 241q0 52 37 89t88 37t88 -37t37 -88.5t-36.5 -88t-89 -36.5t-88.5 36t-36 88zM729 979q0 52 37 89.5t88 37.5t88 -37.5t37 -89t-36.5 -88.5t-88.5 -37t-88.5 36.5t-36.5 88.5z" />
<glyph unicode="&#xf8;" horiz-adv-x="1071" d="M61 409.5q0 205.5 134.5 336.5t334.5 131q96 0 201 -41l103 159h139l-142 -219q179 -145 179 -360q0 -183 -140 -312t-344 -129q-94 0 -190 39l-109 -166h-137l146 224q-175 132 -175 337.5zM252 522q0 -155 102 -266l271 418q-86 51 -172.5 51t-143.5 -60t-57 -143z M440 180q88 -53 176.5 -53t145.5 60t57 143q0 148 -104 266z" />
<glyph unicode="&#xf9;" horiz-adv-x="1090" d="M57 685v50l213 142l62 -27v-498q0 -112 54 -171.5t146 -59.5t218 63v498q0 58 -15.5 81t-56.5 38v53h274v-592q0 -56 15 -75t57 -22v-50l-219 -140h-55v105q-143 -103 -277.5 -103t-240 103.5t-105.5 236.5v295q0 42 -14.5 54.5t-55.5 18.5zM242 1265.5q0 36.5 25 61.5 t73.5 25t126.5 -82l273 -283h-91l-313 166q-56 30 -75 53t-19 59.5z" />
<glyph unicode="&#xfa;" horiz-adv-x="1090" d="M57 685v50l213 142l62 -27v-498q0 -112 54 -171.5t146 -59.5t218 63v498q0 58 -15.5 81t-56.5 38v53h274v-592q0 -56 15 -75t57 -22v-50l-219 -140h-55v105q-143 -103 -277.5 -103t-240 103.5t-105.5 236.5v295q0 42 -14.5 54.5t-55.5 18.5zM350 987l273 283 q78 82 126.5 82t73.5 -25t25 -61t-18.5 -58.5t-75.5 -54.5l-313 -166h-91z" />
<glyph unicode="&#xfb;" horiz-adv-x="1090" d="M57 685v50l213 142l62 -27v-498q0 -112 54 -171.5t146 -59.5t218 63v498q0 58 -15.5 81t-56.5 38v53h274v-592q0 -56 15 -75t57 -22v-50l-219 -140h-55v105q-143 -103 -277.5 -103t-240 103.5t-105.5 236.5v295q0 42 -14.5 54.5t-55.5 18.5zM246 987l225 350h148 l225 -350h-84l-215 180l-215 -180h-84z" />
<glyph unicode="&#xfc;" horiz-adv-x="1090" d="M57 685v50l213 142l62 -27v-498q0 -112 54 -171.5t146 -59.5t218 63v498q0 58 -15.5 81t-56.5 38v53h274v-592q0 -56 15 -75t57 -22v-50l-219 -140h-55v105q-143 -103 -277.5 -103t-240 103.5t-105.5 236.5v295q0 42 -14.5 54.5t-55.5 18.5zM258 1036v230h205v-230h-205z M625 1036v230h205v-230h-205z" />
<glyph unicode="&#xfd;" horiz-adv-x="909" d="M-20 -313q94 17 190 117.5t207 297.5l-381 711v41h313v-53q-47 -15 -47 -49q0 -13 10 -35l211 -428l211 427q8 14 8 36q0 34 -45 49v53h258v-53l-337 -641q-186 -352 -353 -525h-245v52zM260 987l273 283q78 82 126.5 82t73.5 -25t25 -61t-18.5 -58.5t-75.5 -54.5 l-313 -166h-91z" />
<glyph unicode="&#xfe;" horiz-adv-x="1090" d="M57 -313q43 10 59.5 34.5t16.5 85.5v1377q0 57 -16 76.5t-60 19.5v51l224 139h55v-700q141 107 268 107q178 0 301 -132t123 -324t-127.5 -319t-320.5 -127q-142 0 -244 72v-240q0 -60 17 -84t63 -36v-52h-359v52zM336 289q39 -84 111.5 -132t168.5 -48t160 68t64 202.5 t-87.5 236t-209 101.5t-207.5 -76v-352z" />
<glyph unicode="&#xff;" horiz-adv-x="909" d="M-20 -313q94 17 190 117.5t207 297.5l-381 711v41h313v-53q-47 -15 -47 -49q0 -13 10 -35l211 -428l211 427q8 14 8 36q0 34 -45 49v53h258v-53l-337 -641q-186 -352 -353 -525h-245v52zM168 1036v230h205v-230h-205zM535 1036v230h205v-230h-205z" />
<glyph unicode="&#x152;" horiz-adv-x="2087" d="M72 729q0 178 73 336q129 279 415 377q117 41 241 41l416 -13h751l96 -237l-63 -21q-40 43 -88 60.5t-164 17.5h-440v-403h407q125 0 160.5 18.5t46.5 67.5h51v-352h-51q-11 48 -48 67t-159 19h-407v-527h491q92 0 139.5 18t81.5 62l52 -24l-99 -236h-760 q-103 0 -242.5 -8t-176.5 -8q-286 0 -486 188q-237 223 -237 557zM297 758q0 -253 156.5 -423.5t396.5 -170.5q120 0 165.5 31t45.5 112l2 66v735q0 125 -50.5 160t-189.5 35q-241 0 -383.5 -146t-142.5 -399z" />
<glyph unicode="&#x153;" horiz-adv-x="1640" d="M61 421q0 193 127.5 324.5t320.5 131.5t341 -179q132 179 348 179q146 0 257 -83t144 -219l-628 -249q73 -193 257.5 -193t295.5 160l71 -57q-146 -261 -415 -261q-197 0 -332 160q-62 -76 -149.5 -118t-182.5 -42q-198 0 -326.5 126.5t-128.5 319.5zM252 510 q0 -146 101 -264.5t222 -118.5q89 0 141 60t52 163q0 140 -102.5 257.5t-223.5 117.5q-85 0 -137.5 -59t-52.5 -156zM944 502q0 -8 2 -27.5t2 -23.5l414 163q-20 62 -69.5 95.5t-134.5 33.5t-149.5 -67.5t-64.5 -173.5z" />
<glyph unicode="&#x178;" horiz-adv-x="1309" d="M-63 1417v53h389l-1 -53q-30 -17 -30 -34q0 -27 22 -60l353 -498l350 475q43 58 43 80t-39 37v53h348v-53q-36 -13 -143 -151l-449 -594v-500q0 -58 16 -82.5t56 -38.5v-51h-389v51q39 13 54 37.5t15 83.5v467l-475 645q-66 98 -120 133zM368 1652v230h205v-230h-205z M735 1652v230h205v-230h-205z" />
<glyph unicode="&#x2c6;" horiz-adv-x="1024" d="M213 987l225 350h148l225 -350h-84l-215 180l-215 -180h-84z" />
<glyph unicode="&#x2dc;" horiz-adv-x="1024" d="M221 1018q34 248 211 248q39 0 64 -9l108 -28q14 -4 39 -4q64 0 92 86h66q-34 -246 -213 -246q-25 0 -49 6l-105 27q-38 10 -57 10q-59 0 -90 -90h-66z" />
<glyph unicode="&#x2000;" horiz-adv-x="986" />
<glyph unicode="&#x2001;" horiz-adv-x="1972" />
<glyph unicode="&#x2002;" horiz-adv-x="986" />
<glyph unicode="&#x2003;" horiz-adv-x="1972" />
<glyph unicode="&#x2004;" horiz-adv-x="657" />
<glyph unicode="&#x2005;" horiz-adv-x="493" />
<glyph unicode="&#x2006;" horiz-adv-x="328" />
<glyph unicode="&#x2007;" horiz-adv-x="328" />
<glyph unicode="&#x2008;" horiz-adv-x="246" />
<glyph unicode="&#x2009;" horiz-adv-x="394" />
<glyph unicode="&#x200a;" horiz-adv-x="109" />
<glyph unicode="&#x2010;" horiz-adv-x="635" d="M72 236v165l491 240v-166z" />
<glyph unicode="&#x2011;" horiz-adv-x="635" d="M72 236v165l491 240v-166z" />
<glyph unicode="&#x2012;" horiz-adv-x="635" d="M72 236v165l491 240v-166z" />
<glyph unicode="&#x2013;" horiz-adv-x="1024" d="M-14 377v123h1052v-123h-1052z" />
<glyph unicode="&#x2014;" horiz-adv-x="2048" d="M-14 377v123h2076v-123h-2076z" />
<glyph unicode="&#x2018;" horiz-adv-x="483" d="M80 1143l297 350l63 -35l-159 -211l86 -76l-136 -161z" />
<glyph unicode="&#x2019;" horiz-adv-x="483" d="M43 1044l160 211l-86 76l135 162l151 -133l-297 -350z" />
<glyph unicode="&#x201a;" horiz-adv-x="483" d="M18 -184l160 213l-84 75l133 162l152 -133l-297 -350z" />
<glyph unicode="&#x201c;" horiz-adv-x="840" d="M80 1143l297 350l63 -35l-159 -211l86 -76l-136 -161zM434 1143l299 350l62 -35l-158 -211l84 -76l-133 -161z" />
<glyph unicode="&#x201d;" horiz-adv-x="840" d="M43 1044l160 211l-86 76l135 162l151 -133l-297 -350zM399 1044l160 211l-86 76l135 162l152 -133l-299 -350z" />
<glyph unicode="&#x201e;" horiz-adv-x="840" d="M18 -184l160 213l-84 75l133 162l152 -133l-297 -350zM375 -184l160 213l-86 75l135 162l151 -133l-297 -350z" />
<glyph unicode="&#x2022;" horiz-adv-x="1208" d="M307 762q0 123 87 209t209.5 86t209 -86.5t86.5 -208.5t-87.5 -209.5t-210 -87.5t-208.5 87t-86 210z" />
<glyph unicode="&#x2026;" horiz-adv-x="2048" d="M196 125l148 141l139 -149l-150 -142zM878 125l148 141l139 -149l-150 -142zM1562 125l148 141l139 -149l-150 -142z" />
<glyph unicode="&#x202f;" horiz-adv-x="394" />
<glyph unicode="&#x2039;" horiz-adv-x="559" d="M61 428l246 317h205l-246 -317l246 -317h-205z" />
<glyph unicode="&#x203a;" horiz-adv-x="559" d="M47 111l248 317l-248 317h205l246 -317l-246 -317h-205z" />
<glyph unicode="&#x205f;" horiz-adv-x="493" />
<glyph unicode="&#x20ac;" d="M18 838l25 104h111q47 246 187.5 398.5t317.5 152.5q132 0 259 -66q19 -10 22 -10q22 2 37 29l35 -8l51 -355l-55 -18q-93 266 -306 266q-133 0 -222 -101t-118 -288h498l-24 -104h-480v-66q0 -68 3 -94h440l-25 -105h-405q30 -188 123.5 -300.5t214.5 -112.5 q197 0 319 315l88 -80q-152 -420 -489 -420q-190 0 -319.5 160t-162.5 438h-120l24 105h88v55q0 67 4 105h-121z" />
<glyph unicode="&#x2122;" horiz-adv-x="1683" d="M240 1260l10 182h444l11 -182h-27q-8 78 -40.5 114.5t-94.5 36.5h-17v-424q0 -49 41 -53l33 -2v-29h-254v29l31 2q43 4 43 53v424h-17q-64 0 -96.5 -36t-40.5 -115h-26zM780 903v29l34 2q42 4 42 53v371q0 49 -42 53l-34 4v27h191l137 -391l143 391h181v-25l-30 -2 q-42 -4 -42 -53v-375q0 -49 42 -53l30 -2v-29h-240v29l31 2q43 4 43 53v387l-172 -473h-21l-172 475v-389q0 -49 43 -53l33 -2v-29h-197z" />
<glyph unicode="&#xe000;" horiz-adv-x="855" d="M0 0v855h855v-855h-855z" />
</font>
</defs>
</svg>
