<?xml version="1.0" standalone="no"?>
<!DOCTYPE svg PUBLIC "-//W3C//DTD SVG 1.1//EN" "http://www.w3.org/Graphics/SVG/1.1/DTD/svg11.dtd" >
<svg xmlns="http://www.w3.org/2000/svg">
<metadata></metadata>
<defs>
<font id="eternaregular" horiz-adv-x="1124" >
<font-face units-per-em="2048" ascent="1638" descent="-410" />
<missing-glyph horiz-adv-x="544" />
<glyph horiz-adv-x="2048" />
<glyph horiz-adv-x="2048" />
<glyph unicode="&#xd;" horiz-adv-x="544" />
<glyph unicode=" "  horiz-adv-x="544" />
<glyph unicode="&#x09;" horiz-adv-x="544" />
<glyph unicode="&#xa0;" horiz-adv-x="544" />
<glyph unicode="!" horiz-adv-x="671" d="M219 88q0 49 33 84t80 35q49 0 84 -31t35 -80q0 -45 -32 -78.5t-77 -33.5q-49 0 -86 30.5t-37 73.5zM231 1313q0 53 21.5 80.5t75.5 27.5q45 0 65 -16q35 -27 35 -109q0 -27 -2 -41l-72 -915h-41l-77 915q-2 14 -3.5 31t-1.5 27z" />
<glyph unicode="&#x22;" horiz-adv-x="567" d="M94 1432h101l2 -551h-101zM367 1432h98l2 -551h-98z" />
<glyph unicode="#" horiz-adv-x="1576" d="M117 479l37 109h321l103 274h-355l35 111h358l170 481h121l-164 -481h265l170 481h129l-166 -481h313l-39 -111h-313l-103 -274h340l-32 -109h-340l-166 -479h-133l170 479h-269l-170 -479h-123l166 479h-325zM608 588h269l98 274h-268z" />
<glyph unicode="$" d="M152 96q4 8 24.5 61.5t30.5 98.5q76 -92 117 -123q80 -57 192 -57l-4 557q-205 51 -293 151q-68 76 -67 193q0 139 91 229t261 119l-6 152h88q0 -31 -1 -61t-1 -60v-23q82 0 147.5 -17.5t155.5 -70.5l-13 -20l-63 -107q-31 68 -83 102.5t-144 47.5v-494q209 -53 298 -136 t89 -226q0 -160 -98.5 -266.5t-276.5 -141.5q0 -53 1 -105.5t3 -103.5h-92q0 41 4 100.5t4 104.5h-33q-82 0 -159.5 23.5t-171.5 72.5zM285 1036q0 -82 39 -131q51 -67 188 -108l-2 467q-104 -10 -164.5 -72t-60.5 -156zM586 616l2 -536q109 23 171 95.5t62 182.5 q0 92 -43 146q-51 63 -192 112z" />
<glyph unicode="%" horiz-adv-x="1576" d="M68 993q0 145 90 239.5t229 94.5q133 0 215 -88t82 -235q0 -145 -90 -241.5t-225 -96.5q-133 0 -217 90t-84 237zM215 1008q0 -283 158 -283q63 0 104 49q60 69 60 223q0 274 -158 275q-164 0 -164 -264zM264 -188l955 1708h92l-951 -1708h-96zM883 326q0 145 90 239 t229 94q131 0 213 -88t82 -231q0 -150 -88 -246t-223 -96q-133 0 -218 91t-85 237zM1036 336q0 -133 41 -207t115 -74q47 0 89 32t59.5 86t17.5 146q0 281 -158 281q-164 0 -164 -264z" />
<glyph unicode="&#x26;" horiz-adv-x="1456" d="M139 322q0 137 81 236t280 210q-141 178 -142 319q0 152 89.5 233t236.5 81q100 0 175 -63.5t75 -170.5q0 -106 -72 -194q-63 -78 -194 -164q78 -106 139 -182q98 -123 227 -267q57 72 103 154q57 106 114 254l84 -80q-55 -92 -59 -98q-51 -76 -203 -283l283 -307 q-72 10 -127 10q-39 0 -58.5 -2t-70.5 -8l-137 176q-141 -137 -267 -178q-63 -20 -176 -21q-123 0 -231 70q-150 94 -150 275zM301 373q0 -129 86 -219.5t211 -90.5q94 0 178.5 43t145.5 125l-383 490q-80 -47 -125 -94q-113 -115 -113 -254zM492 1153q0 -76 40 -154 q35 -67 107 -147q111 88 150.5 154.5t39.5 152.5q0 80 -45 132t-114 52q-76 0 -127 -55t-51 -135z" />
<glyph unicode="'" horiz-adv-x="559" d="M156 881l123 448q25 90 94 90q76 0 76 -80q2 -16 -4.5 -35.5t-18.5 -35.5l-242 -406z" />
<glyph unicode="(" horiz-adv-x="563" d="M133 580q0 287 86 489q70 166 232 348l38 -35q-150 -231 -194 -415q-33 -133 -33 -383t55.5 -440.5t178.5 -356.5l-37 -47q-176 203 -251 394.5t-75 445.5z" />
<glyph unicode=")" horiz-adv-x="563" d="M63 1389l37 34q164 -184 236 -346q90 -207 90 -491q0 -260 -70.5 -447.5t-246.5 -392.5l-39 47q229 315 229 797q0 248 -35 383q-47 180 -201 416z" />
<glyph unicode="*" horiz-adv-x="1011" d="M152 1180q51 63 65 118q29 -25 90 -67q82 -59 162 -115q0 53 -6 115.5t-33 189.5q27 -4 66 -4t59 4q-8 -84 -15.5 -163.5t-7.5 -141.5q76 51 131.5 96t114.5 97q14 -39 28.5 -63.5t35.5 -53.5q-127 -51 -137 -55q-43 -18 -146 -72q57 -27 135 -57.5t158 -59.5 q-45 -57 -68 -117l-256 181q4 -35 11.5 -92.5t31.5 -214.5q-37 6 -59 6q-25 0 -72 -6q10 68 20.5 147.5t10.5 159.5q-45 -31 -88 -60q-51 -37 -160 -129q-10 31 -23.5 54.5t-39.5 58.5q129 55 162 70q70 35 122 59q-47 20 -79 35q-111 47 -213 80z" />
<glyph unicode="+" horiz-adv-x="1703" d="M250 559v100h553l-2 562h96l2 -562h549l2 -100h-551l2 -559h-96l-2 559h-553z" />
<glyph unicode="," horiz-adv-x="559" d="M92 -356l137 487q31 94 101 94q72 0 71 -78q0 -18 -6 -36.5t-18 -42.5l-250 -441z" />
<glyph unicode="-" horiz-adv-x="679" d="M88 559h502v-127h-500z" />
<glyph unicode="." horiz-adv-x="559" d="M166 88q0 51 30.5 86t77.5 35q49 0 86 -33t37 -78q0 -47 -32.5 -81.5t-77.5 -34.5q-47 0 -84 32.5t-37 73.5z" />
<glyph unicode="/" horiz-adv-x="575" d="M-41 -188l555 1724h86l-553 -1724h-88z" />
<glyph unicode="0" d="M82 670q0 377 141 551q117 143 332 143q223 0 342 -147q139 -172 139 -553q0 -338 -124 -515.5t-355 -177.5q-229 0 -352 179.5t-123 519.5zM252 655q0 -350 86 -495q72 -123 223 -123q166 0 234.5 142.5t68.5 500.5q0 342 -75.5 480t-247.5 138q-162 0 -230 -174 q-59 -152 -59 -469z" />
<glyph unicode="1" d="M133 1149q137 51 285 121q73 35 280 139q0 -123 -3 -363.5t-5 -507t-2 -538.5l-94 6l-94 -6q0 195 2 417t5 438t3 382l-309 -180q-25 49 -68 92z" />
<glyph unicode="2" d="M94 37q406 406 545 620q109 166 109 318q0 143 -63.5 229t-174.5 86q-92 0 -151.5 -53t-114.5 -188q-23 33 -40.5 59.5t-39.5 52.5q143 203 383 203q170 0 276.5 -100.5t106.5 -264.5q0 -135 -99 -288q-76 -119 -233 -283q-141 -147 -283 -293q84 8 240 12.5t391 4.5 q0 -12 -2 -35t-2 -37q0 -25 6 -80h-852z" />
<glyph unicode="3" d="M129 37q16 61 21.5 92t5.5 76q106 -166 301 -166q139 0 219 92t80 252q0 137 -69 212t-200 75q-33 0 -108 -11q2 14 2 27v23v30q0 2 -2 4q186 0 264 101q53 70 53 188q0 121 -60.5 193.5t-162.5 72.5q-74 0 -128 -42t-101 -138l-80 115q82 68 147 96q80 35 181 35 q172 0 273 -86t101 -231q0 -119 -66 -198t-218 -136q176 0 266 -85t90 -239q0 -188 -137 -305t-365 -117q-158 0 -307 70z" />
<glyph unicode="4" d="M39 381l2 27q96 131 233.5 327.5t229.5 331.5t190 289q23 0 47.5 -1t53.5 -1q20 0 26 2q0 -199 -1 -413t-3 -443h40h32h65q39 4 52 4v-123q-43 0 -114 3t-75 3q0 -94 2 -194.5t4 -192.5q-10 2 -32.5 2h-34.5q-31 0 -55.5 -1t-41.5 -1q0 90 2.5 187.5t4.5 193.5h-627z M203 500h471l-4 669q-104 -129 -251 -340t-216 -329z" />
<glyph unicode="5" d="M129 41l33 168q47 -76 114 -119q78 -51 177 -51q133 0 221 98.5t88 249.5q0 160 -76 248t-205 88q-45 0 -92 -12.5t-121 -57.5l-26 6q8 68 11 129.5t3 114.5q0 86 -4 186.5t-19 239.5q61 0 224.5 -4t193.5 -4h29h27h22q90 0 164 8v-141q-47 6 -167 9t-380 3 q-4 -72 -8 -183t-4 -269q90 53 205 53q186 0 292.5 -100.5t106.5 -278.5q0 -199 -144.5 -327t-367.5 -128q-94 0 -150.5 14.5t-146.5 59.5z" />
<glyph unicode="6" d="M115 549q0 356 169 586.5t433 230.5q61 0 141 -18q0 -29 -1 -47.5t-1 -28.5t2 -23q-72 49 -153 49q-154 0 -252 -127q-127 -163 -166 -538q82 92 149 129q78 43 191 43q172 0 280.5 -106.5t108.5 -280.5q0 -199 -124 -323t-325 -124q-215 0 -333.5 151.5t-118.5 426.5z M299 389q0 -154 79 -255t193 -101q115 0 189 102t74 264q0 152 -70 242t-186 90q-125 0 -202 -95t-77 -247z" />
<glyph unicode="7" d="M170 1329q12 -2 160 -2h61h60h57h53h51h45h41h37h33h31h26h23h73.5t75.5 2h21v-49q-70 -129 -340 -621q-127 -231 -254 -460q-96 -176 -105 -199q-33 2 -55 3t-31 1q-16 0 -33.5 -2t-27.5 -2q125 199 166 266q31 51 203 348q209 360 321 562q-180 0 -360 -1t-326 -14z " />
<glyph unicode="8" d="M113 373q0 137 70.5 224t238.5 159q-125 45 -180 104q-66 72 -66 191q0 137 112.5 225t293.5 88q160 0 260 -84t100 -221q0 -213 -242 -299q158 -47 226 -115q86 -88 86 -254q0 -190 -123 -305t-330 -115q-205 0 -325.5 108.5t-120.5 293.5zM293 375q0 -156 70.5 -245 t195.5 -89q123 0 194.5 90t71.5 242q0 178 -64.5 263t-197.5 85q-131 0 -200.5 -90t-69.5 -256zM350 1040q0 -123 55.5 -190.5t157.5 -67.5q96 0 155.5 69.5t59.5 180.5q0 262 -205 262q-106 0 -164.5 -66.5t-58.5 -187.5z" />
<glyph unicode="9" d="M98 926q0 188 117 313t311 125q199 0 320 -111q160 -147 160 -481q0 -350 -165 -574.5t-421 -224.5q-86 0 -205 35v113q125 -82 223 -82q162 0 271.5 192.5t109.5 489.5q-106 -186 -336 -186q-168 0 -276.5 110.5t-108.5 280.5zM260 924q0 -115 59 -197q78 -109 228 -109 q113 0 186.5 84t73.5 213q0 182 -51 275q-63 113 -213 113q-154 0 -224 -111q-59 -94 -59 -268z" />
<glyph unicode=":" horiz-adv-x="667" d="M215 811q0 43 33 76t78 33q49 0 83.5 -33t34.5 -78q0 -51 -28.5 -84t-75.5 -33q-51 0 -88 35t-37 84zM217 92q0 49 33 82t80 33q49 0 84 -33t35 -80t-31 -79.5t-78 -32.5q-51 0 -87 31.5t-36 78.5z" />
<glyph unicode=";" horiz-adv-x="667" d="M135 -356l146 491q25 92 92 92q25 0 43 -12q28 -21 28 -68q0 -39 -20 -75l-254 -441zM231 805q0 49 31 82t76 33q47 0 84 -33t37 -78q0 -49 -30 -83t-75 -34q-47 0 -85 34t-38 79z" />
<glyph unicode="&#x3c;" horiz-adv-x="1703" d="M262 567v84l1172 486l2 -111l-1018 -416l1020 -413l2 -109z" />
<glyph unicode="=" horiz-adv-x="1703" d="M250 377v94h1200v-94h-1200zM250 748v96h1198v-96h-1198z" />
<glyph unicode="&#x3e;" horiz-adv-x="1703" d="M258 1137l1180 -486v-84l-1176 -479v109l1022 413l-1024 416z" />
<glyph unicode="?" horiz-adv-x="788" d="M174 1352q80 43 132 56t112 13q127 0 210 -76.5t83 -193.5q0 -68 -27 -129q-41 -96 -153.5 -209t-150.5 -169t-38 -112q0 -117 125 -116l68 8l-17 -55q-41 -10 -76 -11q-100 0 -164.5 67t-64.5 167q0 76 41 145.5t145 175.5q96 98 113 121q51 70 51 148q0 74 -52 126 t-128 52q-117 0 -188 -131zM301 90q0 49 32 83t79 34q49 0 83.5 -33t34.5 -80q0 -45 -30.5 -77.5t-77.5 -32.5q-49 0 -85 31.5t-36 74.5z" />
<glyph unicode="@" horiz-adv-x="2048" d="M117 496q0 436 299 704q281 252 694 252q352 0 584.5 -195.5t232.5 -490.5q0 -264 -159.5 -452.5t-387.5 -188.5q-102 0 -148 40t-46 138q-63 -88 -125 -129q-74 -49 -170 -49q-147 0 -230 85t-83 234q0 225 139 389t323 164q74 0 129 -28q76 -39 125 -133l58 122h94 q-66 -266 -129 -530q-25 -100 -25 -106q0 -111 113 -111q125 0 246 119q164 162 164 448q0 274 -236 441q-207 145 -477 145q-412 0 -660 -272q-215 -236 -215 -545q0 -375 250 -574q217 -172 549 -172q137 0 270 35q180 47 359 160l41 -55q-164 -109 -285 -156 q-170 -66 -375 -66q-399 0 -659 219.5t-260 557.5zM698 463q0 -121 55.5 -186.5t157.5 -65.5q104 0 188.5 72.5t110.5 185.5l58 248q-53 195 -213 194q-156 0 -260 -147q-96 -135 -97 -301z" />
<glyph unicode="A" horiz-adv-x="1267" d="M-8 4q59 123 160 346q76 168 219 496t247 575h39q158 -403 164 -417q47 -119 168 -400.5t264 -603.5q-29 4 -50 7t-48 3q-23 0 -51.5 -4t-50.5 -6q-10 33 -70 186q-72 180 -141 363h-508q-104 -268 -107 -277q-61 -160 -98 -272q-12 4 -29.5 6t-50.5 2q-12 0 -57 -4z M371 637h432l-217 508z" />
<glyph unicode="B" horiz-adv-x="1220" d="M184 -4l2 1405l334 6q522 0 522 -322q0 -121 -63 -194q-82 -94 -277 -139q209 -31 294 -107t85 -233q0 -190 -118 -295q-137 -119 -420 -119q-23 0 -98.5 2t-108.5 2q-96 0 -152 -6zM356 700q0 -201 6 -382t11 -230q74 -16 143 -16q176 0 278.5 88t102.5 239 q0 307 -403 308zM365 1061l2 -277q57 -8 108 -8q186 0 282.5 74t96.5 217q0 260 -352 260l-129 -4q0 -49 -4 -148.5t-4 -113.5z" />
<glyph unicode="C" horiz-adv-x="1343" d="M84 688q0 338 201.5 535.5t545.5 197.5q125 0 221.5 -19.5t225.5 -76.5q-12 -33 -14 -39q-18 -55 -19 -153q-168 219 -397 219q-297 0 -438 -203q-117 -166 -117 -449q0 -260 106 -432q135 -217 412 -217q227 0 455 172l-13 -135q-115 -72 -203.5 -93.5t-226.5 -21.5 q-340 0 -534 177q-205 186 -205 538z" />
<glyph unicode="D" horiz-adv-x="1548" d="M178 1401q111 0 256 2t262 4q451 0 631 -231q123 -158 123 -437q0 -371 -188 -542q-213 -195 -711 -195l-367 -2q0 180 -1 425t-3 505t-2 471zM358 1313q0 -127 2 -371t5 -487.5t4 -366.5q8 0 84.5 -5t132.5 -5q317 0 475 131q186 154 186 512q0 344 -157 481 q-139 121 -459 121q-16 0 -82 -5t-191 -5z" />
<glyph unicode="E" horiz-adv-x="1011" d="M178 1401h719q0 -12 -1 -28.5t-1 -41.5q0 -35 2 -51q-100 0 -186 4q-303 14 -342 14v-26v-27v-28v-29v-29v-29v-28v-29v-26v-25v-25v-22q0 -39 -1 -79t-1 -81v-27q104 0 264 8.5t213 8.5q-4 -29 -4 -62q0 -14 2 -32.5t2 -30.5q-14 2 -176 8t-306 6q0 -180 2.5 -319 t4.5 -275q68 10 212 18t330 7q-6 -47 -6 -55l6 -70h-727q0 358 -2 709.5t-4 691.5z" />
<glyph unicode="F" horiz-adv-x="1007" d="M178 1401h729l2 -137q-119 18 -242.5 24t-299.5 6v-506q109 0 270.5 6.5t234.5 6.5q-4 -20 -4 -38v-26q0 -14 2 -30.5t2 -26.5q-84 0 -192 6q-252 14 -315 14q0 -381 3 -510t9 -190q-43 8 -47 8q-14 2 -43 2q-25 0 -53.5 -4t-49.5 -6q0 373 -2 718t-4 683z" />
<glyph unicode="G" horiz-adv-x="1495" d="M84 688q0 324 226.5 533t578.5 209q133 0 251 -30t255 -106q-10 -29 -17 -53q-12 -51 -30 -125q-90 119 -204 175.5t-265 56.5q-270 0 -432 -176.5t-162 -466.5q0 -293 163.5 -473.5t436.5 -180.5q76 0 143.5 12.5t192.5 57.5v54.5v33.5v57v39v29v24q0 25 -1 71t-1 112 v43q59 -10 84 -11q27 0 88 11v-64q-6 -197 -7 -221v-108.5t9 -131.5q-133 -37 -262.5 -59.5t-264.5 -22.5q-350 0 -557 170q-225 186 -225 541z" />
<glyph unicode="H" horiz-adv-x="1568" d="M182 1401q55 -12 88 -12q29 0 101 12q0 -23 -4.5 -179.5t-4.5 -420.5h842l-18 600q43 -12 92 -12t104 12q0 -494 2 -800t5 -601q-59 8 -111 8h-51q-25 -6 -35 -8q2 43 2 80q10 289 10 629h-842q14 -588 15 -709q-68 8 -96 8q-25 0 -97 -8q6 287 10.5 491.5t4.5 397.5 q0 223 -3 308t-14 204z" />
<glyph unicode="I" horiz-adv-x="563" d="M182 1401q14 -4 41 -7t53 -3q43 0 95 10q0 -174 2 -586t4 -815q-25 2 -47.5 5t-55.5 3q-47 0 -86 -8q0 633 -2 911.5t-4 489.5z" />
<glyph unicode="J" horiz-adv-x="563" d="M-45 -223q160 33 203 106q53 90 53 373q0 475 -4 672.5t-9 303t-8 165.5q23 -4 43.5 -6t53.5 -2q41 0 88 12q0 -674 2 -897t4 -381q0 -150 -86 -252q-109 -129 -332 -156z" />
<glyph unicode="K" horiz-adv-x="1187" d="M178 1397q20 -4 34.5 -6t49.5 -2q39 0 105 12q0 -123 -5.5 -309.5t-5.5 -339.5q74 0 154 87t160 175q59 59 156.5 170.5t179.5 216.5q37 -8 53 -9t37 -1q25 0 49 4t41 6q-45 -39 -187 -178q-154 -150 -452 -449q18 -29 207 -248q213 -250 463 -526q-31 2 -68 6t-62 4 q-41 0 -106 -10q-51 68 -96 127q-76 100 -148 188q-115 141 -227 283q-92 111 -154 111q0 -176 4 -293q12 -350 13 -416q-14 4 -35 6t-57 2h-43q-6 0 -54 -8z" />
<glyph unicode="L" horiz-adv-x="1003" d="M178 1401q57 -14 96 -15q41 0 97 15v-47v-66v-44v-34v-47v-35v-86v-49v-35v-47v-34v-78v-42.5v-29.5v-68v-61v-55v-51v-46v-40v-37v-33v-29v-24v-23q0 -37 -1 -72.5t-1 -70.5v-21q31 0 68.5 -1t80.5 -1q98 0 195.5 7.5t208.5 27.5l2 -129h-740q0 713 -2 955.5t-4 445.5z " />
<glyph unicode="M" horiz-adv-x="1796" d="M72 0q25 102 75 458.5t132 962.5h30l582 -1110q35 55 160 287q115 215 229 430q8 14 213 393h25q27 -250 55 -499q14 -123 47 -388.5t68 -533.5q-23 4 -48.5 6t-46.5 2h-51q-29 -6 -41 -8q0 137 -30.5 452.5t-77.5 567.5q-37 -59 -119 -207q-111 -197 -205 -383 q-125 -246 -199 -426h-26q-47 121 -150 326q-133 264 -370 690q-23 -174 -44.5 -406.5t-35 -415t-13.5 -198.5q-45 10 -79 10q-29 0 -80 -10z" />
<glyph unicode="N" horiz-adv-x="1527" d="M168 0q0 324 5 539t11 468t6 414h35q27 -31 221 -241q289 -313 439 -471q246 -260 352 -361q-6 213 -10 464t-4 589q29 -6 63 -6q41 0 64 6q0 -844 -2 -1064t-5 -362h-26q-94 102 -189 207q-225 248 -401 436q-244 262 -434 459q0 -297 5 -576.5t9 -500.5q-18 2 -33.5 5 t-35.5 3h-31q-2 0 -39 -8z" />
<glyph unicode="O" horiz-adv-x="1679" d="M82 702q0 322 209 520.5t551 198.5q334 0 539.5 -199.5t205.5 -523.5q0 -328 -208 -527.5t-548 -199.5q-303 0 -503 158q-246 192 -246 573zM289 690q0 -307 143 -475t406 -168q264 0 407.5 168t143.5 475q0 319 -142.5 488.5t-410.5 169.5q-264 0 -405.5 -170 t-141.5 -488z" />
<glyph unicode="P" horiz-adv-x="1128" d="M174 1401q68 0 219.5 4t229.5 4q178 0 297 -74q153 -93 153 -284q0 -178 -106 -269q-166 -141 -611 -141q0 -168 6 -336t7 -301q-25 4 -43.5 5t-46.5 1q-37 0 -99 -10q0 512 -2 811t-4 590zM352 717l111 -4q422 0 422 317q0 156 -92.5 225.5t-292.5 69.5l-138 -4z" />
<glyph unicode="Q" horiz-adv-x="1679" d="M78 688q0 340 207 536.5t569 196.5q326 0 529.5 -199.5t203.5 -516.5q0 -526 -510 -705l502 -356q-55 -25 -68 -31q-37 -20 -88 -62q-78 78 -270 240q-143 121 -229 189l-121 -5q-322 0 -523.5 198t-201.5 515zM289 690q0 -307 143 -475t406 -168q264 0 407.5 168 t143.5 475q0 319 -142.5 488.5t-410.5 169.5q-264 0 -405.5 -170t-141.5 -488z" />
<glyph unicode="R" horiz-adv-x="1220" d="M182 1401q70 0 173.5 2t197.5 4q268 0 389 -81t121 -251q0 -127 -68 -209q-96 -115 -340 -176q123 -154 236 -297q202 -254 315 -393q-29 4 -60.5 6t-55.5 2h-68q-35 -6 -53 -8l-486 643q-16 23 -26 29q-25 12 -90 12l10 -684q-27 4 -42.5 6t-49.5 2h-43q-6 0 -54 -8 q0 276 -1 510.5t-3 474.5t-2 416zM367 748q266 0 394 73.5t128 227.5q0 168 -106.5 218t-407.5 50q-2 -133 -4 -279.5t-4 -289.5z" />
<glyph unicode="S" horiz-adv-x="1003" d="M88 80q12 51 27 104q14 70 14 115q123 -244 340 -244q127 0 210 81t83 210q0 104 -55.5 169t-165.5 106q-240 90 -314 149q-113 92 -112 262q0 172 120.5 280.5t309.5 108.5q84 0 151.5 -16t157.5 -57q-6 -12 -12 -25q-18 -47 -41 -135q-78 90 -138.5 124t-146.5 34 q-111 0 -178.5 -68t-67.5 -178q0 -119 92 -191q64 -49 224 -108q178 -68 255 -157t77 -230q0 -195 -134.5 -318t-349.5 -123q-188 0 -346 107z" />
<glyph unicode="T" horiz-adv-x="1116" d="M35 1400h1034q-6 -29 -6 -59q0 -23 2 -38q0 -9 4 -27q-86 12 -177 19.5t-247 7.5l6 -1303q-41 8 -88 8h-55q-29 -6 -43 -8v702.5t2 602.5q-158 0 -230.5 -4.5t-199.5 -24.5q6 29 6 57v31q-6 24 -8 36z" />
<glyph unicode="U" horiz-adv-x="1536" d="M182 1401q33 -6 47.5 -8t46.5 -2q18 0 42 2t49 8q0 -121 -1 -235.5t-1 -221.5q0 -528 63 -680q82 -196 370 -196h3q223 0 308 95t105 388q12 170 13 850q14 -4 22 -6q18 -4 43 -4t66 10q0 -186 -7 -411.5t-8 -287.5q0 -391 -120 -552q-129 -174 -457 -175 q-260 0 -418 124t-158 339q0 20 -2 150.5t-4 438.5t-2 374z" />
<glyph unicode="V" horiz-adv-x="1267" d="M6 1401q12 -2 46 -5t59 -3h57q27 6 39 8q76 -197 170 -440q68 -178 137 -355q80 -201 162 -401q102 256 211 543q90 238 133 354q53 150 106 299q41 -12 58 -12q23 0 78 12q-29 -76 -119 -301q-115 -285 -228 -568q-168 -422 -210 -532q-18 2 -34 5t-36 3q-27 0 -43.5 -4 t-24.5 -4z" />
<glyph unicode="W" horiz-adv-x="2011" d="M31 1401q55 -10 100 -10q49 0 94 10l357 -1204q143 416 206.5 613.5t178.5 590.5q6 -2 27.5 -5t37.5 -3h21q16 2 45 8q125 -383 183 -556t120 -353q37 -111 92 -277q127 383 181.5 569.5t168.5 616.5q8 -2 29.5 -5t38.5 -3q32 0 71 8l-462 -1401q-12 2 -31 4t-51 2 q-29 0 -64 -6q-35 119 -71.5 242t-114.5 352t-195 551q-20 -68 -39 -135q-37 -123 -114 -359q-86 -260 -224 -651q-35 8 -69 8q-35 0 -76 -8q-45 154 -139 457q-53 172 -162 514q-90 283 -139 430z" />
<glyph unicode="X" horiz-adv-x="1144" d="M43 0l459 694q-84 145 -186.5 317.5t-233.5 389.5q92 -14 133 -15q37 0 78 15q55 -111 113 -219q70 -123 202 -338q59 94 119 188q92 156 207 369q4 -2 29.5 -8.5t44.5 -6.5q35 0 71 15q-197 -293 -254 -377q-96 -141 -174 -264q84 -131 264 -426q174 -283 203 -334 q-29 4 -58.5 6t-53.5 2q-51 0 -109 -8q-88 160 -104 188q-76 137 -242 422q-76 -109 -158 -243q-102 -172 -200 -367q-8 2 -33 5t-45 3h-33q-6 0 -39 -8z" />
<glyph unicode="Y" horiz-adv-x="1095" d="M-23 1401q51 -8 60 -8q18 -2 55 -2q35 0 55.5 2t55.5 8q20 -45 41 -90q45 -96 104 -203q82 -147 238 -403q119 197 125 206q94 170 243 490q10 -4 28.5 -7t41.5 -3q16 0 36.5 2t45.5 8l-467 -793q0 -205 6 -391t6 -217q-16 2 -43.5 5t-48.5 3q-43 0 -90 -8v74v55v43v37 v33v30v27v27v24q0 41 -1 87t-1 98v34z" />
<glyph unicode="Z" horiz-adv-x="1228" d="M16 0q10 14 142 205q190 279 309 454q254 379 426 639l-778 -18v121h1081l-897 -1297q190 8 436 14t426 7q0 -23 -1 -42.5t-1 -33.5q0 -27 2 -49h-1145z" />
<glyph unicode="[" horiz-adv-x="563" d="M145 1401h310v-76q-47 4 -86 6t-88 2q0 -231 1 -493t3 -620.5t2 -379.5h73q55 0 103 8v-71h-309q0 80 -2 443.5t-3.5 652t-3.5 528.5z" />
<glyph unicode="\" horiz-adv-x="575" d="M-47 1536h88l567 -1724h-88z" />
<glyph unicode="]" horiz-adv-x="563" d="M53 1323v74h307q0 -84 1 -448.5t3.5 -652.5t4.5 -521h-310v69q29 -4 82.5 -6t94.5 -2q0 102 -2.5 418.5t-3.5 581t-3 495.5q-37 0 -99 -4t-75 -4z" />
<glyph unicode="^" horiz-adv-x="2048" d="M416 897l530 561h139l535 -561h-143l-459 459l-459 -459h-143z" />
<glyph unicode="_" horiz-adv-x="1024" d="M0 -385h1024v-94h-1022z" />
<glyph unicode="`" horiz-adv-x="1024" d="M225 1393q0 25 17.5 41t44.5 16q53 0 106 -53l289 -301h-66l-327 209q-63 37 -64 88z" />
<glyph unicode="a" horiz-adv-x="983" d="M70 238q0 113 75.5 177t233.5 97q82 16 162 34.5t121 45.5q0 172 -41 235q-49 74 -195 74q-158 0 -254 -141h-18l2 108q150 113 340 113q180 0 256 -98q59 -78 59 -221q0 -391 5 -490.5t91 -99.5h25l6 -39q-43 -12 -87 -22.5t-67 -10.5q-98 0 -125 121q-82 -70 -100 -82 q-90 -55 -205 -55q-135 0 -209.5 66.5t-74.5 187.5zM236 256q0 -86 49 -139.5t129 -53.5q49 0 107.5 26t97 61.5t38.5 101.5l-2 256l-221 -45q-104 -25 -151 -74t-47 -133z" />
<glyph unicode="b" d="M141 1536q51 -10 90 -10q41 0 82 10q-4 -184 -7 -406.5t-3 -328.5q70 94 149.5 137t182.5 43q188 0 302 -130t114 -339q0 -229 -124 -382t-311 -153q-90 0 -159.5 31t-159.5 101q-33 -23 -53.5 -43.5t-55.5 -65.5h-41zM293 440q0 -188 73.5 -287.5t211.5 -99.5 q137 0 218 120t81 325v43q0 143 -43 225q-72 137 -256 137q-150 0 -222 -125q-63 -111 -63 -338z" />
<glyph unicode="c" horiz-adv-x="948" d="M68 463q0 182 100 323q137 195 407 195q76 0 121 -8q92 -17 211 -72q-16 -39 -29.5 -86t-21.5 -88q-55 104 -119.5 148.5t-167.5 44.5q-158 0 -245.5 -117t-87.5 -328q0 -162 77 -280q94 -143 269 -144q96 0 164.5 34t154.5 116q0 -20 -2 -49t-2 -41q2 -18 2 -31 q-152 -102 -332 -103q-207 0 -353 137.5t-146 348.5z" />
<glyph unicode="d" horiz-adv-x="1148" d="M70 467q0 199 86 334q117 182 356 182q78 0 133 -25q96 -43 178 -161q0 453 -3 566.5t-5 172.5q20 -4 49 -8t37 -4q23 0 43.5 2t46.5 10q0 -176 3 -404.5t6.5 -518t3.5 -613.5q-41 14 -78 14q-16 0 -38 -3t-57 -11q0 12 2.5 51t2.5 58q0 49 -7 92q-57 -102 -116 -150 q-89 -71 -232 -71h-4q-176 0 -291.5 138t-115.5 349zM238 481q0 -190 74.5 -307t215.5 -117q143 0 221 121t78 348l2 11q0 150 -55 241q-78 129 -248 129q-127 0 -207.5 -117.5t-80.5 -308.5z" />
<glyph unicode="e" horiz-adv-x="1036" d="M70 492q0 221 131 358t340 137q180 0 282 -98q129 -123 129 -393h-706q0 -207 92 -320t258 -113q94 0 162.5 35t146.5 103q-4 -29 -4 -62v-39q-78 -61 -147 -86q-93 -32 -199 -32h-6q-209 0 -344 143t-135 367zM250 567h541q0 164 -71 262.5t-183 98.5 q-119 0 -203 -101.5t-84 -259.5z" />
<glyph unicode="f" horiz-adv-x="563" d="M33 877v79q10 -2 55 -3t86 -1q0 313 113 453q102 127 313 127h8l-22 -158q-68 25 -119 25q-76 0 -113 -31q-59 -49 -59 -188l18 -226h166q33 0 49 2l-2 -84l-207 9q0 -164 10.5 -449t10.5 -432q-55 8 -96 8q-25 0 -48.5 -3t-35.5 -5q0 18 6 374.5t6 506.5z" />
<glyph unicode="g" horiz-adv-x="935" d="M55 -270q0 88 31 139q51 84 199 139q-158 51 -158 168q0 57 33 97t129 100q-113 41 -159 105.5t-46 172.5q0 152 108.5 244t290.5 92q16 0 45 -4q98 -14 197 -14q33 0 59 2q131 10 140 10v-88q-31 0 -84.5 2t-83.5 2q82 -125 82 -242q0 -141 -98.5 -229t-260.5 -88 q-12 0 -42.5 2t-67.5 2q-109 0 -109 -80q0 -72 46 -99.5t171 -27.5q258 0 364.5 -65.5t106.5 -204.5q0 -180 -131 -297q-141 -127 -385 -127q-172 0 -274.5 78t-102.5 211zM176 -233q0 -115 83 -192t204 -77q123 0 223 66q121 80 121 209q0 150 -88 194q-66 33 -270 33 q-143 0 -216 -78q-57 -63 -57 -155zM244 653q0 -117 62.5 -189.5t162.5 -72.5q215 0 215 271q0 131 -56.5 201.5t-162.5 70.5q-82 0 -146 -66q-75 -78 -75 -215z" />
<glyph unicode="h" horiz-adv-x="1120" d="M145 1536q14 -2 33 -4t49 -2q35 0 90 6v-33v-43v-49v-49v-51v-49v-48v-43v-38v-37v-33v-31v-26v-25q0 -39 -1 -78t-1 -78v-24q86 109 155 146.5t165 37.5q154 0 233 -94q96 -113 97 -395q0 -35 -2 -100.5t-2 -90.5v-131q0 -41 1 -74.5t7 -99.5q-25 2 -47.5 5t-53.5 3 t-67 -6l8 481q0 221 -43 303q-51 96 -197 97q-152 0 -213 -221q-43 -154 -43 -424q0 -84 2 -138.5t4 -99.5q-31 6 -102 6q-37 0 -65 -6q0 590 -2.5 948.5t-4.5 587.5z" />
<glyph unicode="i" horiz-adv-x="507" d="M143 1321q0 45 28 72.5t73 27.5t75.5 -26.5t30.5 -69.5q0 -53 -26.5 -79.5t-67.5 -26.5q-47 0 -80 28.5t-33 73.5zM164 969q18 -4 38.5 -8.5t41.5 -4.5q35 0 88 13l4 -969q-20 2 -37.5 5t-48.5 3h-37q-6 0 -45 -8q0 135 -2 546.5t-2 422.5z" />
<glyph unicode="j" horiz-adv-x="503" d="M-35 -516q156 37 189 166q24 92 24 518v35q0 182 -7 366.5t-15 391.5q6 0 32.5 -2.5t44.5 -2.5q25 0 48.5 2.5t50.5 10.5v-772q0 -444 -76 -592q-66 -127 -279 -160zM133 1323q0 41 28.5 69.5t69.5 28.5q49 0 82 -28.5t33 -69.5q0 -43 -26.5 -71.5t-71.5 -28.5t-80 28.5 t-35 71.5z" />
<glyph unicode="k" horiz-adv-x="995" d="M150 1536q49 -6 94 -6q49 0 78 6v-973q18 -6 32 -6q20 0 39 10.5t35 28.5q160 160 244 252q74 80 102 121q16 -2 36.5 -4t55.5 -2q41 0 90 6q-100 -80 -190 -162q-78 -72 -260 -244l485 -563q-29 0 -71.5 3t-49.5 3q-37 0 -98 -6q-84 109 -229 289q-117 145 -129 157 q-61 63 -80 64q-20 0 -21 -84q6 -90 10.5 -194.5t4.5 -231.5q-23 2 -41.5 5t-40.5 3q-18 0 -45 -3l-45 -5q0 694 -2 1003.5t-4 532.5z" />
<glyph unicode="l" horiz-adv-x="475" d="M145 1536q53 -12 84 -12q35 0 88 12q0 -432 2.5 -829.5t4.5 -706.5q-41 8 -84 8q-41 0 -88 -8q0 328 -1 618.5t-3.5 581.5t-2.5 336z" />
<glyph unicode="m" horiz-adv-x="1691" d="M156 969q18 -4 42.5 -8.5t34.5 -4.5q31 0 78 13l-4 -172q88 100 165 144t163 44q96 0 167.5 -51t104.5 -150q76 106 140 150q78 51 190 51q156 0 225 -88q78 -98 78 -330q0 -223 2 -342t4 -225q-18 4 -40.5 6t-41.5 2h-51q-27 -6 -39 -8q0 260 6 358.5t13 159.5 q0 195 -59.5 278t-180.5 83q-115 0 -168 -91q-65 -111 -65 -383v-8q0 -82 4 -212t4 -185q-29 0 -57.5 2t-41.5 2l-65 -4l16 481q0 211 -55 303.5t-162 92.5q-111 0 -168 -62q-82 -86 -82 -297q6 -76 10.5 -207t4.5 -311q-20 2 -36 2h-22q-20 0 -47.5 -1t-62.5 -1 q0 113 -2 497t-2 472z" />
<glyph unicode="n" horiz-adv-x="1120" d="M147 969q18 -4 39 -8.5t39 -4.5q37 0 86 13v-181q70 100 131 144q78 53 187 53q156 0 241 -82q94 -90 95 -276q0 -39 2 -286t2 -341q-49 8 -90 8q-23 0 -43 -2q-8 0 -35 -6q0 39 5 246t5 231q0 233 -51 320.5t-189 87.5q-131 0 -194.5 -99.5t-63.5 -326.5 q0 -221 3 -312.5t8 -146.5q-47 8 -88 8h-33q-4 0 -51 -8z" />
<glyph unicode="o" horiz-adv-x="1120" d="M74 483q0 219 133 358.5t348 139.5q213 0 350 -139.5t137 -358.5q0 -221 -137 -362t-352 -141q-207 0 -343 142t-136 361zM244 494q0 -223 83 -337t230 -114q150 0 231.5 108.5t81.5 303.5q0 205 -65 323q-80 145 -252 146q-145 0 -227 -112.5t-82 -317.5z" />
<glyph unicode="p" horiz-adv-x="1144" d="M147 969q31 -6 84 -6q37 0 80 6q-4 -31 -6 -80t-2 -66v-39q72 106 153 153.5t195 47.5q195 0 304.5 -133t109.5 -360q0 -238 -114.5 -377.5t-311.5 -139.5q-104 0 -178 39t-146 133q0 -176 7.5 -391t7.5 -311h-172q0 188 -3 432t-5.5 508t-2.5 584zM301 487 q0 -174 53 -282q76 -154 246 -154q135 0 213 109.5t78 326.5q0 186 -79 300t-216 114q-139 0 -217 -108.5t-78 -305.5z" />
<glyph unicode="q" horiz-adv-x="1144" d="M76 487q0 227 107.5 361.5t301.5 134.5q117 0 196 -46t153 -157v62v53q-6 43 -9 70q43 -6 80 -7q27 0 50.5 3.5t31.5 3.5v-571.5t1 -507t3 -443.5h-172q0 166 5 368.5t5 331.5q-72 -94 -144.5 -133t-178.5 -39q-197 0 -313.5 139.5t-116.5 376.5zM250 483 q0 -215 79 -325.5t214 -110.5q168 0 241 152q55 113 56 284q0 195 -80 305.5t-219 110.5q-137 0 -214 -112.5t-77 -303.5z" />
<glyph unicode="r" horiz-adv-x="671" d="M147 969q14 -4 35 -10.5t43 -6.5q25 0 39.5 3t54.5 14l-12 -232q70 137 128.5 187.5t146.5 50.5l59 -6q-4 -41 -6 -78t-2 -80l-15 -10q-64 26 -101 26h-3q-98 0 -143 -71q-70 -111 -70 -412q0 -10 10 -190q4 -72 4 -154q-59 6 -102 6q-57 -2 -61 -2z" />
<glyph unicode="s" horiz-adv-x="727" d="M47 55q16 47 29 84q23 68 24 74q104 -158 252 -158q86 0 141.5 51.5t55.5 129.5q0 131 -137 167q-201 53 -262 99q-84 61 -84 192t85 210t228 79q61 0 117.5 -11t140.5 -57q-12 -31 -22.5 -58.5t-22.5 -68.5q-68 70 -126 103t-122 33q-70 0 -118 -48.5t-48 -119.5 q0 -70 41 -113q51 -53 172 -78q172 -35 238 -106q49 -54 49 -156q0 -137 -106.5 -229t-264.5 -92q-82 0 -137 16t-123 57z" />
<glyph unicode="t" horiz-adv-x="591" d="M20 881q4 16 4.5 41.5t0.5 46.5q33 -4 71.5 -6t55.5 -2q0 25 -2.5 99.5t-2.5 139.5q47 8 74 16.5t88 32.5q0 -39 -1 -94t-1 -127v-72h27h22q68 0 215 13q-4 -29 -4 -54v-30q-31 0 -129 2t-135 2l-8 -590q0 -131 38 -189.5t118 -58.5q70 0 159 45l19 -49 q-57 -33 -110.5 -49t-125.5 -16q-147 0 -199.5 66.5t-52.5 227.5q0 20 3 226.5t3 386.5z" />
<glyph unicode="u" d="M152 328q0 86 2 299t2 342q10 -4 24.5 -6t34.5 -2h55q35 6 54 8q-12 -113 -18.5 -297.5t-6.5 -360.5q0 -102 65.5 -169.5t165.5 -67.5q172 0 238 194q43 125 43 342q0 27 -1 50.5t-1 46.5q0 12 -6 96t-6 166q25 -4 44 -7.5t44 -3.5q23 0 44.5 4.5t35.5 6.5 q0 -160 -2 -364t-5 -376v-122t5 -107h-154l-4 164q-61 -94 -109 -127q-84 -61 -227 -62q-131 0 -211 66q-106 88 -106 287z" />
<glyph unicode="v" horiz-adv-x="935" d="M8 969q33 -6 47.5 -8.5t48.5 -2.5q35 0 49.5 2.5t43.5 8.5q53 -178 96 -291q57 -150 207 -485q127 246 207 466q49 135 94 310q2 0 24.5 -5.5t38.5 -5.5q33 1 64 11q-6 -12 -103 -242q-57 -135 -174 -420q-106 -258 -123 -307h-10h-10l-12 2h-29l-49 -2h-10 q-10 35 -21 72q-27 78 -102 260q-100 244 -277 637z" />
<glyph unicode="w" horiz-adv-x="1511" d="M12 969q18 -4 44 -7.5t48 -3.5q20 0 43 2.5t50 8.5q25 -92 49 -185q63 -199 211 -569q92 227 148.5 393t115.5 361q12 -6 59 -6q25 0 60 6q43 -164 98 -332q74 -221 160 -418q98 217 172 416q66 178 108 334q23 0 47.5 -1t51.5 -1q18 0 24 2q-186 -444 -260 -630.5 t-123 -338.5q-41 6 -63 6q-23 0 -58 -6q-31 129 -125 399.5t-127 337.5q-82 -188 -124 -307q-70 -197 -134 -430q-31 6 -57 6q-27 0 -57 -6q-47 141 -64 188q-39 111 -138 378.5t-159 402.5z" />
<glyph unicode="x" horiz-adv-x="964" d="M12 0q92 104 142 166q113 137 239 309q-111 162 -207 291q-53 70 -157 203q29 -6 58.5 -9.5t43.5 -3.5q43 0 105 13q53 -84 63 -99q94 -133 195 -278q133 168 198 258q47 68 76 119q14 -2 30.5 -4t45.5 -2q31 0 71 6q-123 -141 -245 -293q-61 -76 -123 -152 q164 -233 231 -323q56 -74 158 -201q-59 8 -113 8q-29 0 -47 -1t-51 -7q-76 117 -145 217q-78 113 -134 186q-72 -88 -142.5 -177t-143.5 -226q-41 6 -72 6q-27 0 -76 -6z" />
<glyph unicode="y" horiz-adv-x="956" d="M16 969q14 -4 40 -8.5t61 -4.5q41 0 96 13q29 -102 70 -219q74 -213 225 -553q141 334 199 481q41 109 100 291q18 -6 34.5 -9.5t32.5 -3.5q29 1 72 13q-70 -150 -198 -439q-166 -373 -271 -622q-143 -342 -178 -463h-145q68 117 106 197q80 166 164 366 q-90 233 -135 342q-61 147 -273 619z" />
<glyph unicode="z" horiz-adv-x="919" d="M-4 0v43q262 336 366 469q119 152 191 250q47 61 86 119h-47.5t-42.5 2q-57 0 -162.5 -6.5t-286.5 -24.5q4 18 4 53v31q-4 20 -4 29q203 0 416 2t342 2l2 -45q-57 -74 -131 -166q-80 -100 -213 -279q-178 -236 -289 -391q141 10 293 20t332 9q-4 -23 -6 -45v-37 q6 -23 8 -35h-858z" />
<glyph unicode="{" horiz-adv-x="1024" d="M174 475v109q170 0 232.5 60.5t62.5 217.5l-4 242q0 242 80 311q70 61 305 62l2 -107q-160 0 -207 -41q-57 -49 -57 -213v-239q0 -164 -40 -235t-157 -110q111 -37 152 -98q49 -74 49 -246l2 -239q0 -156 48 -204t214 -48v-109q-227 0 -293 50q-92 70 -92 321l-2 242 q0 158 -62.5 216t-232.5 58z" />
<glyph unicode="|" horiz-adv-x="1024" d="M455 1565h104l8 -2044h-104z" />
<glyph unicode="}" horiz-adv-x="1024" d="M170 1370v107q236 0 303 -60q82 -72 82 -313l2 -242q0 -158 62.5 -218t234.5 -60v-109q-170 0 -232.5 -58.5t-62.5 -215.5v-242q0 -250 -90 -319q-66 -52 -293 -52v109q164 0 214 48t50 204l-2 239q0 168 49 244q41 63 148 100q-119 39 -159 110t-40 235l-2 239 q0 164 -52 209t-212 45z" />
<glyph unicode="~" horiz-adv-x="2048" d="M424 977q0 223 100 321q82 82 236 82q86 0 167 -46t154 -144q39 -53 85 -80t112 -27q115 0 166 72t51 227h119q0 -236 -117 -338q-82 -72 -213 -71q-180 0 -287 141q-70 90 -120 125t-119 35q-217 0 -217 -297h-117z" />
<glyph unicode="&#xa1;" horiz-adv-x="671" d="M227 1317q0 41 35 71.5t86 30.5q45 0 77 -33.5t32 -78.5q0 -43 -35 -76t-82 -33t-80 35t-33 84zM252 150l70 915h40l80 -915q2 -12 2 -25v-21q0 -78 -34 -106q-20 -16 -64 -16q-63 0 -78.5 35.5t-15.5 132.5z" />
<glyph unicode="&#xa2;" d="M123 498q0 217 114.5 347t329.5 152l-6 205h88l-10 -205h27q61 0 126 -13t169 -64q-12 -31 -23 -62q-16 -47 -35 -110q-53 106 -108.5 147t-155.5 41l2 -868q80 0 141 26q74 33 172 125q-4 -33 -4 -67v-48q-76 -53 -146.5 -78.5t-160.5 -25.5q0 -31 2 -93.5t6 -119.5 l-88 4l6 209q-219 29 -332.5 155t-113.5 343zM287 500q-1 -342 284 -424l-6 860q-137 -37 -200 -125q-78 -106 -78 -311z" />
<glyph unicode="&#xa3;" d="M102 131q158 0 215 45q86 66 86 279q0 164 -12 217q-78 0 -201 -13v89q70 -10 195 -11q-2 23 -7 90.5t-5 94.5q0 205 105.5 324.5t285.5 119.5q154 0 266 -113l-100 -116q-29 158 -189 157q-221 0 -221 -301q0 -63 23 -256h14q18 -2 39 -2q35 0 77 2t115 11l3 -84 q-55 6 -104.5 9t-135.5 3q0 -219 -38 -326.5t-159 -210.5q141 8 319.5 14.5t391.5 6.5q0 -23 -1 -47.5t-1 -53.5q0 -45 2 -59h-961q6 35 7 63v31q-6 25 -9 37z" />
<glyph unicode="&#xa4;" horiz-adv-x="1239" d="M86 1346l64 67l206 -207q57 41 119 65.5t143 24.5q61 0 107 -12q74 -20 156 -78l200 207l66 -67l-205 -201q49 -74 69.5 -136.5t20.5 -121.5q0 -53 -8 -88q-18 -78 -80 -170l207 -209l-66 -64l-202 203q-66 -41 -107 -57q-72 -29 -155 -29q-63 0 -115 14q-70 20 -150 72 l-200 -203l-66 64l203 209q-47 70 -67.5 124t-20.5 130q0 70 18.5 128t69.5 134zM295 854q0 -115 101.5 -204t236.5 -89q102 0 201 90q111 102 110 238q0 127 -95 222t-226 95q-135 0 -231.5 -100t-96.5 -252z" />
<glyph unicode="&#xa5;" d="M61 1329q10 -2 23 -2q45 -8 70 -8q18 0 44.5 2t55.5 8q16 -41 43 -100q102 -223 283 -496q66 113 131 228q80 150 182 368q10 -2 30.5 -4t39.5 -2q35 0 84 6q-131 -199 -183 -280q-41 -66 -202 -332q72 0 187.5 4t174.5 4v-88l-403 4l2 -172q41 0 168 3t235 3v-90l-403 6 q0 -29 10 -248q4 -88 4 -143q-23 2 -41 5t-41 3h-35q-2 0 -45 -8q0 20 5 174t5 217l-391 -6v90q113 0 206 -2t183 -4v172l-391 -4v88l340 -8q-141 238 -178 299q-80 131 -193 313z" />
<glyph unicode="&#xa6;" horiz-adv-x="1024" d="M455 1432h106l2 -760h-104zM459 408h106l4 -756h-106z" />
<glyph unicode="&#xa7;" horiz-adv-x="1011" d="M92 627q0 143 156 274q-61 84 -62 186q0 145 102.5 241.5t262.5 96.5q166 0 278 -100q-35 -47 -36 -53q-4 -6 -35 -72q-47 86 -103.5 125t-132.5 39q-98 0 -165.5 -63.5t-67.5 -155.5q0 -76 61 -127q25 -20 314 -154q158 -70 197.5 -126t39.5 -150q0 -70 -24.5 -120 t-102.5 -132q80 -74 80 -184q0 -170 -125 -283t-319 -113q-72 0 -133.5 14.5t-141.5 61.5l33 180q137 -170 297 -170q115 0 199 70t84 166q0 137 -205 214t-283 120q-168 96 -168 215zM199 713q0 -61 53 -101q92 -65 489 -243q59 100 60 155q0 86 -131 164q-33 18 -174 80 q-31 12 -54 23q-78 35 -155 86q-88 -68 -88 -164z" />
<glyph unicode="&#xa8;" horiz-adv-x="1024" d="M229 1249q0 43 28 71t75 28q41 0 69.5 -27t28.5 -70q0 -45 -26.5 -71.5t-69.5 -26.5q-45 0 -75 27.5t-30 68.5zM582 1249q0 43 27.5 71t72.5 28t73.5 -27t28.5 -70t-27.5 -70.5t-72.5 -27.5q-43 0 -72.5 27.5t-29.5 68.5z" />
<glyph unicode="&#xa9;" horiz-adv-x="1703" d="M117 721q0 301 214 517t515 216t517 -212t216 -511q0 -315 -210 -527t-517 -212q-301 0 -518 215t-217 514zM197 725q0 -264 194.5 -458.5t460.5 -194.5t456.5 190.5t190.5 458.5q0 272 -190.5 462.5t-460.5 190.5q-266 0 -458.5 -192.5t-192.5 -456.5zM442 727 q0 203 121 321.5t328 118.5q80 0 133 -10t135 -47q-10 -29 -14 -44t-4 -71q-100 129 -240 129q-178 0 -262 -118q-72 -100 -72 -271q0 -156 64 -258q82 -131 248 -131q135 0 274 103l-8 -80q-53 -33 -88 -45q-70 -25 -170 -25q-203 0 -320 104q-125 113 -125 324z" />
<glyph unicode="&#xaa;" horiz-adv-x="739" d="M49 874q0 158 232 207q61 12 120.5 24.5t92.5 35.5q0 129 -31 176q-37 55 -146 55q-121 0 -190 -106h-14l2 82q111 86 254 86q133 0 190 -74q45 -59 45 -166q0 -285 4 -363.5t72 -78.5h16l6 -29q-35 -10 -66.5 -18.5t-49.5 -8.5q-74 0 -94 92q-63 -55 -76 -63 q-66 -41 -154 -41q-102 0 -157.5 49t-55.5 141zM172 889q0 -66 38 -106t97 -40q84 0 156 68q29 27 29 76l-3 190l-165 -35q-152 -33 -152 -153z" />
<glyph unicode="&#xab;" horiz-adv-x="868" d="M70 483l327 486l49 -58l-243 -428l246 -428l-46 -55zM455 483l327 486l41 -58l-237 -428l239 -428l-37 -55z" />
<glyph unicode="&#xac;" horiz-adv-x="1703" d="M250 756v102h1198l2 -502h-96l-2 400h-1102z" />
<glyph unicode="&#xad;" horiz-adv-x="679" d="M88 559h502v-127h-500z" />
<glyph unicode="&#xae;" horiz-adv-x="1703" d="M117 721q0 299 215 516t514 217t516 -213t217 -510q0 -313 -211 -526t-516 -213q-299 0 -517 216t-218 513zM197 723q0 -268 193.5 -459.5t461.5 -191.5q266 0 456.5 188.5t190.5 452.5v8q0 279 -187.5 466t-463.5 187q-266 0 -458.5 -192.5t-192.5 -458.5zM604 1108v31 l221 4q160 0 232.5 -48t72.5 -151q0 -76 -40 -125q-57 -68 -201 -104q18 -25 140 -179.5t190 -236.5q-41 4 -78 4q-41 0 -66 -4l-293 385q-14 27 -67 27l4 -412q-23 4 -31 4q-20 2 -26 2q-20 0 -56 -6v145v105v48v32v61v51v43v37v33v31v26v25q0 39 -1 82t-1 90zM715 748 q311 0 311 182q0 100 -64.5 130t-242.5 30q0 -37 -2 -165t-2 -177z" />
<glyph unicode="&#xaf;" horiz-adv-x="1024" d="M-6 1462v103h1024v-103h-1024z" />
<glyph unicode="&#xb0;" horiz-adv-x="819" d="M123 1212q0 115 80 197t196 82q115 0 196 -81t81 -198q0 -119 -79 -197.5t-196 -78.5q-115 0 -196.5 80t-81.5 196zM233 1214q0 -72 48.5 -122t121.5 -50q68 0 116 50t48 118q0 76 -47 123t-119 47q-74 0 -121 -47t-47 -119z" />
<glyph unicode="&#xb1;" horiz-adv-x="1703" d="M250 725v92h553l-2 348h96l2 -348h549v-92h-549l2 -348h-98l-2 348h-551zM252 51v96h1198v-96h-1198z" />
<glyph unicode="&#xb2;" horiz-adv-x="739" d="M61 532v21l146 133q29 27 52.5 50.5t92.5 99.5q137 150 137 280q0 16 -3 34.5t-5 29.5q-8 33 -17 50t-36 40q-43 33 -94 33q-23 0 -33 -5q-29 -4 -49.5 -14t-39.5 -31.5t-38 -54.5q-8 -16 -16 -39l-52 70q27 39 87 76q45 27 108 36l57 7q72 0 131 -27q61 -33 90 -85 t29 -110q0 -86 -53 -153q-49 -74 -172 -189l-176 -168l106 -4q70 0 107 2q186 10 198 11l5 -93l-283 5z" />
<glyph unicode="&#xb3;" horiz-adv-x="739" d="M82 555l20 96q12 -18 35 -38.5t45 -30.5q53 -27 115 -27q57 0 100 23q27 14 42.5 29.5t29.5 39.5q6 14 16.5 46t10.5 69q0 39 -13.5 72.5t-38.5 58.5q-51 41 -129 41l-71 -6l4 24l-4 25q70 0 116 10q45 14 71 58.5t26 99.5q0 63 -33 108q-14 20 -47 38t-70 18 q-33 0 -51 -11q-63 -27 -98 -98l-13 17l-16 20l-20 31q96 80 215 80q84 0 138 -27t83 -76q20 -37 20 -88q0 -66 -28 -100q-25 -35 -58 -53l-98 -48q121 0 174 -59q59 -51 59 -135q0 -45 -22 -94q-39 -80 -121 -115q-76 -41 -184 -41q-119 0 -205 43z" />
<glyph unicode="&#xb4;" horiz-adv-x="1024" d="M332 1096l286 301q53 53 103 53q33 0 49 -14t16 -45q0 -47 -61 -86l-328 -209h-65z" />
<glyph unicode="&#xb5;" horiz-adv-x="1112" d="M-106 -424l307 1489h139l-123 -594q-6 -25 -10 -62.5t-4 -62.5q0 -117 59.5 -185.5t179.5 -68.5q244 0 330 416l121 557h137l-162 -766q-6 -31 -10 -56.5t-4 -43.5q0 -47 21.5 -73t78.5 -26l-22 -112q-43 -8 -82 -8q-74 0 -105.5 35.5t-31.5 119.5q-111 -160 -299 -160 q-170 0 -273 156l-110 -555h-137z" />
<glyph unicode="&#xb6;" horiz-adv-x="1024" d="M80 1133q0 154 107.5 251t281.5 97h463l2 -72h-129l6 -1409h-80l-6 1409h-186l6 -1409h-84l-2 784q-193 20 -286 109.5t-93 239.5z" />
<glyph unicode="&#xb7;" horiz-adv-x="544" d="M70 778q0 86 59 145.5t145 59.5t145.5 -59.5t59.5 -145.5t-59.5 -145.5t-145.5 -59.5t-145 59.5t-59 145.5z" />
<glyph unicode="&#xb8;" horiz-adv-x="1024" d="M246 -373l30 70q82 -37 128.5 -48t103.5 -11q55 0 88 24.5t33 65.5q0 43 -31 67.5t-86 24.5q-31 0 -63 -8v188h63v-113l68 7q80 0 129 -43.5t49 -114.5q0 -80 -55.5 -127t-149.5 -47q-66 0 -150 20q-18 4 -157 45z" />
<glyph unicode="&#xb9;" horiz-adv-x="739" d="M90 1221l103 34l92 37q4 2 18 10.5t27 12.5l47 18q29 19 84 37q0 -76 -5 -178t-5 -109v-32v-29v-27v-22q0 -37 -1 -72t-1 -70v-20v-103.5t2 -48.5v-127l-62 5l-59 -5q0 111 5 282t5 196l-6 262l-203 -111q-10 18 -18.5 31.5t-22.5 28.5z" />
<glyph unicode="&#xba;" horiz-adv-x="839" d="M53 1051q0 166 100.5 270t260.5 104t262 -104t102 -270t-103.5 -271.5t-262.5 -105.5q-154 0 -256.5 106.5t-102.5 270.5zM180 1059q0 -166 62.5 -251t173.5 -85t172 80t61 225q0 154 -49 244q-59 109 -188 108q-109 0 -170.5 -83.5t-61.5 -237.5z" />
<glyph unicode="&#xbb;" horiz-adv-x="868" d="M35 911l37 58l334 -486l-330 -483l-39 55l237 428zM416 911l41 58l334 -486l-330 -483l-41 55l237 428z" />
<glyph unicode="&#xbc;" horiz-adv-x="1755" d="M86 1225q33 10 92.5 33.5t108.5 46.5q76 31 86 34q61 27 65 27q0 -117 -2 -188q-8 -291 -8 -320q0 -80 2 -146.5t4 -127.5l-61 4l-60 -4q0 117 7.5 291t7.5 204l-6 193l-197 -103q-4 16 -16.5 32t-22.5 24zM371 -188l913 1708h98l-917 -1708h-94zM1069 213v14l86 103 l115 141l98 131l117 158l39 -2l41 2q0 -37 -2 -131t-2 -150q0 -31 2 -97.5t2 -100.5l55 -5l57 5v-68l-22 2h-29h-63l2 -57v-49q0 -20 2 -57.5t2 -51.5l-56 2l-51 -2q6 53 6 121l-2 92h-196h-201zM1176 281h297l-5 372q-68 -70 -145 -172z" />
<glyph unicode="&#xbd;" horiz-adv-x="1755" d="M86 1225q33 10 92.5 33.5t108.5 46.5q76 31 86 34q61 27 65 27q0 -117 -2 -188q-8 -291 -8 -320q0 -80 2 -146.5t4 -127.5l-61 4l-60 -4q0 117 7.5 291t7.5 204l-6 193l-197 -103q-4 16 -16.5 32t-22.5 24zM371 -188l913 1708h98l-917 -1708h-94zM1108 0v20 q199 178 281 265q18 23 41 51q31 43 57 84q16 35 24.5 63.5t8.5 65.5q0 14 -3.5 31.5l-5.5 27.5q-12 51 -55 82q-39 33 -98 33l-23 -2q-51 -6 -82 -43q-27 -39 -53 -94l-6 14l-8 12l-21 23l-14 14q66 96 184 109l60 6q74 0 127 -27q25 -10 46 -29.5t36 -46.5q27 -49 26 -100 q0 -82 -49 -147q-6 -12 -17.5 -25.5t-29.5 -34.5l-61 -61l-37 -35l-23 -20q-37 -33 -87 -81.5t-79 -78.5l105 -2q61 0 102 2q164 8 188 8l-4 -41q1 -27 7 -43l-271 2z" />
<glyph unicode="&#xbe;" horiz-adv-x="1755" d="M78 604q6 12 11 41t9 49q29 -45 78 -65q47 -25 109 -25q53 0 94 20.5t72 65.5q18 49 18 105q0 86 -45 125q-23 18 -53.5 29.5t-65.5 11.5l-69 -9l4 25l-4 20q31 0 58.5 4.5t51.5 10.5q45 12 66.5 53t21.5 92q0 61 -31 103q-39 49 -108 49q-33 0 -51 -11q-59 -25 -92 -92 q-20 31 -27 41q-12 16 -23 25q78 70 205 69q74 0 129.5 -21.5t81.5 -70.5q25 -35 25 -84q0 -53 -31 -96q-25 -29 -52.5 -43t-50 -25.5t-44.5 -19.5q109 0 167 -50t58 -130q0 -23 -5 -41.5t-18 -46.5q-29 -70 -111.5 -108t-183.5 -38q-111 0 -194 37zM371 -188l913 1708h98 l-917 -1708h-94zM1069 213v14l86 103l115 141l98 131l117 158l39 -2l41 2q0 -37 -2 -131t-2 -150q0 -31 2 -97.5t2 -100.5l55 -5l57 5v-68l-22 2h-29h-63l2 -57v-49q0 -20 2 -57.5t2 -51.5l-56 2l-51 -2q6 53 6 121l-2 92h-196h-201zM1176 281h297l-5 372q-68 -70 -145 -172 z" />
<glyph unicode="&#xbf;" horiz-adv-x="788" d="M115 250q0 68 26 131q41 96 150.5 205.5t149.5 170t40 113.5q0 115 -125 115l-67 -8l16 55q41 10 78 10q96 0 161.5 -65.5t65.5 -165.5q0 -76 -40 -146.5t-146 -177.5q-96 -96 -113 -118q-51 -70 -51 -150q0 -76 52.5 -126t129.5 -50q119 0 187 129l20 -123 q-80 -43 -132 -56t-111 -13q-127 0 -209 75.5t-82 194.5zM293 1307q0 45 30.5 77.5t77.5 32.5q51 0 87 -31.5t36 -74.5q0 -47 -32.5 -82t-77.5 -35q-51 0 -86 33t-35 80z" />
<glyph unicode="&#xc0;" horiz-adv-x="1267" d="M-6 -252l127 279l131 290l43 101l24 55l52 117l10 26l10 25l8 16l37 91l41 88l10 24l13 27l73 172l48 106h38l70 -168l62 -143l34 -88l52 -119l34 -88l31 -74l31 -71l47 -111l47 -115l37 -86l43 -102l61 -145l47 -111q-51 8 -102 8q-49 0 -98 -8q-12 39 -24.5 75 t-26.5 68l-21 54l-53 139l-51 129l-2 8l-5 10l-4 13l-6 12l-6 10l-4 12l-6 11l-4 8l-51 2h-70l-135 2l-131 -2h-70l-51 -2l-94 -242l-43 -117q-20 -55 -38 -106t-28 -84q-23 4 -39 7t-39 3zM342 1831q0 59 61 59q53 0 109 -55l291 -299h-72l-325 209q-63 37 -64 86zM371 381 h432l-39 96l-131 305l-45 107z" />
<glyph unicode="&#xc1;" horiz-adv-x="1267" d="M-8 4l129 279l129 290l45 101l24 55l50 117l10 26l12 25l6 16l39 88l41 91l10 26l13 25l73 172l45 106h39l72 -168l62 -143l34 -88l49 -121l37 -86l31 -74l31 -71l45 -111l49 -115l35 -86l45 -102l61 -145l45 -111q-49 8 -100 8q-49 0 -100 -8q-12 39 -23.5 75t-25.5 68 l-23 54l-53 139l-49 129l-5 8l-4 10l-4 13l-6 12l-6 10l-4 10l-4 13l-4 8h-51l-70 2l-135 2l-133 -2l-68 -2h-51l-94 -242l-43 -117l-68 -190q-23 4 -39 7t-37 3zM371 637h432l-39 94l-131 305l-47 109zM451 1536l284 299q55 55 105 55q26 0 49 -14q16 -33 16 -47 q0 -45 -59 -84l-330 -209h-65z" />
<glyph unicode="&#xc2;" horiz-adv-x="1267" d="M-6 -252l127 279l131 290l43 101l24 55l52 117l10 26l10 25l8 16l37 91l41 88l10 24l13 27l73 172l48 106h38l70 -168l62 -143l34 -88l52 -119l34 -88l31 -74l31 -71l47 -111l47 -115l37 -86l43 -102l61 -145l47 -111q-51 8 -102 8q-49 0 -98 -8q-12 39 -24.5 75 t-26.5 68l-21 54l-53 139l-51 129l-2 8l-5 10l-4 13l-6 12l-6 10l-4 12l-6 11l-4 8l-51 2h-70l-135 2l-131 -2h-70l-51 -2l-94 -242l-43 -117q-20 -55 -38 -106t-28 -84q-23 4 -39 7t-39 3zM334 1536l229 346h121l234 -346h-62l-229 213l-234 -213h-59zM371 381h432l-39 96 l-131 305l-45 107z" />
<glyph unicode="&#xc3;" horiz-adv-x="1267" d="M-8 4l129 279l129 290l45 101l24 55l50 117l10 26l12 25l6 16l39 88l41 91l10 26l13 25l73 172l45 106h39l72 -168l62 -143l34 -88l49 -121l37 -86l31 -74l31 -71l45 -111l49 -115l35 -86l45 -102l61 -145l45 -111q-49 8 -100 8q-49 0 -100 -8q-12 39 -23.5 75t-25.5 68 l-23 54l-53 139l-49 129l-5 8l-4 10l-4 13l-6 12l-6 10l-4 10l-4 13l-4 8h-51l-70 2l-135 2l-133 -2l-68 -2h-51l-94 -242l-43 -117l-68 -190q-23 4 -39 7t-37 3zM338 1581q14 59 25.5 88t35.5 60q47 66 138 65q31 0 48 -2t44 -12l55 -19l8 -2l21 -4l12 -4l12 -2h19 q39 0 61.5 18.5t38.5 67.5h55q-27 -109 -69.5 -157t-116.5 -48q-23 0 -41 3t-61 14l-33 10l-31 4l-43 8l-16 2h-15q-68 0 -98 -90h-49zM371 637h432l-39 94l-131 305l-47 109z" />
<glyph unicode="&#xc4;" horiz-adv-x="1267" d="M-8 4l129 279l129 290l45 101l24 55l50 117l10 26l12 25l6 16l39 88l41 91l10 26l13 25l73 172l45 106h39l72 -168l62 -143l34 -88l49 -121l37 -86l31 -74l31 -71l45 -111l49 -115l35 -86l45 -102l61 -145l45 -111q-49 8 -100 8q-49 0 -100 -8q-12 39 -23.5 75t-25.5 68 l-23 54l-53 139l-49 129l-5 8l-4 10l-4 13l-6 12l-6 10l-4 10l-4 13l-4 8h-51l-70 2l-135 2l-133 -2l-68 -2h-51l-94 -242l-43 -117l-68 -190q-23 4 -39 7t-37 3zM348 1692q0 43 30 70.5t73 27.5t70.5 -27.5t27.5 -70.5q0 -96 -98 -97q-45 0 -74 27t-29 70zM371 637h432 l-39 94l-131 305l-47 109zM702 1690q0 45 28 72.5t73 27.5q43 0 69.5 -26.5t26.5 -71.5q0 -43 -26.5 -70t-69.5 -27t-72 27t-29 68z" />
<glyph unicode="&#xc5;" horiz-adv-x="1267" d="M-8 4l129 279l129 290l45 101l24 55l50 117l10 26l12 25l6 16l39 88l41 91l10 26l13 25l73 172l45 106h39l72 -168l62 -143l34 -88l49 -121l37 -86l31 -74l31 -71l45 -111l49 -115l35 -86l45 -102l61 -145l45 -111q-49 8 -100 8q-49 0 -100 -8q-12 39 -23.5 75t-25.5 68 l-23 54l-53 139l-49 129l-5 8l-4 10l-4 13l-6 12l-6 10l-4 10l-4 13l-4 8h-51l-70 2l-135 2l-133 -2l-68 -2h-51l-94 -242l-43 -117l-68 -190q-23 4 -39 7t-37 3zM371 637h432l-39 94l-131 305l-47 109zM401 1724q0 111 70 178.5t186 67.5q102 0 165 -62.5t63 -164.5 q2 -111 -67.5 -180.5t-180.5 -69.5q-104 0 -170 63.5t-66 167.5zM485 1722q0 -74 43 -123t111 -49t112 46t44 122v8v17q0 74 -43 123t-111 49t-112 -54.5t-44 -138.5z" />
<glyph unicode="&#xc6;" horiz-adv-x="1599" d="M-55 0q199 319 399 639q121 193 241 383t240 379h684q-6 -49 -6 -70q0 -16 6 -51q-176 0 -295.5 6t-203.5 12v-106v-74v-53v-39v-31v-24q0 -35 -1 -74t-1 -80v-29q68 0 220 8.5t230 8.5q0 -16 -1 -31.5t-1 -30.5q0 -14 2 -31.5t2 -31.5q-51 8 -155.5 11t-288.5 3v-594h41 q131 0 198.5 3t268.5 22v-125q-45 4 -105.5 6t-113.5 2q-72 0 -252.5 -4t-216.5 -4q6 115 10 229.5t4 290.5h-467q-88 -133 -176 -295q-78 -143 -107 -225h-155zM436 608h412v660q-100 -143 -199 -287q-111 -174 -213 -373z" />
<glyph unicode="&#xc7;" horiz-adv-x="1343" d="M84 688q0 338 201.5 535.5t545.5 197.5q125 0 221.5 -19.5t225.5 -76.5q-16 -37 -24.5 -69.5t-8.5 -122.5q-168 219 -397 219q-297 0 -438 -203q-117 -166 -117 -449q0 -260 106 -432q135 -217 412 -217q227 0 455 172l-13 -135q-94 -57 -205.5 -86t-267.5 -29v-86l62 7 q84 0 133 -43.5t49 -114.5q0 -80 -55.5 -127t-149.5 -47q-49 0 -61 2q-61 10 -246 63l33 70q72 -31 128 -45t103 -14q55 0 86 24.5t31 65.5q0 92 -123 92l-51 -8l-2 165q-332 0 -498 234q-135 188 -135 477z" />
<glyph unicode="&#xc8;" horiz-adv-x="1011" d="M178 1145l19 -2h12h18h9l10 -2h12l21 -2h43h14h22h105h33h147l66 4l65 2h123v-15l-2 -24v-8v-17v-14v-10l2 -21l2 -12l-203 12l-53 4h-45l-74 2h-78h-38h-39l-2 -65v-137v-170v-138l241 5l238 12l-4 -53l2 -19l2 -28v-25q-74 10 -141.5 14t-139.5 4h-108h-49l-21 -2h-8 h-10h-9l2 -45l3 -98v-18v-19v-12l4 -25v-67v-138v-174h39q68 0 126 2t113 4l27 3l26 2h21l18 2l19 2h16l31 2l26 2l80 6l-4 -70v-12v-12l4 -31l-71 2l-109 2h-92l-90 2l-94 -2h-90l-109 -2l-70 -2v43l4 61l3 48v43l4 100l2 51v14v25v14v19v69v183l-2 174l-11 401zM256 1831 q0 29 15.5 44t43.5 15q53 0 109 -55l291 -299h-72l-328 209q-37 23 -48 40t-11 46z" />
<glyph unicode="&#xc9;" horiz-adv-x="1011" d="M178 1401l17 -2h30h8l11 -2h12h20h43l13 -2h98h31h35l145 2l66 2l65 2h125v-15l-4 -24v-10v-15v-14l2 -10l2 -23v-10l-221 12l-33 2l-47 2l-78 2h-88h-61l-2 -67l-2 -133v-174l2 -136q55 0 126.5 2.5t114.5 2.5l236 12l-2 -53v-21l2 -26v-25l-109 10q-29 0 -96.5 4 t-75.5 4h-106h-49l-21 -2l-10 -2h-8l-7 -43v-82v-18l3 -16v-23v-8l2 -25v-67l2 -138v-174h39l104 2l133 4l21 3h26l29 2l18 2l21 2l26 2h25l18 2l82 6l-2 -14l-2 -23l-2 -16l6 -72l-73 2l-291 4l-291 -4l-72 -2l6 160l3 35l2 100l2 51l2 14l-2 21v18l4 19v69l-2 183 q0 98 -7.5 301t-7.5 274zM362 1536l285 299q55 55 105 55q26 0 49 -14q16 -33 16 -47q0 -45 -59 -84l-328 -209h-68z" />
<glyph unicode="&#xca;" horiz-adv-x="1011" d="M178 1145l19 -2h30h9l10 -2h12h21h43l12 -2h98h31h33l147 2l66 2l65 2h123v-15l-2 -24v-8v-17v-14v-10l2 -21l2 -12l-221 12l-33 2l-47 2l-80 2h-86h-63l-2 -65v-137v-170v-138q55 0 126.5 2.5t114.5 2.5l238 12q-4 -20 -4 -53l2 -19l2 -28v-25l-111 12l-170 6h-106h-49 l-21 -2h-12h-8l-7 -45l3 -80v-18v-18v-23l2 -8l2 -25v-67v-138v-174h39l104 2l135 4l21 3h24l31 2l16 2l23 2l26 2h23l20 2l80 6l-2 -14l-2 -23v-16l4 -72l-71 2l-291 4l-293 -4l-70 -2l7 160v35l4 100l2 51v14v21v18l2 19v69l-2 183q0 129 -2 198q-10 350 -11 377z M246 1536l229 346h121l233 -346h-61l-229 213l-234 -213h-59z" />
<glyph unicode="&#xcb;" horiz-adv-x="1011" d="M178 1401l17 -2h30h8l11 -2h12h20h43l13 -2h98h31h35l145 2l66 2l65 2h125v-15l-4 -24v-10v-15v-14l2 -10l2 -23v-10l-221 12l-33 2l-47 2l-78 2h-88h-61l-2 -67l-2 -133v-174l2 -136q55 0 126.5 2.5t114.5 2.5l236 12l-2 -53v-21l2 -26v-25l-109 10q-29 0 -96.5 4 t-75.5 4h-106h-49l-21 -2l-10 -2h-8l-7 -43v-82v-18l3 -16v-23v-8l2 -25v-67l2 -138v-174h39l104 2l133 4l21 3h26l29 2l18 2l21 2l26 2h25l18 2l82 6l-2 -14l-2 -23l-2 -16l6 -72l-73 2l-291 4l-291 -4l-72 -2l6 160l3 35l2 100l2 51l2 14l-2 21v18l4 19v69l-2 183 q0 98 -7.5 301t-7.5 274zM260 1690q0 43 28.5 71.5t73.5 28.5t73 -27.5t28 -70.5t-27.5 -70t-73.5 -27q-45 0 -73.5 27t-28.5 68zM612 1690q0 45 28 72.5t73 27.5t71.5 -26.5t26.5 -69.5q0 -45 -26.5 -72t-69.5 -27q-45 0 -74 27t-29 68z" />
<glyph unicode="&#xcc;" horiz-adv-x="563" d="M-6 1831q0 27 18.5 43t44.5 16q53 0 107 -55l291 -299h-70l-330 209q-61 37 -61 86zM182 1145q47 -8 88 -8h54q29 6 49 8l-4 -152l-4 -291l2 -133l2 -161l-2 -144l2 -123l2 -262l8 -135l-21 2l-75 6l-25 -2h-27l-41 -6v29l3 28l2 90l2 93l2 96l2 135l-2 229l-6 494z" />
<glyph unicode="&#xcd;" horiz-adv-x="563" d="M102 1536l285 299q55 55 105 55q26 0 49 -14q16 -29 16 -47q0 -45 -59 -84l-328 -209h-68zM182 1401q43 -8 88 -8h29q33 0 72 8l-4 -154v-291l-2 -131l2 -161v-144l2 -123q0 -70 2 -139.5t2 -122.5l4 -135l-21 2l-73 6l-27 -2h-25l-43 -6l2 29v28l5 90l2 93v96v66.5 t2 68.5l-2 229l-7 494z" />
<glyph unicode="&#xce;" horiz-adv-x="563" d="M-14 1536l229 346h121l231 -346h-57l-231 213l-234 -213h-59zM182 1145q47 -8 88 -8h54q29 6 49 8l-4 -152l-4 -291l2 -133l2 -161l-2 -144l2 -123l2 -262l8 -135l-21 2l-75 6l-25 -2h-27l-41 -6v29l3 28l2 90l2 93l2 96l2 135l-2 229l-6 494z" />
<glyph unicode="&#xcf;" horiz-adv-x="563" d="M0 1690q0 43 28.5 71.5t75.5 28.5q43 0 71 -27.5t28 -70.5t-28 -70t-73 -27t-73.5 27t-28.5 68zM182 1401q43 -8 88 -8h29q33 0 72 8l-4 -154v-291l-2 -131l2 -161v-144l2 -123q0 -70 2 -139.5t2 -122.5l4 -135l-21 2l-73 6l-27 -2h-25l-43 -6l2 29v28l5 90l2 93v96v66.5 t2 68.5l-2 229l-7 494zM352 1690q0 43 29 71.5t74 28.5q43 0 70.5 -27.5t27.5 -70.5t-26.5 -70t-71.5 -27t-74 27t-29 68z" />
<glyph unicode="&#xd0;" horiz-adv-x="1552" d="M-2 709v92q27 -4 84 -4h113l-13 604q147 0 282.5 2t262.5 4q340 0 522 -147q205 -166 205 -523q0 -197 -53 -336q-70 -182 -227 -282q-187 -119 -496 -119h-490q0 213 2.5 385t4.5 332zM356 717q0 -23 8.5 -280t8.5 -349l221 -10q385 0 543 209q114 152 114 422 q0 344 -147 483q-139 131 -467 131q-43 0 -140.5 -5t-129.5 -5q0 -123 -1 -252t-4 -264q94 0 219.5 2t180.5 2v-92z" />
<glyph unicode="&#xd1;" horiz-adv-x="1527" d="M168 0l2 115l6 141l4 125l2 96l2 121l2 139l2 88l2 93v104v154v147v98h35l54 -59l81 -90l70 -78l70 -76l69 -76l58 -61l75 -82l13 -14l8 -6l18 -21l19 -18l102 -109l49 -49l45 -47l125 -127l156 -160v154v18v185v81l-2 31v12v29v123v68l-4 24l2 10l-2 25v74v39v10l-2 10 l2 37l-6 88l-2 35l47 -6h14h14l52 6l-4 -203l-7 -293v-63v-51v-43v-37v-31v-27v-24q0 -39 -1 -79t-1 -81v-27v-94v-94l2 -64v-94v-69l2 -23l2 -14v-15h-26l-27 31l-137 162l-55 63l-43 52l-11 12l-12 10l-18 21l-29 26l-6 8l-47 52l-51 53l-50 51l-40 43l-498 518l-2 -151 l2 -76v-78v-82v-59l2 -68v-59l2 -55v-41v-37l2 -37v-29l-2 -8l2 -18v-50v-24v-10l2 -17l2 -74l2 -43v-12v-8l2 -23l-2 -16l-31 4h-18l-18 2l-17 -2h-16zM467 1581q16 61 28.5 90t34.5 58q47 66 134 65q31 0 50 -2t46 -12l16 -6l19 -7l14 -4l12 -4q12 -8 37 -8l14 -2h23 q63 0 92 86h57q-10 -45 -18 -66.5t-18 -44.5q-51 -94 -150 -94q-51 0 -104 17l-35 10l-29 4l-49 8l-27 2q-66 0 -94 -90h-53z" />
<glyph unicode="&#xd2;" horiz-adv-x="1679" d="M82 676v26q0 322 209 520.5t551 198.5q334 0 539.5 -199.5t205.5 -523.5q0 -328 -208 -527.5t-548 -199.5q-326 0 -536.5 180.5t-210.5 475.5l2 10zM289 690q0 -307 143 -475t406 -168q264 0 407.5 168t143.5 475q0 319 -142.5 488.5t-410.5 169.5q-264 0 -405.5 -170 t-141.5 -488zM547 1833q0 25 16.5 41t44.5 16q57 0 107 -55l291 -299h-68l-328 209q-63 37 -63 88z" />
<glyph unicode="&#xd3;" horiz-adv-x="1679" d="M82 676v26q0 322 209 520.5t551 198.5q334 0 539.5 -199.5t205.5 -523.5q0 -328 -208 -527.5t-548 -199.5q-326 0 -536.5 180.5t-210.5 475.5l2 10zM289 690q0 -307 143 -475t406 -168q264 0 407.5 168t143.5 475q0 319 -142.5 488.5t-410.5 169.5q-264 0 -405.5 -170 t-141.5 -488zM651 1536l289 299q55 55 102 55q27 0 50 -14q16 -27 16 -47q0 -47 -57 -84l-330 -209h-70z" />
<glyph unicode="&#xd4;" horiz-adv-x="1679" d="M82 676v26q0 322 209 520.5t551 198.5q334 0 539.5 -199.5t205.5 -523.5q0 -328 -208 -527.5t-548 -199.5q-326 0 -536.5 180.5t-210.5 475.5l2 10zM289 690q0 -307 143 -475t406 -168q264 0 407.5 168t143.5 475q0 319 -142.5 488.5t-410.5 169.5q-264 0 -405.5 -170 t-141.5 -488zM539 1536l229 346h121l231 -346h-59l-232 213l-231 -213h-59z" />
<glyph unicode="&#xd5;" horiz-adv-x="1679" d="M82 676v26q0 322 209 520.5t551 198.5q334 0 539.5 -199.5t205.5 -523.5q0 -328 -208 -527.5t-548 -199.5q-326 0 -536.5 180.5t-210.5 475.5l2 10zM289 690q0 -307 143 -475t406 -168q264 0 407.5 168t143.5 475q0 319 -142.5 488.5t-410.5 169.5q-264 0 -405.5 -170 t-141.5 -488zM543 1581q23 102 59 150q51 63 137 63l49 -2l23 -6l20 -6l35 -13l27 -8l37 -8l14 -2h23q63 0 92 86h57q-27 -109 -69.5 -157t-116.5 -48q-25 0 -46.5 4t-58.5 13l-30 10l-31 4l-49 8l-25 2q-68 0 -98 -90h-49z" />
<glyph unicode="&#xd6;" horiz-adv-x="1679" d="M82 676v26q0 322 209 520.5t551 198.5q334 0 539.5 -199.5t205.5 -523.5q0 -328 -208 -527.5t-548 -199.5q-326 0 -536.5 180.5t-210.5 475.5l2 10zM289 690q0 -307 143 -475t406 -168q264 0 407.5 168t143.5 475q0 319 -142.5 488.5t-410.5 169.5q-264 0 -405.5 -170 t-141.5 -488zM553 1692q0 43 27.5 70.5t72.5 27.5t72 -26.5t27 -69.5q2 -45 -25 -72t-72 -27q-43 0 -72.5 28t-29.5 69zM905 1692q0 43 28 70.5t73 27.5q43 0 71.5 -26.5t28.5 -69.5q0 -99 -98 -99q-45 0 -74 27t-29 70z" />
<glyph unicode="&#xd7;" horiz-adv-x="1703" d="M381 1006l68 69l399 -397l389 389l72 -72l-389 -389l397 -393l-72 -70l-395 396l-385 -389l-74 69l385 389z" />
<glyph unicode="&#xd8;" horiz-adv-x="1679" d="M82 682q0 342 200.5 540.5t546.5 198.5q160 0 242 -22.5t221 -104.5l176 207q37 -39 86 -65q-74 -72 -81 -80q-44 -45 -103 -119q133 -145 180 -289q35 -104 35 -260q0 -319 -204.5 -518t-538.5 -199q-174 0 -305 45q-72 25 -179 88q-57 -59 -86 -92q-49 -57 -110 -141 q-14 20 -33.5 41.5t-38.5 40.5l199 207q-96 111 -137 190q-70 139 -70 332zM287 692q0 -147 28 -250q20 -72 74 -174l836 934q-86 72 -154 101q-96 41 -235 40q-266 0 -407.5 -167.5t-141.5 -483.5zM434 205q94 -84 160 -115q100 -47 262 -47q217 0 361 143q170 172 169 504 q0 254 -114 451z" />
<glyph unicode="&#xd9;" horiz-adv-x="1536" d="M182 1401q18 -4 33.5 -6t58.5 -2h25q29 0 68 8v-90v-176l-2 -187l-3 -221v-55v-51q0 -66 4.5 -127.5t12.5 -102.5q18 -102 88 -178q127 -145 334 -145q219 0 321 118q113 125 113 516v146l-2 182l-4 221l-2 150q31 -8 61 -8h35q21 4 35 8l-2 -98v-52l-2 -71v-27v-10v-37 l-2 -70l-2 -67l-4 -105l-3 -55v-107q0 -254 -27.5 -369.5t-111.5 -201.5q-150 -156 -438 -156q-260 0 -418 124t-158 339l-2 60l-2 30l-2 56v14v20l2 44v10v12v10v41l2 13v10v10l2 29v65v109l-2 28l2 19v88l-2 92l-4 119zM500 1833q0 25 16 41t45 16q53 0 107 -55l288 -299 h-65l-330 209q-61 39 -61 88z" />
<glyph unicode="&#xda;" horiz-adv-x="1536" d="M182 1401q18 -4 33.5 -6t58.5 -2h25q29 0 68 8v-90v-176l-2 -187l-3 -221v-55v-51q0 -66 4.5 -127.5t12.5 -102.5q18 -102 88 -178q127 -145 334 -145q219 0 321 118q113 125 113 516v146l-2 182l-4 221l-2 150q31 -8 61 -8h35q21 4 35 8l-2 -98v-52l-2 -71v-27v-10v-37 l-2 -70l-2 -67l-4 -105l-3 -55v-107q0 -254 -27.5 -369.5t-111.5 -201.5q-150 -156 -438 -156q-260 0 -418 124t-158 339l-2 60l-2 30l-2 56v14v20l2 44v10v12v10v41l2 13v10v10l2 29v65v109l-2 28l2 19v88l-2 92l-4 119zM604 1536l287 299q53 55 104 55q26 0 49 -14 q16 -29 17 -47q0 -45 -60 -84l-327 -209h-70z" />
<glyph unicode="&#xdb;" horiz-adv-x="1536" d="M182 1401q18 -4 33.5 -6t58.5 -2h25q29 0 68 8v-90v-176l-2 -187l-3 -221v-55v-51q0 -66 4.5 -127.5t12.5 -102.5q18 -102 88 -178q127 -145 334 -145q219 0 321 118q113 125 113 516v146l-2 182l-4 221l-2 150q31 -8 61 -8h35q21 4 35 8l-2 -98v-52l-2 -71v-27v-10v-37 l-2 -70l-2 -67l-4 -105l-3 -55v-107q0 -254 -27.5 -369.5t-111.5 -201.5q-150 -156 -438 -156q-260 0 -418 124t-158 339l-2 60l-2 30l-2 56v14v20l2 44v10v12v10v41l2 13v10v10l2 29v65v109l-2 28l2 19v88l-2 92l-4 119zM489 1536l230 346h121l231 -346h-57l-234 213 l-231 -213h-60z" />
<glyph unicode="&#xdc;" horiz-adv-x="1536" d="M182 1401q18 -4 33.5 -6t58.5 -2h25q29 0 68 8v-90v-176l-2 -187l-3 -221v-55v-51q0 -66 4.5 -127.5t12.5 -102.5q18 -102 88 -178q127 -145 334 -145q219 0 321 118q113 125 113 516v146l-2 182l-4 221l-2 150q31 -8 61 -8h35q21 4 35 8l-2 -98v-52l-2 -71v-27v-10v-37 l-2 -70l-2 -67l-4 -105l-3 -55v-107q0 -254 -27.5 -369.5t-111.5 -201.5q-150 -156 -438 -156q-260 0 -418 124t-158 339l-2 60l-2 30l-2 56v14v20l2 44v10v12v10v41l2 13v10v10l2 29v65v109l-2 28l2 19v88l-2 92l-4 119zM506 1692q0 43 27.5 70.5t72.5 27.5t72 -26.5 t27 -69.5q-1 -99 -99 -99q-43 0 -71.5 27t-28.5 70zM856 1692q0 43 27.5 70.5t74.5 27.5q45 0 72 -26.5t27 -69.5q-1 -99 -99 -99q-43 0 -72.5 28t-29.5 69z" />
<glyph unicode="&#xdd;" horiz-adv-x="1095" d="M-23 1401q51 -8 111 -8h70q31 6 45 8q43 -94 96 -199q45 -90 84 -162l96 -166l107 -169q47 76 100 169t99 179t85 168q27 53 84 180q33 -8 74 -8q37 0 78 8l-141 -238q-27 -45 -93 -153q-55 -92 -69 -119l-164 -283v-80v-63q0 -115 2 -172q10 -289 10 -293q-20 4 -44.5 6 t-47.5 2q-43 0 -90 -8l2 287l-4 282l-164 279l-149 254zM367 1536l284 299q49 55 107 55q27 0 45 -16t18 -41q0 -53 -59 -88l-328 -209h-67z" />
<glyph unicode="&#xde;" horiz-adv-x="1144" d="M174 1401l92 -2l96 2l3 -213q55 0 130.5 6t96.5 6l90 -2q39 -6 78 -10q141 -23 225 -115q90 -90 90 -237q0 -158 -85 -248t-216 -124t-287 -34l-129 6q0 -145 2 -253.5t9 -178.5l-86 6q-33 0 -51.5 -2t-51.5 -8l4 205l4 137v358v41v35v33v29v24v23q0 35 -1 69.5t-1 71.5 v21zM352 707l2 -199l105 -4q61 0 111.5 6t101.5 22q98 29 151 99q62 73 62 192q0 117 -51 187q-49 61 -134 90q-41 8 -91 14t-101 6l-143 -4q0 -37 -4.5 -120t-4.5 -89z" />
<glyph unicode="&#xdf;" horiz-adv-x="1116" d="M143 0v1006q0 297 127 426q102 104 291 104q129 0 209 -63.5t80 -165.5q0 -96 -64 -179q-6 -7 -110 -124q-59 -76 -60 -134q0 -51 31 -84q39 -43 191 -143q92 -63 135 -111q72 -80 71 -172q0 -147 -124.5 -263.5t-284.5 -116.5q-92 0 -197 45q27 63 47 155 q70 -66 129 -94q47 -23 91 -23q86 0 143 57.5t57 145.5q0 66 -26 111q-45 74 -183 172q-121 88 -151 117q-72 68 -72 137q0 76 82 166q109 123 150 196q35 63 34 119q0 90 -55 147.5t-147 57.5q-111 0 -172.5 -92t-61.5 -264q0 -63 3 -228.5t6 -429.5t3 -475h-59h-113z" />
<glyph unicode="&#xe0;" horiz-adv-x="983" d="M68 240q0 231 311 272l35 6l35 6l30 4l33 9l45 12l35 8q31 6 70 35q0 98 -4.5 131t-20.5 70q-23 49 -60.5 76.5t-93.5 27.5h-8l-6 2l-23 2h-8h-14q-154 0 -252 -141h-18l2 108q145 113 346 113h22h13q90 0 168 -61q16 -12 32 -29q10 -10 32 -38t32 -69q8 -57 9 -77.5 t1 -44.5v-46l-4 -352l2 -39l-2 -22l-2 -21q0 -61 22.5 -85.5t79.5 -24.5h25l6 -39l-23 -4l-6 -2l-86 -23l-8 -2l-16 -2h-11q-104 0 -129 121q-55 -49 -85.5 -70.5t-73.5 -38.5q-70 -29 -148 -28q-133 0 -208.5 67.5t-75.5 188.5zM205 1393q0 25 16.5 41t44.5 16 q53 0 107 -53l289 -301h-66l-330 209q-61 39 -61 88zM233 256q0 -86 49.5 -139.5t129.5 -53.5q115 0 211 93q35 33 34 96l-2 256l-20 -4l-90 -19l-33 -6l-33 -6l-22 -6l-62 -14q-12 -4 -40.5 -17.5t-45.5 -21.5q-76 -47 -76 -158z" />
<glyph unicode="&#xe1;" horiz-adv-x="983" d="M68 240q0 231 311 272l35 6l35 6l30 4l33 9l45 12l35 8q31 6 70 35q0 98 -4.5 131t-20.5 70q-23 49 -60.5 76.5t-93.5 27.5h-8l-6 2l-23 2h-8h-14q-154 0 -252 -141h-18l2 108q145 113 346 113h22h13q90 0 168 -61q16 -12 32 -29q10 -10 32 -38t32 -69q8 -57 9 -77.5 t1 -44.5v-46l-4 -352l2 -39l-2 -22l-2 -21q0 -61 22.5 -85.5t79.5 -24.5h25l6 -39l-23 -4l-6 -2l-86 -23l-8 -2l-16 -2h-11q-104 0 -129 121q-55 -49 -85.5 -70.5t-73.5 -38.5q-70 -29 -148 -28q-133 0 -208.5 67.5t-75.5 188.5zM233 256q0 -86 49.5 -139.5t129.5 -53.5 q115 0 211 93q35 33 34 96l-2 256l-20 -4l-90 -19l-33 -6l-33 -6l-22 -6l-62 -14q-12 -4 -40.5 -17.5t-45.5 -21.5q-76 -47 -76 -158zM309 1096l289 299q53 55 102 55q68 0 68 -61q0 -47 -61 -84l-326 -209h-72z" />
<glyph unicode="&#xe2;" horiz-adv-x="983" d="M68 240q0 231 311 272l35 6l35 6l30 4l33 9l45 12l35 8q31 6 70 35q0 98 -4.5 131t-20.5 70q-23 49 -60.5 76.5t-93.5 27.5h-8l-6 2l-23 2h-8h-14q-154 0 -252 -141h-18l2 108q145 113 346 113h22h13q90 0 168 -61q16 -12 32 -29q10 -10 32 -38t32 -69q8 -57 9 -77.5 t1 -44.5v-46l-4 -352l2 -39l-2 -22l-2 -21q0 -61 22.5 -85.5t79.5 -24.5h25l6 -39l-23 -4l-6 -2l-86 -23l-8 -2l-16 -2h-11q-104 0 -129 121q-55 -49 -85.5 -70.5t-73.5 -38.5q-70 -29 -148 -28q-133 0 -208.5 67.5t-75.5 188.5zM195 1096l231 348h119l235 -348h-61 l-232 213l-231 -213h-61zM233 256q0 -86 49.5 -139.5t129.5 -53.5q115 0 211 93q35 33 34 96l-2 256l-20 -4l-90 -19l-33 -6l-33 -6l-22 -6l-62 -14q-12 -4 -40.5 -17.5t-45.5 -21.5q-76 -47 -76 -158z" />
<glyph unicode="&#xe3;" horiz-adv-x="983" d="M70 238q0 236 309 274l35 6l35 6l32 6l31 7l45 12q41 8 61 18l44 25q0 150 -24 200t-61.5 77.5t-93.5 27.5l-8 2l-49 2q-158 0 -254 -141h-18l2 108q150 113 340 113h59q31 -2 65.5 -15.5t63.5 -31.5q49 -31 84 -78q23 -29 33 -74t10 -120v-46l-4 -352l2 -39l-2 -22 l-2 -21q0 -61 22.5 -85.5t79.5 -24.5h25l6 -39l-20 -4l-9 -2l-14 -4l-10 -5l-25 -6l-37 -8l-39 -4q-98 0 -125 121q-47 -43 -83.5 -67.5t-73.5 -41.5q-76 -29 -148 -28q-135 0 -209.5 66.5t-74.5 187.5zM201 1145q47 211 192 211q51 0 96 -19l21 -6l41 -8q27 -8 42 -10 t30 -2q37 0 58 18.5t38 67.5h55q-25 -109 -68.5 -156t-119.5 -47q-18 0 -51 4t-50 8l-34 11l-29 6l-45 8l-31 4q-68 0 -94 -90h-51zM236 256q0 -86 49 -139.5t129 -53.5q49 0 107.5 26t97 61.5t38.5 101.5l-2 256l-28 -6l-82 -17l-33 -6l-31 -6l-47 -10q-104 -25 -151 -74 t-47 -133z" />
<glyph unicode="&#xe4;" horiz-adv-x="983" d="M70 238q0 236 309 274l35 6l35 6l32 6l31 7l45 12q41 8 61 18l44 25q0 150 -24 200t-61.5 77.5t-93.5 27.5l-8 2l-49 2q-158 0 -254 -141h-18l2 108q150 113 340 113h59q31 -2 65.5 -15.5t63.5 -31.5q49 -31 84 -78q23 -29 33 -74t10 -120v-46l-4 -352l2 -39l-2 -22 l-2 -21q0 -61 22.5 -85.5t79.5 -24.5h25l6 -39l-20 -4l-9 -2l-14 -4l-10 -5l-25 -6l-37 -8l-39 -4q-98 0 -125 121q-47 -43 -83.5 -67.5t-73.5 -41.5q-76 -29 -148 -28q-135 0 -209.5 66.5t-74.5 187.5zM211 1249q0 43 27.5 71t72.5 28q43 0 72 -27t29 -70q-2 -43 -29 -70.5 t-70 -27.5t-72.5 27.5t-29.5 68.5zM236 256q0 -86 49 -139.5t129 -53.5q49 0 107.5 26t97 61.5t38.5 101.5l-2 256l-28 -6l-82 -17l-33 -6l-31 -6l-47 -10q-104 -25 -151 -74t-47 -133zM561 1249q0 43 27.5 71t75.5 28q43 0 71.5 -27t28.5 -70q-2 -43 -28.5 -70.5 t-69.5 -27.5q-45 0 -75 27.5t-30 68.5z" />
<glyph unicode="&#xe5;" horiz-adv-x="983" d="M70 238q0 236 309 274l35 6l35 6l32 6l31 7l45 12q41 8 61 18l44 25q0 100 -12.5 157.5t-39.5 90.5q-49 63 -180 63q-156 0 -258 -143h-18l2 108q150 113 340 113h59q31 -2 65.5 -15.5t63.5 -31.5q49 -31 84 -78q23 -29 33 -74t10 -120v-46l-4 -352l2 -39l-2 -22l-2 -21 q0 -61 22.5 -85.5t79.5 -24.5h25l6 -39l-20 -4l-9 -2l-14 -4l-10 -5l-25 -6l-37 -8l-39 -4q-98 0 -125 121q-47 -43 -83.5 -67.5t-73.5 -41.5q-76 -29 -148 -28q-135 0 -209.5 66.5t-74.5 187.5zM236 256q0 -86 49 -139.5t129 -53.5q49 0 107.5 26t97 61.5t38.5 101.5 l-2 256l-28 -6l-82 -17l-33 -6l-31 -6l-47 -10q-104 -25 -151 -74t-47 -133zM246 1290q0 115 71.5 184.5t192.5 69.5q98 0 163.5 -65.5t65.5 -167.5q0 -115 -69.5 -186.5t-184.5 -71.5q-104 0 -171.5 67.5t-67.5 169.5zM338 1288q0 -78 43 -127t115 -49q68 0 109.5 54.5 t41.5 142.5q0 80 -42.5 129t-112.5 49q-68 0 -111 -55.5t-43 -143.5z" />
<glyph unicode="&#xe6;" horiz-adv-x="1556" d="M66 236q0 207 237 266q125 20 139 22q74 14 93 19q80 20 122 49q0 168 -32 225q-49 84 -205 84q-158 0 -254 -141h-16l2 108q139 113 325 113q113 0 182 -41q58 -32 109 -104q68 74 113 100q82 47 209 47q182 0 278 -96q119 -119 119 -387l-684 -4q0 -195 69 -301 q82 -125 263 -125q82 0 157.5 30.5t157.5 112.5l-10 -113q-88 -59 -154 -84q-88 -33 -194 -32q-303 0 -394 235q-47 -125 -132 -182t-204 -57q-113 0 -186 43q-111 63 -110 213zM229 256q0 -84 49.5 -137t129.5 -53q96 0 161 51q92 72 93 229l-11 158q-10 0 -41.5 -4 t-105.5 -19q-145 -25 -210 -77t-65 -148zM803 567h524q0 164 -67.5 260.5t-178.5 96.5q-104 0 -180 -76q-98 -98 -98 -281z" />
<glyph unicode="&#xe7;" horiz-adv-x="948" d="M68 487q0 221 140 357.5t367 136.5q76 0 121 -8q92 -16 211 -72q-16 -39 -29.5 -86t-21.5 -88q-55 104 -119.5 148.5t-167.5 44.5q-158 0 -245.5 -117t-87.5 -328q0 -162 77 -280q94 -143 269 -144q96 0 164.5 34t154.5 116q0 -20 -2 -51t-2 -44q0 -18 2 -26 q-152 -102 -340 -103v-90l68 7q82 0 129 -41t47 -115q0 -84 -54.5 -130t-154.5 -46q-47 0 -70 4q-61 10 -229 61l29 70q70 -31 123 -45t108 -14q119 0 119 88q0 43 -32 68.5t-81 25.5q-33 0 -63 -8l-2 170q-172 23 -285 129q-143 137 -143 376z" />
<glyph unicode="&#xe8;" horiz-adv-x="1036" d="M70 492q0 221 131 358t340 137q98 0 182 -34.5t137 -98.5q94 -115 94 -326v-16l-2 -16h-706q0 -207 92 -320t258 -113q72 0 143 27q47 18 77 37.5t89 73.5q-4 -29 -4 -49v-25v-27l-41 -30q-25 -16 -59.5 -34t-69.5 -28t-87 -18t-95 -8q-209 0 -344 143t-135 367z M229 1393q0 27 17.5 42t46.5 15q51 0 104 -53l289 -301h-65l-328 209q-63 37 -64 88zM250 567h541v25q0 147 -72 241.5t-182 94.5q-119 0 -203 -101.5t-84 -259.5z" />
<glyph unicode="&#xe9;" horiz-adv-x="1036" d="M70 492q0 221 131 358t340 137q98 0 182 -34.5t137 -98.5q94 -115 94 -326v-16l-2 -16h-706q0 -207 92 -320t258 -113q72 0 143 27q47 18 77 37.5t89 73.5q-4 -29 -4 -49v-25v-27l-41 -30q-25 -16 -59.5 -34t-69.5 -28t-87 -18t-95 -8q-209 0 -344 143t-135 367zM250 567 h541v25q0 147 -72 241.5t-182 94.5q-119 0 -203 -101.5t-84 -259.5zM336 1096l287 301q53 53 102 53q16 0 43 -12q23 -22 23 -47q0 -45 -62 -86l-328 -209h-65z" />
<glyph unicode="&#xea;" horiz-adv-x="1036" d="M70 492q0 221 131 358t340 137q98 0 182 -34.5t137 -98.5q94 -115 94 -326v-16l-2 -16h-706q0 -207 92 -320t258 -113q72 0 143 27q47 18 77 37.5t89 73.5q-4 -29 -4 -49v-25v-27l-41 -30q-25 -16 -59.5 -34t-69.5 -28t-87 -18t-95 -8q-209 0 -344 143t-135 367z M217 1096l234 348h116l238 -348h-64l-231 213l-229 -213h-64zM250 567h541v25q0 147 -72 241.5t-182 94.5q-119 0 -203 -101.5t-84 -259.5z" />
<glyph unicode="&#xeb;" horiz-adv-x="1036" d="M70 492q0 221 131 358t340 137q98 0 182 -34.5t137 -98.5q94 -115 94 -326v-16l-2 -16h-706q0 -207 92 -320t258 -113q72 0 143 27q47 18 77 37.5t89 73.5q-4 -29 -4 -49v-25v-27l-41 -30q-25 -16 -59.5 -34t-69.5 -28t-87 -18t-95 -8q-209 0 -344 143t-135 367z M233 1249q0 43 28 71t75 28q43 0 71.5 -27t28.5 -70q-2 -45 -28.5 -71.5t-69.5 -26.5q-45 0 -75 27.5t-30 68.5zM250 567h541v25q0 147 -72 241.5t-182 94.5q-119 0 -203 -101.5t-84 -259.5zM586 1249q0 43 27.5 71t72.5 28t73.5 -27t28.5 -70q-2 -45 -28.5 -71.5 t-71.5 -26.5q-43 0 -72.5 27.5t-29.5 68.5z" />
<glyph unicode="&#xec;" horiz-adv-x="507" d="M-31 1393q0 27 17.5 42t46.5 15q51 0 104 -53l289 -301h-66l-327 209q-63 37 -64 88zM164 969q49 -12 86 -13q33 0 82 13l-6 -244v-244l2 -239l8 -242q-43 8 -82 8q-43 0 -86 -8l8 242v239l-2 244z" />
<glyph unicode="&#xed;" horiz-adv-x="507" d="M76 1096l286 301q53 53 103 53h12t33 -12q20 -22 20 -47q0 -47 -61 -86l-328 -209h-65zM164 969q49 -12 86 -13q33 0 82 13l-6 -244v-244l2 -239l8 -242q-43 8 -82 8q-43 0 -86 -8l8 242v239l-2 244z" />
<glyph unicode="&#xee;" horiz-adv-x="507" d="M-43 1096l233 348h117l238 -348h-64l-229 213l-232 -213h-63zM164 969q49 -12 86 -13q33 0 82 13l-6 -244v-244l2 -239l8 -242q-43 8 -82 8q-43 0 -86 -8l8 242v239l-2 244z" />
<glyph unicode="&#xef;" horiz-adv-x="507" d="M-25 1249q0 43 28 71t73 28q43 0 71.5 -27t28.5 -70q-2 -43 -28.5 -70.5t-69.5 -27.5q-45 0 -74 26.5t-29 69.5zM164 969q49 -12 86 -13q33 0 82 13l-6 -244v-244l2 -239l8 -242q-43 8 -82 8q-43 0 -86 -8l8 242v239l-2 244zM326 1249q0 43 27.5 71t74.5 28 q43 0 71.5 -27t28.5 -70q-2 -45 -28.5 -71.5t-71.5 -26.5q-43 0 -72.5 27.5t-29.5 68.5z" />
<glyph unicode="&#xf0;" horiz-adv-x="1120" d="M72 481q0 199 112 338q131 162 367 162q102 0 182 -29q-33 41 -92 103q-80 82 -172 166l-213 -195l-45 55q47 39 94 80q27 23 115 107q-35 33 -68 67q-63 59 -131 113l92 88q29 -33 58 -63q90 -92 129 -140l202 183l48 -58q-100 -82 -199 -172q195 -186 250 -246 q121 -131 174 -245q63 -138 63 -314q0 -215 -125 -354q-131 -147 -356 -147q-188 0 -326 118q-160 139 -159 383zM246 487q0 -209 77.5 -326.5t233.5 -117.5q141 0 221 92q92 105 92 324q0 207 -61 319q-78 145 -258 146q-166 0 -244 -142q-61 -113 -61 -295z" />
<glyph unicode="&#xf1;" horiz-adv-x="1120" d="M147 969q47 -12 84 -13q33 0 80 13l-2 -19l-2 -73l4 -89l41 60q59 76 142 110q55 27 135 27q186 0 278 -125q57 -80 58 -233v-9l-2 -8v-16v-35v-27v-26l-2 -29v-82v-82l2 -166l6 -147q-47 8 -88 8q-39 0 -80 -8v47l4 74l2 59l4 297q0 158 -8 212t-41 98t-85 71t-106 27 l-39 -4q-121 -23 -170 -117t-49 -305v-168l6 -193l5 -98q-41 8 -82 8t-90 -8l8 242l2 239l-4 244zM266 1145q27 109 73 160t122 51q45 0 96 -19l14 -4l45 -10l19 -6l22 -2l15 -4h20q66 0 94 86h56q-25 -111 -67 -157t-122 -46q-18 0 -51 4t-49 8l-35 11l-29 6l-43 8l-30 4 q-66 0 -97 -90h-53z" />
<glyph unicode="&#xf2;" horiz-adv-x="1120" d="M74 483q0 219 133 358.5t348 139.5t351 -138t136 -356q0 -225 -137 -366t-352 -141q-207 0 -343 142t-136 361zM244 473l2 -29v-16q0 -61 24.5 -143t53.5 -123q82 -119 233 -119q150 0 231.5 108.5t81.5 303.5v20q0 84 -20.5 170t-54.5 150q-72 129 -242 129 q-145 0 -227 -113t-82 -317v-13v-8zM272 1393q0 27 17.5 42t46.5 15q51 0 104 -53l289 -301h-65l-328 209q-63 37 -64 88z" />
<glyph unicode="&#xf3;" horiz-adv-x="1120" d="M74 483q0 219 133 358.5t348 139.5t351 -138t136 -356q0 -225 -137 -366t-352 -141q-207 0 -343 142t-136 361zM244 473l2 -29v-16q0 -61 24.5 -143t53.5 -123q82 -119 233 -119q150 0 231.5 108.5t81.5 303.5v20q0 84 -20.5 170t-54.5 150q-72 129 -242 129 q-145 0 -227 -113t-82 -317v-13v-8zM381 1096l285 301q51 53 106 53q63 0 64 -59q0 -45 -62 -86l-325 -209h-68z" />
<glyph unicode="&#xf4;" horiz-adv-x="1120" d="M74 483q0 219 133 358.5t348 139.5t351 -138t136 -356q0 -225 -137 -366t-352 -141q-207 0 -343 142t-136 361zM244 473l2 -29v-16q0 -61 24.5 -143t53.5 -123q82 -119 233 -119q150 0 231.5 108.5t81.5 303.5v20q0 84 -20.5 170t-54.5 150q-72 129 -242 129 q-145 0 -227 -113t-82 -317v-13v-8zM262 1096l232 348h120l234 -348h-60l-233 213l-231 -213h-62z" />
<glyph unicode="&#xf5;" horiz-adv-x="1120" d="M74 483q0 219 133 358.5t348 139.5t351 -138t136 -356q0 -225 -137 -366t-352 -141q-207 0 -343 142t-136 361zM244 473l2 -29v-16q0 -61 24.5 -143t53.5 -123q82 -119 233 -119q150 0 231.5 108.5t81.5 303.5v20q0 84 -20.5 170t-54.5 150q-72 129 -242 129 q-145 0 -227 -113t-82 -317v-13v-8zM266 1145q27 109 73 160t122 51q45 0 96 -19l14 -4l45 -10l19 -6l22 -2l15 -4h20q66 0 94 86h56q-25 -111 -67 -157t-122 -46q-18 0 -51 4t-49 8l-35 11l-29 6l-43 8l-30 4q-66 0 -97 -90h-53z" />
<glyph unicode="&#xf6;" horiz-adv-x="1120" d="M74 483q0 219 133 358.5t348 139.5t351 -138t136 -356q0 -225 -137 -366t-352 -141q-207 0 -343 142t-136 361zM244 473l2 -29v-16q0 -61 24.5 -143t53.5 -123q82 -119 233 -119q150 0 231.5 108.5t81.5 303.5v20q0 84 -20.5 170t-54.5 150q-72 129 -242 129 q-145 0 -227 -113t-82 -317v-13v-8zM281 1251q0 96 98 97q43 0 71.5 -27t28.5 -70q-2 -45 -28.5 -71.5t-69.5 -26.5q-45 0 -72.5 27.5t-27.5 70.5zM631 1249q0 43 27.5 71t70.5 28q45 0 73.5 -27t28.5 -70q-2 -43 -28.5 -70.5t-69.5 -27.5t-72.5 27.5t-29.5 68.5z" />
<glyph unicode="&#xf7;" horiz-adv-x="1703" d="M250 567v84h1200v-84h-1200zM774 799q0 31 21.5 52t52.5 21q29 0 51.5 -22t22.5 -51q0 -31 -21.5 -52.5t-52.5 -21.5t-52.5 21.5t-21.5 52.5zM778 422q0 31 21.5 52.5t52.5 21.5q29 0 51.5 -20.5t22.5 -51.5t-20.5 -53.5t-53.5 -22.5q-31 0 -52.5 21.5t-21.5 52.5z" />
<glyph unicode="&#xf8;" horiz-adv-x="1120" d="M33 -80q31 31 63 66q53 57 117 135q-55 59 -90 127q-53 109 -53 235q0 219 135 358.5t350 139.5q78 0 142.5 -18.5t142.5 -65.5q14 20 80 113q37 51 59 86q10 -10 20 -19q9 -6 62 -35q-59 -61 -88 -96q-37 -43 -76 -94q74 -80 110.5 -171t36.5 -208q0 -215 -138 -353 t-353 -138q-84 0 -147.5 19t-141.5 71q-51 -63 -76 -95q-37 -45 -84 -112q-18 18 -29.5 27.5t-41.5 27.5zM242 500q0 -88 10 -145.5t39 -135.5l485 598q-49 61 -99 85t-124 24q-147 0 -229 -113t-82 -313zM328 152q39 -49 90 -79t125 -30q326 0 325 418q0 74 -4 106 q-10 86 -49 185z" />
<glyph unicode="&#xf9;" d="M152 328v41l4 28l-2 6l2 19v18v52l2 12l4 174v86l2 12l-2 58l-2 40l-4 95l71 -11l25 3l35 4h16l21 4q-6 -63 -11.5 -129t-5.5 -113l-2 -80l-2 -8l2 -10l-4 -23v-31v-59q0 -20 -1 -52t-1 -75v-33v-45q0 -102 65.5 -169.5t165.5 -67.5l11 2h12q106 0 178 82 q18 20 33.5 44.5t23.5 53.5l11 59l2 35l2 66l4 188l2 92v11l-2 16v55l-2 70l-8 121l14 -4l63 -7l9 3l28 2l25 2l12 2l17 2q0 -47 -4.5 -115t-4.5 -117l-4 -256l2 -131l2 -35l2 -67v-94l3 -29l2 -125h-13h-12l-41 2h-12l-43 -2h-15h-10h-8v43l-4 121q-76 -109 -153 -149 t-183 -40q-84 0 -154.5 33t-109.5 90q-53 82 -53 230zM272 1393q0 27 17.5 42t46.5 15q51 0 104 -53l289 -301h-65l-328 209q-63 37 -64 88z" />
<glyph unicode="&#xfa;" d="M152 328v41l4 28l-2 6l2 19v18v52l2 12l4 174v86l2 12l-2 58l-2 40l-4 95l71 -11l25 3l35 4h16l21 4q-6 -63 -11.5 -129t-5.5 -113l-2 -80l-2 -8l2 -10l-4 -23v-31v-59q0 -20 -1 -52t-1 -75v-33v-45q0 -102 65.5 -169.5t165.5 -67.5l11 2h12q106 0 178 82 q18 20 33.5 44.5t23.5 53.5l11 59l2 35l2 66l4 188l2 92v11l-2 16v55l-2 70l-8 121l14 -4l63 -7l9 3l28 2l25 2l12 2l17 2q0 -47 -4.5 -115t-4.5 -117l-4 -256l2 -131l2 -35l2 -67v-94l3 -29l2 -125h-13h-12l-41 2h-12l-43 -2h-15h-10h-8v43l-4 121q-76 -109 -153 -149 t-183 -40q-84 0 -154.5 33t-109.5 90q-53 82 -53 230zM381 1096l285 301q51 53 106 53q63 0 64 -59q0 -49 -62 -86l-325 -209h-68z" />
<glyph unicode="&#xfb;" d="M152 328v41l4 28l-2 6l2 19v18v52l2 12l4 174v86l2 12l-2 58l-2 40l-4 95l71 -11l25 3l35 4h16l21 4q-6 -63 -11.5 -129t-5.5 -113l-2 -80l-2 -8l2 -10l-4 -23v-31v-59q0 -20 -1 -52t-1 -75v-33v-45q0 -102 65.5 -169.5t165.5 -67.5l11 2h12q106 0 178 82 q18 20 33.5 44.5t23.5 53.5l11 59l2 35l2 66l4 188l2 92v11l-2 16v55l-2 70l-8 121l14 -4l63 -7l9 3l28 2l25 2l12 2l17 2q0 -47 -4.5 -115t-4.5 -117l-4 -256l2 -131l2 -35l2 -67v-94l3 -29l2 -125h-13h-12l-41 2h-12l-43 -2h-15h-10h-8v43l-4 121q-76 -109 -153 -149 t-183 -40q-84 0 -154.5 33t-109.5 90q-53 82 -53 230zM262 1096l232 348h120l234 -348h-60l-233 213l-231 -213h-62z" />
<glyph unicode="&#xfc;" d="M152 328v41l4 28l-2 6l2 19v18v52l2 12l4 174v86l2 12l-2 58l-2 40l-4 95l71 -11l25 3l35 4h16l21 4q-6 -63 -11.5 -129t-5.5 -113l-2 -80l-2 -8l2 -10l-4 -23v-31v-59q0 -20 -1 -52t-1 -75v-33v-45q0 -102 65.5 -169.5t165.5 -67.5l11 2h12q106 0 178 82 q18 20 33.5 44.5t23.5 53.5l11 59l2 35l2 66l4 188l2 92v11l-2 16v55l-2 70l-8 121l14 -4l63 -7l9 3l28 2l25 2l12 2l17 2q0 -47 -4.5 -115t-4.5 -117l-4 -256l2 -131l2 -35l2 -67v-94l3 -29l2 -125h-13h-12l-41 2h-12l-43 -2h-15h-10h-8v43l-4 121q-76 -109 -153 -149 t-183 -40q-84 0 -154.5 33t-109.5 90q-53 82 -53 230zM279 1249q0 98 102 99q41 0 69.5 -27t28.5 -70t-27.5 -70.5t-68.5 -27.5q-47 0 -75.5 26.5t-28.5 69.5zM631 1249q0 45 26.5 72t75.5 27q41 0 69.5 -27t28.5 -70t-27.5 -70.5t-70.5 -27.5t-72.5 27.5t-29.5 68.5z" />
<glyph unicode="&#xfd;" horiz-adv-x="956" d="M16 969q27 -6 52.5 -9.5t50.5 -3.5t49.5 4.5t44.5 8.5q31 -92 63.5 -184.5t71.5 -190.5l160 -397l170 401l74 201l55 170q37 -8 43 -11q12 -2 29 -2q22 1 67 13l-100 -211l-92 -213l-275 -617l-110 -274q-37 -88 -70 -209h-74h-71q37 63 67 119q41 76 72 142.5t82 184.5 q14 33 49 117l-84 223q-25 61 -37 93q-20 51 -45 102l-96 225q-27 61 -64 142q-43 94 -82 176zM299 1096l287 301q51 53 104 53q33 0 47 -12q19 -22 19 -45q0 -53 -62 -88l-325 -209h-70z" />
<glyph unicode="&#xfe;" horiz-adv-x="1144" d="M150 1536q39 -8 88 -8q45 0 84 8l-13 -352l-6 -400q61 98 150 154q80 47 198 47h37q63 0 114.5 -19.5t98.5 -58.5q88 -72 123 -176q18 -49 29.5 -112.5t11.5 -122.5q0 -143 -43 -260q-49 -117 -146.5 -189t-234.5 -72q-106 0 -185 41t-141 131v-243q0 -33 4.5 -125 t4.5 -117l6 -217l-86 4l-86 -4l8 367l4 428l-2 307l-2 266l-2 248l-8 248zM301 479q0 -94 18.5 -166.5t55.5 -138.5q66 -123 227 -123q154 0 221.5 130t67.5 306q0 76 -13.5 142.5t-45 128t-80.5 96.5q-53 47 -127 47h-29q-123 0 -190 -84q-59 -63 -82 -143 q-12 -39 -17.5 -83t-5.5 -112z" />
<glyph unicode="&#xff;" horiz-adv-x="956" d="M16 969q61 -12 103 -13q45 0 94 13l51 -152l84 -223l62 -156l98 -241l33 82l53 120l43 101l61 151l27 76l27 72l55 170q43 -12 72 -13q24 1 67 13l-18 -39l-31 -64l-25 -53q-25 -53 -34 -74q-16 -41 -29 -69l-39 -82l-8 -23l-8 -20l-275 -617l-55 -137l-39 -96l-10 -23 l-6 -18l-29 -78q-6 -16 -20.5 -60t-20.5 -71h-74h-71l26 47q2 4 37 68q8 12 23 39q23 45 32 67q39 82 70 150l55 131l27 61l-84 223l-59 144l-23 51l-12 31l-13 30l-34 80l-37 84l-25 54zM201 1251q0 96 98 97q43 0 71.5 -27t28.5 -70q-2 -45 -28.5 -71.5t-71.5 -26.5 q-43 0 -70.5 27.5t-27.5 70.5zM549 1249q0 43 27.5 71t72.5 28t74 -27t29 -70q-2 -45 -29 -71.5t-72 -26.5q-43 0 -72.5 27.5t-29.5 68.5z" />
<glyph unicode="&#x152;" horiz-adv-x="2052" d="M84 676q0 354 197.5 551.5t554.5 197.5q133 0 235 -32q139 -45 254 -156l-2 164h664q0 -18 -1 -38t-1 -40q0 -33 2 -43q-66 6 -231 12t-267 6v-510q59 0 218 8.5t226 8.5q-4 -29 -4 -57q0 -33 6 -68q-45 6 -179 10t-265 4l2 -594h37q123 0 202.5 3t268.5 22v-125h-680 v172q-111 -104 -228.5 -152.5t-289.5 -48.5q-319 0 -519 195.5t-200 509.5zM285 647q0 -236 106 -395q137 -205 416 -205q520 0 520 666q0 635 -514 635q-219 0 -342 -109q-186 -166 -186 -592z" />
<glyph unicode="&#x153;" horiz-adv-x="1816" d="M74 467q0 227 141 370.5t369 143.5q111 0 188 -31q98 -39 184 -137q131 174 371 174q172 0 262 -69q152 -117 152 -422h-713q0 -174 53 -277q84 -162 301 -162q74 0 129 21q88 33 183 127l-4 -101q-152 -127 -347 -127q-254 0 -389 183q-88 -94 -183 -137t-216 -43 q-209 0 -345 138t-136 349zM256 461q0 -160 61 -271q82 -147 252 -147q150 0 232 113.5t82 322.5t-85 327t-235 118q-307 0 -307 -463zM1036 567h543q0 168 -68.5 263.5t-187.5 95.5t-203 -102.5t-84 -256.5z" />
<glyph unicode="&#x178;" horiz-adv-x="1095" d="M-23 1401q27 -4 54.5 -6t56.5 -2q57 0 115 8l73 -154l58 -108q43 -88 58.5 -114t72.5 -124l14 -27l80 -129l27 -40l100 172l96 172l88 174l84 178q33 -8 74 -8h47q21 6 31 8l-31 -51l-45 -72l-33 -57l-32 -58l-74 -121l-41 -71l-47 -80l-141 -246l-23 -37v-80v-8v-71 l2 -216l10 -233q-49 8 -90 8q-43 0 -92 -8v72l2 213l-2 221l-2 63l-82 142l-82 137l-33 55l-30 51l-47 78l-37 66l-45 78l-60 98l-47 82zM305 1630q0 98 98 99q45 0 74 -27t29 -70t-28.5 -69.5t-71.5 -26.5q-45 0 -73 25.5t-28 68.5zM657 1630q0 43 28 71t73 28 q43 0 70.5 -28t27.5 -71q2 -43 -25.5 -68.5t-72.5 -25.5q-43 0 -72 26.5t-29 67.5z" />
<glyph unicode="&#x2c6;" horiz-adv-x="1024" d="M213 1096l233 348h117l236 -348h-62l-231 213l-230 -213h-63z" />
<glyph unicode="&#x2dc;" horiz-adv-x="1024" d="M217 1145q51 211 197 211q27 0 71 -10q16 -4 82 -23q10 -4 39 -8t37 -4q66 0 94 86h58q-27 -111 -70 -157t-121 -46q-18 0 -51 4t-49 8q-57 16 -87 22.5t-50 6.5q-61 0 -97 -90h-53z" />
<glyph unicode="&#x2000;" horiz-adv-x="985" />
<glyph unicode="&#x2001;" horiz-adv-x="1970" />
<glyph unicode="&#x2002;" horiz-adv-x="985" />
<glyph unicode="&#x2003;" horiz-adv-x="1970" />
<glyph unicode="&#x2004;" horiz-adv-x="656" />
<glyph unicode="&#x2005;" horiz-adv-x="492" />
<glyph unicode="&#x2006;" horiz-adv-x="328" />
<glyph unicode="&#x2007;" horiz-adv-x="328" />
<glyph unicode="&#x2008;" horiz-adv-x="246" />
<glyph unicode="&#x2009;" horiz-adv-x="394" />
<glyph unicode="&#x200a;" horiz-adv-x="109" />
<glyph unicode="&#x2010;" horiz-adv-x="679" d="M88 559h502v-127h-500z" />
<glyph unicode="&#x2011;" horiz-adv-x="679" d="M88 559h502v-127h-500z" />
<glyph unicode="&#x2012;" horiz-adv-x="679" d="M88 559h502v-127h-500z" />
<glyph unicode="&#x2013;" horiz-adv-x="1024" d="M-2 444v97h1024v-97h-1024z" />
<glyph unicode="&#x2014;" horiz-adv-x="2048" d="M-2 541h2042l6 -97h-2044z" />
<glyph unicode="&#x2018;" horiz-adv-x="559" d="M147 940q0 29 25 76l238 405l28 -12l-127 -453q-27 -94 -90 -94q-31 0 -52.5 23.5t-21.5 54.5z" />
<glyph unicode="&#x2019;" horiz-adv-x="559" d="M156 881l123 448q25 90 94 90q76 0 76 -80q2 -16 -4.5 -35.5t-18.5 -35.5l-242 -406z" />
<glyph unicode="&#x201a;" horiz-adv-x="542" d="M84 -315l129 444q27 92 96 92q31 0 53.5 -23.5t22.5 -58.5q0 -33 -25 -76l-241 -395z" />
<glyph unicode="&#x201c;" horiz-adv-x="892" d="M145 936q0 25 5 37q4 10 22 43l238 405l32 -12l-127 -453q-27 -96 -100 -96q-29 0 -49.5 22.5t-20.5 53.5zM479 938q0 35 25 78l241 405l29 -12l-127 -453q-29 -96 -96 -96q-31 0 -51.5 22.5t-20.5 55.5z" />
<glyph unicode="&#x201d;" horiz-adv-x="892" d="M156 881l123 448q25 90 94 90q76 0 76 -80q2 -16 -4.5 -35.5t-18.5 -35.5l-242 -406zM487 881l127 448q25 90 91 90q29 0 52 -18.5t23 -61.5q0 -37 -20 -71l-244 -406z" />
<glyph unicode="&#x201e;" horiz-adv-x="892" d="M84 -315l129 444q27 92 96 92q31 0 53.5 -23.5t22.5 -58.5q0 -33 -25 -76l-241 -395zM420 -315l131 444q32 92 98 92q31 0 52.5 -23.5t21.5 -60.5t-23 -74l-241 -395z" />
<glyph unicode="&#x2022;" horiz-adv-x="559" d="M170 676q0 45 29.5 76.5t70.5 31.5q47 0 80 -28.5t33 -71.5q0 -47 -27.5 -76.5t-72.5 -29.5t-79 28.5t-34 69.5z" />
<glyph unicode="&#x2026;" horiz-adv-x="2048" d="M225 88q0 49 32 85t79 36t84 -33t37 -76q0 -49 -33 -83.5t-78 -34.5q-47 0 -84 32.5t-37 73.5zM903 90q0 49 33 84t78 35q49 0 86 -33t37 -76q0 -49 -33 -83.5t-80 -34.5t-84 32.5t-37 75.5zM1587 90q0 49 33 84t78 35q49 0 86 -33t37 -76q0 -49 -33 -83.5t-80 -34.5 t-84 32.5t-37 75.5z" />
<glyph unicode="&#x202f;" horiz-adv-x="394" />
<glyph unicode="&#x2039;" horiz-adv-x="483" d="M70 483l327 486l49 -58l-243 -428l246 -428l-46 -55z" />
<glyph unicode="&#x203a;" horiz-adv-x="483" d="M35 911l37 58l334 -486l-330 -483l-39 55l237 428z" />
<glyph unicode="&#x205f;" horiz-adv-x="492" />
<glyph unicode="&#x2122;" horiz-adv-x="1703" d="M252 1481q4 12 4 24q0 6 -4 31h467q-2 -8 -2 -29q0 -22 2 -28q-39 6 -79 10t-112 4l2 -588q-29 4 -41 4q-10 0 -43 -4v588q-63 0 -100 -2t-94 -10zM731 901q10 41 33 209q43 301 59 430h15l262 -500l270 500h12q20 -203 41 -362.5t35 -276.5q-20 4 -43 4q-8 0 -41 -4 q0 63 -13 205.5t-36 253.5q-35 -55 -96 -172q-90 -170 -137 -287h-15q-18 53 -65 148q-55 109 -166 311q-10 -74 -26.5 -246t-16.5 -213q-25 4 -35 4q-8 0 -37 -4z" />
<glyph unicode="&#xe000;" horiz-adv-x="972" d="M0 0v973h973v-973h-973z" />
</font>
</defs>
</svg>
