<?xml version="1.0" standalone="no"?>
<!DOCTYPE svg PUBLIC "-//W3C//DTD SVG 1.1//EN" "http://www.w3.org/Graphics/SVG/1.1/DTD/svg11.dtd" >
<svg xmlns="http://www.w3.org/2000/svg">
<metadata></metadata>
<defs>
<font id="aquilineregular" horiz-adv-x="1024" >
<font-face units-per-em="2048" ascent="1638" descent="-410" />
<missing-glyph horiz-adv-x="524" />
<glyph horiz-adv-x="2048" />
<glyph horiz-adv-x="2048" />
<glyph unicode="&#xd;" />
<glyph unicode=" "  horiz-adv-x="524" />
<glyph unicode="&#x09;" horiz-adv-x="524" />
<glyph unicode="&#xa0;" horiz-adv-x="524" />
<glyph unicode="!" horiz-adv-x="962" d="M168 12q-6 -16 8 -45q8 -27 60 -26q6 0 12 2q72 29 88 43q6 10 15 20t28 23q23 23 20 49q-6 39 -2 47q6 14 23 37q6 10 2 49l-6 4l2 -4q-14 39 -51 39q-11 0 -25 -6v-2q-53 -20 -70.5 -43t-31.5 -45q-23 -25 -62 -80l-8 -6q2 -20 -2 -56zM420 469q0 -8 62.5 83t78.5 169 q4 20 0 49q-4 31 -2 43q4 20 29.5 54t29.5 53q-2 23 3 67q8 18 20 55v5q6 29 18 112q-8 0 16.5 55.5t59.5 88.5q6 4 4 16q-4 16 -2 20q0 4 29 41l4 9q2 10 2 28q-2 18 0 27l6 16q27 25 37 68q14 61 20.5 73.5t49.5 39t73 26.5q35 0 37 -39h-2q2 -12 -11 -31.5t-15 -29.5 q2 -18 2 -56q-4 -16 -22.5 -38.5t-22.5 -32.5q-43 -94 -52 -185q2 -33 -6 -98l-4 -12l-6 2l-25 -49q-6 -39 -55 -199l2 -90q-16 -20 -34.5 -70.5t-32.5 -70.5l-15 -4q-47 -47 -57 -70q-4 -8 -23 -84q-2 -8 -8 -25l-14 -4q-31 -31 -59 -61q-4 -2 -97 -19q-23 53 -18 68z" />
<glyph unicode="&#x22;" horiz-adv-x="864" d="M125 1227l6 18q2 12 43 53t66 107l-2 2q18 16 43 43l-2 39q10 20 32 59q14 23 30.5 45.5t72.5 44.5q12 4 24 4q35 0 49 -34v2l7 -2q4 -39 0 -49q-18 -27 -23 -39q-2 -8 0 -47q2 -27 -20 -50q-10 -6 -29 -20q-16 -27 -53 -70q-39 -29 -97 -51q-10 2 -28 0 q-12 -4 -38 -27.5t-65 -35.5zM451 1229l6 18q2 12 42.5 53t65.5 107l-2 2q18 16 43 43l-2 39q10 20 33 59q14 23 30.5 45.5t71.5 44.5q12 4 25 5q35 0 49 -35v2l6 -2q4 -39 0 -49q-18 -27 -22 -39q-2 -8 0 -47q2 -27 -21 -50q-10 -6 -28 -20q-16 -27 -54 -70 q-39 -29 -96 -51q-10 2 -29 0q-12 -4 -37.5 -27.5t-64.5 -35.5z" />
<glyph unicode="#" horiz-adv-x="819" d="M49 586q-6 33 0 57l27 23q10 0 14 -2l4 -2l2 -3q4 0 17.5 3.5t19.5 1.5q12 0 21 -9l4 -4q2 0 13 7.5t22 7.5l12 -11q25 4 57 15q12 0 21 -8l2 -3l6 -6q59 0 47 66q6 14 16 24l4 2q6 2 7 13q-2 12 0 16q2 6 9 15.5t9 13.5q0 2 -2 8l-2 4v12q-16 -10 -33 -10q-18 0 -27 39 q-6 33 0 55l27 25q10 0 16 -4h3l2 -4q6 0 18 3t18 3q2 0 7 -2q51 156 65 164l4 4q8 6 8 12q-2 12 0 18q2 8 26 33t34 25q14 0 27.5 -24.5t7.5 -37.5q-43 -115 -72 -196q20 4 25 8q12 0 18 -8l4 -2q2 0 3 -2t1 -4q59 0 47 65q8 16 19 25l4 4q6 4 6 12q-2 14 -2 16q2 6 9 15.5 t9 13.5q0 2 -2 8l-2 4q-6 18 21 35l4 4q8 6 8 13q-2 12 0 18q2 8 25.5 32.5t33.5 24.5q14 0 27.5 -24.5t7.5 -38.5q-12 -10 -33 -55q-2 -14 -22 -45l-4 -5v-2q8 -18 -17 -32h-4q-8 -4 -6 -13l2 -4q10 -20 -4 -30h-2l-6 -7l2 -2h2v-4q12 -8 6 -18h-2q35 4 74 20q12 -2 22 -12 v-2q6 0 14.5 3t12.5 3q-12 0 29 -8q4 0 15 7t19 9q12 0 17 -16l2 -4l2 -2q2 0 10 4t15 4q8 0 29.5 -17.5t19.5 -23.5q-4 -14 -34 -34.5t-42 -18.5q-10 0 -19.5 6t-13.5 6q-8 2 -22.5 -1t-20.5 -3q-12 0 -22 10v2l-7 -4l-12 -6q-12 0 -16 16l-2 4h-2q-2 0 -14.5 -8t-20.5 -6 q-6 0 -10 4l-2 4h-2q-23 -12 -39 -6q-6 0 -10.5 -7t-8.5 -11v-13q-4 -8 -16 -20q8 -18 -12 -51l-7 -2v-4q0 -23 -8 -39l-2 -2q4 -14 -2 -31q10 0 19 -16l2 -2l2 -2q2 0 10 4t14 4q8 0 29.5 -17.5t19.5 -23.5q-4 -14 -33.5 -35t-41.5 -21q-10 0 -19.5 6.5t-13.5 6.5h-12 l-31 -137q4 -8 4 -21q0 -23 -18.5 -78t-16.5 -74q4 -37 -108 -53l-21 25q16 49 37 102q12 16 33 99q6 47 37 147l-7 6v4h-2q-2 0 -14 -8t-20 -8q-6 0 -13 6v4h-2q-23 -12 -39 -6q-6 0 -10 -7t-8 -12l-2 -14q-4 -8 -15 -18q8 -18 -12 -54l-6 -2v-4q0 -23 -8 -37l-2 -2 q4 -12 -6 -43v-6q16 -31 8 -51q-14 -41 -111 -55l-22 22q4 8 11 16.5t9 22.5q4 25 25 47q4 4 2 9l-2 2q-6 8 -2 18l16 16q10 59 10 58q2 12 11 16l2 4q14 12 16 39q0 18 2 29q-6 0 -12 6q-16 -10 -31 -10h-57q-2 0 -6 2h-9l-6 -4q-10 -4 -37 -4h-4l-6 -5q-37 -25 -59 -26 q-18 0 -27 39zM418 664q41 4 74 22q14 -2 22 -14h8v-2q0 2 -2 6v2q-6 8 -2 20l17 17q10 57 10 55q2 10 8 18l4 3q14 12 15 30.5t1 36.5q-6 0 -12 6q-16 -10 -31 -10q-10 0 -26 6l-2 2q-18 -6 -18.5 -6t-10.5 -31q-2 -14 -22 -45l-5 -2l-2 -2q8 -16 -14 -33l-4 -2 q-8 -4 -6 -12l2 -2q0 -29 -4 -63z" />
<glyph unicode="$" />
<glyph unicode="%" horiz-adv-x="987" d="M49 -186q0 -6 51.5 66.5t65.5 133.5q-4 27 -4 76q20 27 49 84q-2 18 -2 53q8 16 18 45v2q6 25 17 93q-6 0 12 44t47 70q-2 10 0 29q2 10 25 33l2 8q-2 14 2 43l4 12q25 25 45 115q6 25 27.5 65.5t25.5 69.5t12 82q41 129 86 186q2 10 13 27q18 2 41 27q0 12 2 36 q8 39 36.5 59.5t57.5 41.5q8 16 25 43q33 20 96 61l22 -6q-23 -41 -69.5 -82t-55.5 -53q-4 -18 -18 -49q-14 -16 -35 -53q2 -12 -2 -39l-2 -11q-18 -18 -29 -55q-8 -12 -24 -35q-45 -80 -70 -198q-2 -33 -10 -97q-2 -8 -11.5 -24.5t-11.5 -24.5q2 -14 2 -45q-12 -18 -34 -57 q-14 -35 -39 -133q0 -33 -8 -92l-2 -9h-5q-4 -6 -20 -39q-4 -33 -47 -159l2 -72q-14 -16 -27.5 -56t-25.5 -57l-13 -4q-39 -37 -47 -55q-2 -6 -16 -70q-4 -12 -6 -16l-13 -4q-23 -25 -47 -51q-4 -2 -78 -13q-16 43 -14 54zM111 1042q0 4 12 55.5t17 57.5t16 23q2 6 2 17 t2 15q8 12 22 35q2 14 8 39q10 14 27 43q0 12 8 37l33 33q27 37 76 94q14 8 39 31l33 51q22 26 55 26q10 0 30.5 -4t32.5 -4q25 0 31 -39q4 -29 6 -57l10 -12q2 -10 2 -33q0 -20 -8 -56t-8 -67t-31 -78q-6 -16 -22 -47q-8 -6 -21 -22q-2 -16 -12 -47q-16 -14 -45 -46 q-104 -152 -193 -151q-27 0 -74.5 40t-47.5 66zM205 1090q0 -16 22.5 -42t36.5 -24q57 0 74 31q10 23 18 45q4 4 13.5 8t11.5 8q25 18 31 62q10 59 16 72.5t25 37.5q8 10 16 72l-2 6l-2 -2q0 45 0 43q-4 23 -29 23q-45 0 -61 -21q-14 -27 -29 -53q-23 -23 -70 -80l-8 -4 q-4 -31 -18 -84q-45 -100 -45 -98zM451 186q0 4 12 55.5t17 57.5t16 23q2 6 2 17t5 18.5t19 33.5q2 12 6 37q10 14 29 45q2 12 8 35q12 12 33 35q27 37 76 92q16 8 34.5 32.5t38 51t54.5 26.5q10 0 30.5 -4t32.5 -4q25 0 31 -39q4 -31 6 -59l8 -12q2 -10 2 -33q0 -20 -7 -56 t-7 -63q0 -33 -31 -82q-6 -16 -22 -47q-8 -6 -21 -20q-2 -16 -12 -50q-16 -12 -45 -43q-106 -152 -193 -151q-27 0 -74.5 40t-47.5 64zM545 236q0 -16 22.5 -42t36.5 -26q57 0 74 31q10 25 18 47q10 4 25 14q25 18 31 62q10 59 16 72.5t25 37.5q8 10 16 72l-4 8v-4 q0 45 0 43q-4 22 -29 22q-45 0 -61 -20q-14 -27 -29 -53q-23 -23 -70 -78l-8 -6q-4 -31 -18 -82q-2 -4 -25 -51q-20 -37 -20 -47z" />
<glyph unicode="&#x26;" horiz-adv-x="991" d="M53 279q0 16 10 34q0 2 27 66q14 39 41 61q12 8 16 15l3 8q10 18 24 29l4 2q0 2 2 4l4 6q12 12 35 41l4 6q14 12 43 37v4q4 12 21 16l2 2q10 10 28 27q16 8 45 29l7 4q20 8 55 30q18 16 35 21h2q6 6 22 16q29 12 29 19q0 2 -8 9t-8 15q-1 16 22 41h-2l6 6l2 4q8 16 27 31 q29 20 33 25q12 16 24 18l6 2q12 14 48 33l4 2q2 0 6 4l4 4q39 39 137 41q29 0 107 -20v-41q-47 -33 -86 -33q-18 0 -47 10.5t-42 10.5q-23 0 -45 -19l-10 -8q-14 -12 -24 -14q-14 -8 -34 -33t-18 -39q6 -18 60 -19q8 0 23.5 4.5t29.5 4.5h18q8 0 23.5 2t22.5 2q39 0 38 -27 q0 -12 -10 -29q-12 0 -33 -8l-8 -4q-12 -8 -26 -8q-4 0 -11 2h-12q4 0 -20 -8h-37q-43 0 -80 -8l-8 -4q-10 -4 -34 -9.5t-56 -21.5l-5 -2q-8 -8 -28 -17l-10 -4q-16 -10 -54 -33l-4 -2q-4 -2 -6 -2q-20 -14 -61 -49l-2 -4q-8 -12 -15 -16l-4 -4q-16 -23 -47 -58l-6 -4 q-37 -33 -62 -94q-6 -14 -14 -39q-4 -20 0 -39q4 -25 4 -33q2 -37 4 -49q4 -35 19 -45l6 -4q20 -29 61 -59l9 -2q12 -2 41.5 -13.5t50.5 -11.5h39h61q23 0 33 2h8q14 8 39 8q10 0 33.5 8.5t36.5 8.5q4 2 18 12q8 6 23 6h2q14 10 24 10h8q20 -27 15 -47q-12 -4 -56 -22 q-35 -16 -57 -17q-4 -4 -16 -10q-35 -6 -86 -20l-4 -2q-12 -6 -72 -11q-115 -8 -94 -8q-10 0 -27.5 4t-30.5 4q-25 0 -63 17q-45 18 -53 35v4q-14 4 -27 22l-2 4q-12 10 -33 33q-27 29 -22 66l2 6q-2 0 -4 -2q-2 10 -3 22v4q0 8 -5 24.5t-5 27.5zM762 170q0 12 10 25 q20 0 37 24l4 6q4 6 14.5 14.5t14.5 17.5t16 15l4 4q8 16 27 46l4 2q10 23 4 47q-6 27 -6 30q2 23 27 23q24 0 36 -37q10 -10 11 -27q0 -57 -43 -100l-4 -4q-8 -14 -27 -41q-10 -10 -72 -57l-8 -6q-6 -6 -18 -7q-31 0 -31 25z" />
<glyph unicode="'" horiz-adv-x="536" d="M125 1227l6 18q2 12 43 53t66 107l-2 2q18 16 43 43l-2 39q10 20 32 59q14 23 30.5 45.5t72.5 44.5q12 4 24 4q35 0 49 -34v2l7 -2q4 -39 0 -49q-18 -27 -23 -39q-2 -8 0 -47q2 -27 -20 -50q-10 -6 -29 -20q-16 -27 -53 -70q-39 -29 -97 -51q-10 2 -28 0 q-12 -4 -38 -27.5t-65 -35.5z" />
<glyph unicode="(" horiz-adv-x="858" d="M76 403q0 25 24.5 143t34.5 144q10 12 25 37q6 41 26 119q2 6 19.5 29.5t17.5 29.5l-2 23q4 6 16.5 15t14.5 15q4 8 1 27t-1 27q14 12 39 41q2 25 16 67q14 10 39 31q6 20 25 63q18 18 55 58q47 80 160 233q47 39 135 119q12 23 41 59q25 10 65 37q35 37 111 107 q31 16 90 49q158 109 391 233q59 12 191.5 23.5t189.5 24.5q2 -6 10 -13l29 -26l-49 -21l-21 -12l11 -10q-14 -6 -45 -19l-11 -8l11 -10l-29 -13q-41 -18 -66 -18q-8 0 -33.5 5t-50.5 3q-49 -2 -370 -145q-86 -37 -221 -115q-8 -12 -25 -35q-31 -14 -86 -49 q-37 -39 -113 -115q-33 -29 -90 -81q-61 -82 -139 -181q-12 -6 -37 -22q-10 -10 -19.5 -40t-17.5 -40q-20 -18 -55 -57q-12 -37 -45 -113q-16 -16 -39 -51q2 -16 -2 -49q-23 -31 -59 -97q-16 -41 -54 -178q-39 -145 -39 -182q0 -61 19 -152q16 -76 33 -151q4 0 14 -10 q20 -23 39 -60l-14 -6q4 -6 25.5 -24.5t21.5 -26.5q0 -2 -3.5 -8.5t-3.5 -12.5q0 -12 21 -34q16 -35 78 -121q35 -37 53 -51.5t66 -36.5q18 -20 45 -52q16 -16 46.5 -25t42 -22.5t11.5 -31.5q0 -27 -19.5 -58t-39.5 -41q-20 0 -33 -6q-53 25 -127 72q-12 23 -45 69 q-37 27 -101 82q-23 25 -38 64q-25 57 -29 65q-27 25 -68 80l15 6l-19 19l-4 6l19 33q-12 25 -29 71l8 13q-10 20 -29 63l6 12q-2 12 -12 50q-8 31 -8 49q0 8 5 25.5t3 27.5q-8 20 -18 61z" />
<glyph unicode=")" horiz-adv-x="1038" d="M-424 -500l43 29l19 16l-15 9q8 6 43 26l10 8l-14 11l27 18q41 29 100 31q23 0 45 6q41 10 174 100q80 57 160 112t197 157q4 14 18 38q29 18 78 64q20 23 45 65q27 51 39 68q29 33 76 98q45 92 100 205l31 31q8 12 14 42t10 40q16 23 41 67q4 41 21 119q14 18 32 60 q-6 16 -10 49q2 18 20.5 52t22.5 52q8 43 17 184q8 150 2 187q-10 59 -48 145q-55 137 -57 146q-4 0 -16 6q-20 14 -51 49l12 10q-4 4 -43 27q-12 8 -12 16q0 2 2 6v6q0 16 -29 37q-20 33 -100 109q-55 39 -131 59q-20 16 -54 41q-18 14 -51 17.5t-49 14.5t-16 42 q0 61 40 94q20 4 33 12q57 -14 137 -45q16 -20 58 -61q16 -12 57 -30.5t60 -30.5q27 -18 51 -56q33 -51 41 -59q31 -18 78 -64l-13 -10q8 -4 21 -14l6 -4l-10 -35q16 -20 39 -66l-7 -14q16 -18 41 -55l-4 -17q16 -29 41 -90q-2 -18 0 -57q12 -16 31 -55q4 -25 2 -146 q-2 -119 -8 -145q-8 -12 -17 -39q2 -41 -2 -127q0 -6 -12 -31.5t-10 -30.5l6 -22q-10 -10 -25 -37q6 -16 9 -51q-12 -14 -31 -47q2 -23 -2 -70q-12 -14 -31 -41q-2 -20 -12 -63q-14 -23 -43 -70q-33 -88 -113 -256q-39 -47 -110 -143q-8 -23 -31 -68q-20 -14 -57 -47 q-25 -45 -86 -129q-29 -20 -80 -66q-123 -127 -338 -301q-55 -25 -183.5 -61.5t-183.5 -58.5l-12 12z" />
<glyph unicode="*" horiz-adv-x="483" d="M57 1051q0 10 2 16l17 16q10 0 12 -4v-2q4 0 13.5 3t11.5 3q8 0 12 -8h2l2 -2q6 4 21 10l8 -8q14 2 37 8h4v7q-2 2 -2 4t2 4v2h-2q-2 -4 -9 16q0 8 -6 21l-7 4t-7 14q0 6 2 10v9q0 4 -5 7t-7 8t-2 30q0 23 16 22q35 0 35 -33q0 -8 7 -22.5t9 -32.5q10 -4 10 -14v-4 q-2 -2 -2 -5h-2q0 -2 7 -12h4q4 6 10 10.5t6 16.5q0 -6 12 24q-6 14 -6 15q0 6 12.5 12t12.5 8v6q-2 2 -2 7q0 6 15 21t22 15q25 0 24 -32q0 -6 -10 -19.5t-12 -22t-15 -26.5l-2 -2v-2h2v2q6 4 17 10q2 2 4 12.5t10 10.5h6q4 -2 6 -2h2q4 6 7.5 13t27.5 7q14 0 14 -14 q0 -35 -10 -45q-8 -2 -22 -10q-6 -8 -14.5 -17.5t-18.5 -7.5l-2 -2q0 -12 -10 -12q-2 2 -7 2h-4q-2 -2 -2 -11q16 4 23 9q12 0 14 -9v-2q4 0 10.5 2t8.5 2q4 0 8 -2t6 -2t9 4.5t14 4.5q2 0 12 -11v-4q2 0 8 4t8 4q6 0 18.5 -11t12.5 -17t-19.5 -18.5t-25.5 -12.5t-13.5 3 t-11.5 3h-4h-10q-8 -2 -10 -2q-8 0 -15 6q-2 -2 -8 -2h-4q-6 0 -10 8v2h-2q-2 0 -9.5 -5t-11.5 -5t-8 4v2q-12 -6 -20 -4v-2l6 -4q2 -6 2 -16q12 -6 16 -29l-2 -4h2q16 -16 15 -25q8 -4 14 -20l2 -2v-2q31 -8 31 -27q0 -29 -27 -65h-20q2 10 -11 26q-2 16 -10 37h-4 q-6 2 -8 8v15q-6 14 -21 28q-2 4 -2 13l2 4q0 10 -10 20q-2 -6 -10 -18l-4 -2v-15q0 -4 -4 -12h-2q0 -2 2 -4v-4t-7 -21l-2 -2q8 -16 9 -24q0 -37 -70 -43l-12 12q0 4 4 15.5t22 41.5q2 0 2 3q-4 16 -4 14l11 10q0 4 4 16l-4 -2q-4 -12 -17 -24q0 -45 -24 -45q-23 0 -46 33 l3 22q4 4 12 4l10 17q8 10 12 10q2 -2 7 -2q2 2 4 10t6 12h8q10 12 22 31q6 6 17 6q2 2 3 4l1 2q-8 -6 -18 -6q-6 0 -19 4q-16 -6 -27 -2q-18 -6 -34 -6q-33 -16 -39 -16q-16 0 -17 41z" />
<glyph unicode="+" horiz-adv-x="757" d="M25 420q-8 41 0 72l34 28q10 0 17 -4l2 -2h2q0 -2 2 -2q8 0 23.5 3t21.5 3q14 0 29 -10l2 -4h2q4 0 17 8t26 8l14 -12q33 4 76 14q14 0 22 -8l2 -4q4 -4 9 -4q61 0 61 47q0 14 -4 37q10 18 25 26l2 5q8 4 8 16v18q8 12 20 37q2 2 0 10l-4 5q-8 23 27 45l6 4q10 8 10 16 q-4 16 -2 23q4 10 33 40.5t41 30.5q20 0 36.5 -30.5t10.5 -49.5q-16 -12 -39 -69q-6 -37 -33 -55l-4 -5l2 -2q10 -25 -22 -41l-6 -2q-10 -8 -7 -14l5 -4q12 -25 -9 -41h-4q-4 -4 -4 -6v-2l6 -6q12 -9 4 -23q45 4 90 25q20 -2 29 -15v-4q6 0 17.5 4t17.5 4t16.5 -4t16.5 -2 q4 0 18.5 8.5t22.5 8.5q16 0 24 -21l4 -2v-4q4 0 14.5 5t18.5 5q10 0 37 -22.5t25 -30.5q-6 -16 -43 -42t-54 -26q-12 0 -22 9q-16 10 -19 10q-8 2 -26.5 -2t-26.5 -4q-68 0 -72 24l-2 4v2q-2 0 -18 -10t-27 -10q-10 0 -14 6l-2 2q0 2 -2 4q-31 -16 -51 -8q-10 0 -12.5 -8 t-8.5 -14v-17q-8 -14 -22 -24q10 -25 -15 -66l-6 -4v-4q0 -29 -10 -47l-4 -2q4 -18 -8 -54v-10q18 -39 10 -63q-8 -23 -62 -45q-41 -18 -75 -25l-27 31q10 8 25 49q4 29 30 55q4 4 2 13l-2 4q-4 10 -2 22l21 19q16 59 10 71q6 14 14 23l7 4q16 14 16 41q2 41 4 47l10 12 q6 -4 2 -10q8 2 11 -4l-3 2q-23 -10 -34 4q-25 -12 -41 -12q-10 0 -33 6v2q-31 -10 -37 -10q-8 0 -20 4l-9 -6q-8 -4 -45 -4h-4l-8 -4q-51 -33 -76 -33q-23 0 -30 47z" />
<glyph unicode="," horiz-adv-x="360" d="M-55 -168l6 18q2 12 42.5 53t63.5 107v2q18 16 41 43v39q10 20 33 60q14 23 30.5 46t69.5 44q12 6 25 6q33 0 49 -37l2 2l4 -4q4 -39 0 -49q-18 -27 -22 -37q-4 -8 0 -47q2 -27 -21 -49q-10 -6 -28 -21q-16 -27 -54 -69q-39 -29 -96 -52q-10 0 -25.5 -3t-40 -26.5 t-63.5 -33.5z" />
<glyph unicode="-" horiz-adv-x="847" d="M31 477l22 29q6 0 14.5 -5t12.5 -5q6 0 23.5 4t25.5 2q10 0 22.5 -8.5t16.5 -8.5q8 0 19.5 9.5t17.5 9.5l22 -12q37 4 86 14q8 0 27.5 -3t26.5 -3q53 0 95 7t87 7q6 0 20 2h19q8 0 21.5 -4t19.5 -4q8 0 19 9t18 9q10 0 22 -15t21 -15q6 0 16 6t14 6q10 0 42 -17.5 t32 -25.5q0 -14 -28 -41t-42 -27v2q-10 0 -26.5 8.5t-24.5 8.5q-10 2 -30.5 -2t-28.5 -4q-12 0 -35 18q-4 0 -12 -6t-15 -6h-18q-10 -2 -18 -2t-68 6q-37 4 -66 -4q-14 2 -24 16q-18 -18 -39 -18q-12 0 -29 4l-4 8q-6 0 -21.5 -7t-25.5 -7q-2 0 -6 2h-6l-2 6 q-23 -14 -62 -17q-6 0 -18 -6q-39 -35 -68 -35q-23 0 -43 48q-18 37 -22 67z" />
<glyph unicode="." horiz-adv-x="368" d="M59 12q-10 -29 12.5 -50t53.5 -21q6 0 12 2q72 29 88 43q6 10 15.5 20t27.5 23q23 23 21 49q-6 39 -2 47q6 14 22 37q6 10 2 49l-4 4v-4q-14 39 -51 39q-11 0 -25 -6v-2q-53 -20 -69.5 -43t-30.5 -45q-23 -25 -63 -80l-9 -6q2 -20 0 -56z" />
<glyph unicode="/" horiz-adv-x="851" d="M2 -299q0 -8 62.5 83t80.5 167q4 18 0 49t-2 45q4 20 30 53t30 52q-2 23 2 67q8 18 20 57v5q6 29 19 112q-8 0 16.5 55.5t58.5 85.5q6 4 5 17q-4 16 -2 20q0 4 28 41l4 11q0 18 2 53l4 16q29 29 40.5 67t19.5 77q6 29 32.5 81t30.5 87.5t17 101.5q51 158 108 235 q2 10 13 31q6 6 26.5 12.5t22.5 21.5t6 48q10 47 49 76l68 51q10 18 32 51q41 27 121 76l25 -6q-29 -49 -86.5 -100.5t-65.5 -71t-24 -62.5q-18 -20 -43 -65q2 -16 -2 -47l-5 -13q-27 -25 -28 -32q-4 -20 -8 -39q-10 -14 -31 -43q-53 -98 -88 -248q0 -41 -12 -119 q-10 -20 -27 -63q2 -18 2 -56q-4 -16 -22.5 -38.5t-22.5 -32.5q-47 -104 -53 -191q2 -31 -4 -92l-5 -10h-6q-8 -16 -24 -47q-8 -63 -23 -101q-16 -51 -35 -100l4 -88q-16 -20 -34.5 -71.5t-32.5 -71.5l-14 -4q-47 -47 -58 -70q-4 -8 -22 -84q-2 -8 -8 -23l-15 -6 q-31 -31 -59 -61q-4 -2 -96 -19q-23 55 -21 70zM881 1923q8 10 90 43h16q8 -2 27.5 -12t36.5 -10q16 0 47.5 7t48.5 7q35 0 58.5 -24.5t15.5 -59.5h-2q-6 -31 -44 -48.5t-71 -33.5q-14 -35 -107 -70l-10 13q0 12 2 18q4 18 28.5 60t39.5 45l-2 22q-45 4 -131 21 q-49 12 -43 22z" />
<glyph unicode="0" horiz-adv-x="528" d="M29 117q0 -31 60.5 -81t94.5 -50q111 -2 240 188q20 16 53 57q4 20 17 60q10 8 28 26q6 20 25 60q14 23 31 45q8 18 8 55t10 82t10 72q0 25 -4 37l-10 16q-2 37 -6 72q-8 49 -39 49q-14 0 -41 5t-39 5q-43 0 -72 -35q-2 -4 -39 -63q-16 -12 -49 -37q-35 -43 -92 -115 q-16 -12 -45 -45q-2 -14 -10 -43q-12 -16 -33 -53q-2 -16 -10 -51q-10 -14 -27 -43q0 -14 -6 -45q-8 -8 -23 -27q-4 -8 -18 -71.5t-14 -69.5zM145 178q0 12 25 60q18 33 35 63q6 45 20 105l11 6q35 35 90 98q16 33 34 65q19 27 76 27q31 0 37 -29q0 -6 -2 -53l2 2l4 -8 q-10 -78 -20 -90q-25 -31 -33 -51q-4 -12 -16 -86q-8 -53 -39 -76q-12 -4 -33 -18q-10 -29 -21 -60q-20 -39 -94 -39q-18 0 -47 33t-29 51z" />
<glyph unicode="1" horiz-adv-x="327" d="M45 119q-2 14 2 90q8 4 23 16q6 20 24 62q18 27 53 80q4 6 43 49q29 33 31 55q-2 14 2 43q2 10 17 37q8 18 6 49q0 -6 14 43q4 12 4 23q0 25 -35.5 48t-35.5 31q-1 11 24 23h2q4 0 54.5 9t80.5 9q66 0 78 -36q4 -14 -12 -48q-23 -45 -25 -55q-10 -41 -22 -69l-21 -46 q-2 -29 -37 -90q-25 -41 -47 -80q-8 -14 -39.5 -105t-31.5 -101q6 -49 65 -50q45 0 68 17q2 2 9 16.5t15 14.5q6 0 19 -7q0 -16 -8 -51q-8 -14 -37 -24q-39 -12 -46.5 -16.5t-43.5 -43.5q-25 -29 -52 -28q-10 0 -21 9t-13 11q-20 6 -41 13.5t-31 23.5q-31 53 -35 78z" />
<glyph unicode="2" horiz-adv-x="815" d="M4 -121q0 20 40 83t79 122q14 12 37 43q10 18 33 53q29 23 83 72q10 14 33 39q20 10 62 35q39 37 118 102q18 8 51 28.5t103 98.5q12 10 29 27q10 14 24 53q4 14 7.5 35.5t1.5 36.5q-4 18 -12.5 18t-14.5 1t-15.5 4t-15.5 3q-16 0 -53 -3t-55 -3q-51 0 -90 8v33 q6 8 22 20q41 27 94 27q35 0 97.5 -15.5t82.5 -31.5q10 -25 41 -63q6 -6 35 -25q12 -6 13 -18q0 -12 -13 -66q0 -14 -6 -43q-6 -20 -35 -41q-39 -27 -45 -35q-25 -41 -82 -102q-8 -4 -23.5 -7t-23.5 -8q-12 -16 -41 -41q-16 -6 -49 -22q-18 -12 -51 -41q-10 -14 -35 -41 q-31 -20 -65 -55l-7 -13q-10 -6 -31.5 -24.5t-21.5 -32.5q0 -23 74 -49q86 -28 115 -61v2q6 -8 30 -15q6 0 7 -9t4 -11q-2 2 26 2q16 0 35 -19q23 -27 32 -28.5t29 -5.5q4 -10 13 -21q53 -25 147 -33q86 8 213 17q12 -2 64 32q45 37 65 37q12 0 12 -18q0 -20 -18 -52 t-35 -36q-35 -8 -69.5 -31.5t-71.5 -32.5h-96h-78q-55 2 -64 2q-6 0 -20 -4t-21 -4q-47 0 -98 23q-14 16 -53 39q-23 2 -47 8q-2 2 -13 12q-16 27 -43 43q-39 18 -77 39q-63 35 -117 35q-47 0 -98 -29q-6 -8 -19 -20q-12 -4 -39 -15q-51 -23 -74 -22q-16 0 -16 14z" />
<glyph unicode="3" horiz-adv-x="704" d="M31 98q0 4 2 13v16l-2 4q12 33 14 37q10 14 35 14q47 0 61 -80q2 -18 6.5 -20t24.5 -2q16 2 41 0q6 0 18.5 -2t18.5 -2l2 6q18 14 39 12v2q23 10 63 37l8 8q8 12 33 25.5t32 38t32 39.5q4 10 14 28q4 20 25 39q10 10 22 21l12 24v11q-2 6 -2 8q0 6 3.5 15t3.5 11v23 q-4 23 -5 37q0 4 -10 2q-2 0 -26 8l-2 4h-11q-20 -23 -59 -47q-2 -16 -18 -27l-5 -6q-20 -18 -57 -18q-43 0 -53 24l-6 19q0 10 6 16l2 2v8q0 25 22 33q6 14 21 31q6 6 6 20.5t14.5 27.5t16.5 22q2 16 18 30q25 25 27 32t21.5 21.5t23.5 18.5l24 53q6 10 -8 10 q-23 0 -72 -22.5t-61 -34.5t-39 -43q-10 0 -16 10.5t-18.5 16.5t-8.5 20q2 8 8 19q4 29 11 43q4 6 26.5 24.5t32.5 20.5v-2q12 -2 31 -2q6 8 16 8q23 -4 21 -4v-2q6 4 16 11t25 9q4 0 12 21q55 14 90 8q43 -8 70 -8q12 0 38.5 3t38.5 3q66 -2 66 -47q0 -8 -4 -17 q-2 -35 -53 -47q-16 0 -47 -4q-4 -2 12 -2q-2 0 -8 2h-9.5h-11.5q-6 -2 -10 -4t-57 -25q-41 -55 -97 -114l-22 -13q-2 0 -2 -4v2q49 6 47 7q35 0 76 -21q8 -6 14 -14v-2q10 -4 33 -31q4 -6 16 -18q6 -18 6 -58q0 -2 -6 -26v-2l4 -7q4 -8 4 -22q0 -12 -9 -24.5t-9 -16.5 q-16 -20 -37 -51q-12 -45 -33 -62l-2 -2q-8 -16 -37 -43l-4 -2q-8 -10 -22 -31l-2 -2q-6 -23 -31 -37t-27 -16q-12 -16 -30 -22q-6 -12 -35 -29l-15 -12q-8 -23 -28 -27l-27 -8q-27 -14 -47 -15q-6 0 -17.5 -3t-17.5 -1h-12q-8 -4 -16 -4t-23.5 4t-22.5 4q-14 0 -22 9 q-23 2 -48.5 25.5t-29.5 43.5v2q-12 10 -16 41z" />
<glyph unicode="4" horiz-adv-x="782" d="M-993 -1137q-2 -20 14 -57q18 -4 55 -18q18 -23 66 -58q57 -27 143 -26q123 0 226 43q29 12 73.5 45.5t67.5 46.5q23 6 69 22q61 33 146 105q119 98 141 114q18 8 55 33q27 25 54 68q25 37 47 74q33 45 65 116q0 2 13.5 21.5t13.5 23.5q14 16 35 47q10 33 35 99 q23 49 28 92q4 6 10.5 31.5t22.5 76.5q6 33 25 101l32 88q-4 14 3.5 48t21.5 103q2 8 35 66q29 51 28 65q10 6 25 25q0 25 12 66q12 20 49 65l17 12q6 4 4 19q-4 49 35 102t39 56q-2 20 32.5 79.5t32.5 63.5q-2 23 -33.5 55.5t-54.5 32.5q-18 0 -51 -61q-23 -39 -43 -80 q-12 -8 -33 -33q-4 -14 -4 -47q4 -35 4 -53q0 -23 -12 -35q-16 -20 -29 -47q2 -29 -10 -84q-18 -18 -55 -56q-6 -14 -21 -41q-39 -18 -112 -98h-9q-6 0 -20 5t-23 5q-6 0 -18 -5t-21 -5l-12 4h-2q-8 20 -8 33q-2 20 31 53v21q-4 35 -2 43q4 12 26.5 30.5t28.5 30.5 q4 25 18 74q2 2 27 41q16 23 14 49q-6 55 42 90t44 80t-41 76q-4 -2 -13 -3t-13 -3q-6 -8 -17 -23q-88 -90 -182 -190q-25 -45 -24 -68q2 -25 45 -53l2 -19q-12 -6 -21 -39q2 -31 -16.5 -59.5t-18.5 -36.5q4 -37 -47 -133t-51 -104q4 -39 35 -56q8 2 23.5 1t23.5 -1 q41 0 65 21q35 27 48 30q23 0 59 11q10 39 61 55l41 12q-2 -12 -10 -37q-2 -6 -12 -17t-10 -26q0 -20 -7 -28q-16 -18 -16 -21q-8 -33 -31 -100q-10 -14 -24 -45q-6 -35 -40 -108.5t-40 -104.5q-2 -18 -8 -55q-6 -29 -29 -70q-35 -61 -37 -68q-12 -43 -47 -125 q-23 -27 -65 -81q-10 -29 -39 -84q-10 -18 -41 -41t-39 -33q-12 -25 -45 -68q-25 -25 -72 -49q-63 -35 -78 -43q-23 -20 -67 -57q-41 -14 -117 -49q-12 -12 -39 -33q-74 -41 -182 -41q-88 0 -159 34.5t-138 71.5z" />
<glyph unicode="5" horiz-adv-x="704" d="M31 98q0 4 2 13v16l-2 4q12 33 14 37q10 14 35 14q47 0 61 -80q2 -18 6.5 -20t24.5 -2q16 2 41 0q6 0 18.5 -2t18.5 -2l2 6q18 14 39 12v4q33 23 63 47q49 37 54 56q2 12 49 35q4 4 16 14q2 14 14 26v3l-2 4q0 37 13 39q20 4 24 13t10 21v11q-2 6 -2 8q0 6 3.5 15t3.5 11 v23q-4 23 -5 37q0 4 -10 2q-2 0 -26 8l-2 4h-11q-20 -23 -59 -47q-2 -16 -18 -27l-5 -6q-20 -18 -57 -18q-43 0 -53 24l-6 19q0 10 6 16l2 2v8q0 25 22 33q6 14 21 31q6 6 6 21.5t7 28.5t9 20q12 66 39 102l31 70q12 12 43 69h-2q18 4 51 19q20 8 33 6q43 -8 70 -8 q12 0 38.5 3t38.5 3q66 -2 66 -47q0 -8 -4 -17q-2 -35 -53 -47q-16 0 -50 -4q-12 -6 -22 -6q-2 0 -8 2h-9.5h-11.5q-6 -2 -10 -2q-10 -10 -57 -25l-13 -16q-4 -14 -30.5 -37.5t-26.5 -26.5v-8q0 -16 -8 -32l-4 -3q-2 -2 -2 -6v2q49 6 47 7q35 0 76 -21q8 -6 14 -14v-2 q10 -4 33 -31q4 -6 16 -18q6 -18 6 -58q0 -2 -6 -26v-2l4 -7q4 -8 4 -22t-10 -27l-10 -12q-2 -16 -17 -47q-2 -12 -8 -15.5t-10 -11.5q-12 -45 -33 -61l-2 -2q-18 -25 -63 -58.5t-58.5 -51t-31.5 -23.5q-6 -12 -35 -29l-15 -12q-8 -23 -28 -27l-27 -8q-27 -14 -47 -15 q-6 0 -17.5 -3t-17.5 -1h-12q-8 -4 -16 -4t-23.5 4t-22.5 4q-14 0 -22 9q-23 2 -48.5 25.5t-29.5 43.5v2q-12 10 -16 41z" />
<glyph unicode="6" horiz-adv-x="675" d="M45 205q4 31 47 114v3q0 37 8 55q16 23 31 45q8 20 25 61q10 8 28 27q4 20 17 59q4 4 4 6q10 51 33 140q18 31 43 100q2 14 4 43q10 27 30 80q6 35 23 100q12 20 31 76q2 16 6 49q10 23 28 76q8 33 29 100q12 16 29 47v21q2 14 35 59q39 55 43 64q23 51 82 143 q14 8 43 31q72 80 229 217q20 6 59 25q35 35 111 90q84 43 180 43q70 0 115 -27q16 -20 53 -57q16 -2 43 -17q8 -8 8 -26q2 -25 4 -31q-55 37 -111.5 72t-127.5 35q-86 0 -144 -41q-10 -12 -30 -35q-33 -14 -95 -49q-16 -20 -55 -56q-43 -27 -119 -94q-10 -23 -36 -67 q-25 -20 -64 -72q-8 -29 -33 -86q-18 -25 -49 -82q-10 -43 -39 -125q-25 -43 -55 -137q0 -18 -4 -58q-4 -29 -32 -98.5t-32 -103.5q-10 -70 -14 -127q37 16 68 14q35 0 95 -49t60 -80q0 -6 -14 -69.5t-20.5 -72t-18.5 -24.5q0 -14 -6 -47q-12 -12 -29 -41q-2 -16 -12 -51 q-12 -18 -31 -53q-2 -14 -12 -43q-16 -14 -43 -43q-31 -45 -92 -119q-18 -10 -49 -37q-37 -59 -39 -64q-31 -35 -74 -34q-12 0 -38 5t-40 5q-31 0 -39 49q-4 35 -6 72l-12 16q-2 12 -2 35l-13 -2q0 4 -10 20q-6 10 -4 21zM205 279l4 -9v2v-53q6 -29 37 -29q57 0 76 27 q18 35 34 68q31 29 88 96l13 6q6 39 22 105q16 31 33 63q25 47 25 59q0 18 -29 51t-47 33q-74 0 -94 -39q-10 -29 -21 -57q-10 -4 -31 -18q-31 -23 -39 -78q-10 -74 -16 -86q-10 -20 -35 -53q-10 -10 -20 -88z" />
<glyph unicode="7" horiz-adv-x="929" d="M-881 -1178q61 -33 125 -65.5t144 -32.5q98 0 161 37q10 12 37 31q35 12 105 41q18 20 61 55q49 23 135 80q12 20 39 63q29 18 74 66q10 25 37 76q23 23 57 73q12 39 41 113q27 39 62 125q0 16 4 46t44 96.5t48 97.5q18 80 18 122q0 10 -2 23v14q0 12 33 56q25 33 39 67 q0 29 10 80q12 29 12 49q0 6 4.5 14.5t4.5 16.5t24 43q4 12 15 37q20 23 41 47q16 18 16 67q0 14 21.5 30t25.5 22q6 20 25 53q41 57 125 108v9q47 47 45 63q0 2 -2 8v11q-2 2 -21.5 20t-28.5 18q-31 0 -59 -22q-39 -31 -51.5 -34t-40.5 -11q-10 -12 -35 -33 q-25 -12 -72 -39q-20 -14 -62 -72.5t-63 -70.5q-4 -8 -8 -29.5t-10 -32.5q-59 -45 -59 -96q0 -14 4 -45t4 -47v-18q-18 -20 -19 -35q2 47 2 -37q0 -47 -39 -47q-2 0 -38 18q-6 10 -7 49q0 18 -5 55.5t-5 53.5q0 51 19 78q31 43 36 55q8 25 31 66q20 18 53 65q4 20 21 55 q25 14 33 47q10 41 16 50.5t28.5 18.5t30.5 22q0 18 17.5 48.5t17.5 59.5q0 88 54 88q41 0 102 -49q12 2 47 -35h8q6 0 18.5 5t18.5 3q10 0 23 -8l10 -2q10 0 29.5 7.5t29.5 7.5q39 0 60 -13l6 -10q25 -18 24 -37q0 -35 5.5 -66.5t5.5 -35.5q0 -18 -29 -43 q-55 -63 -127 -158q-29 -41 -72 -113q-20 -12 -22 -49q-2 -47 -8 -59q-23 -16 -56 -96q-41 -100 -57 -158q-22 -53 -53 -137v-2q0 -12 -6 -37q-12 -25 -35 -74q-6 -31 -23 -88q-16 -18 -37 -70q-2 -14 -6 -43q-12 -20 -37 -67q-8 -31 -30 -92q-2 -4 -14.5 -19.5t-12.5 -20.5 t-1 -11.5t-3 -8.5q-2 -12 -39 -55q-45 -51 -49 -57q-27 -45 -90 -125q-16 -10 -49 -31q-82 -72 -261 -197q-23 -4 -63 -20q-41 -31 -127 -82q-94 -39 -203 -39q-80 0 -129 25q-18 18 -57 51q-18 2 -49 16q-10 8 -11 23q-2 27 -4 30z" />
<glyph unicode="8" horiz-adv-x="657" d="M43 78q0 4 15.5 43t20.5 43t19 14q2 10 4 27q12 8 31 26q2 10 10 31q12 10 31 31q2 8 12 26q4 4 20.5 13.5t26 16.5t41.5 32q-90 33 -94 61q0 4 15.5 43t20.5 43t20 15q2 10 4 28q12 8 30 25q2 10 11 31q12 10 32 32q2 10 11 27q16 8 43 25q33 29 92 69q18 6 49 23 q20 18 41 39q29 20 72 20q12 0 37.5 -3t39.5 -3q31 0 37 -25.5t8 -46.5l13 -10q2 -8 2 -22v-2q0 -16 -9.5 -43t-9.5 -47.5t-8 -32.5q-14 -12 -31 -27q-6 -12 -24 -37q-10 -4 -31 -16q-2 -12 -14 -35q-2 -2 -45 -27q12 -8 20 -67l12 -8q2 -8 3 -25q0 -14 -9.5 -42t-9.5 -49.5 t-8 -33.5q-14 -12 -31 -27q-6 -12 -26 -36q-12 -4 -29 -15q-4 -12 -16 -35q-18 -10 -54 -34q-125 -113 -239 -113q-35 0 -95.5 29.5t-60.5 48.5zM188 137q0 -10 26 -28.5t42 -16.5q66 0 84 21q8 16 16 30q10 4 34 13.5t30 38.5q10 41 17 49t30 26q8 6 18 47l-4 7l-2 -5 q0 33 0 31q-4 16 -33 17q-49 0 -66.5 -16.5t-33.5 -35.5q-27 -14 -78 -53l-8 -4q-4 -20 -20 -55q-51 -61 -52 -66zM315 489q0 -10 26 -28.5t42 -18.5q66 0 84 21q8 16 18 31q4 4 18.5 12t18.5 10q27 12 31 37q4 33 12 43t29 27q8 6 18 47l-4 4v-2q0 31 0 28q-4 16 -33 17 q-49 0 -66 -16.5t-34 -34.5q-27 -14 -78 -52l-10 -4q-4 -20 -18 -55q-53 -63 -54 -66z" />
<glyph unicode="9" horiz-adv-x="555" d="M-788 -1122q55 -37 111 -72t128 -35q86 0 143 41q10 12 31 35q33 14 94 49q18 20 56 57q43 27 119 93q10 23 36 67q23 23 64 74q10 29 33 84q18 25 51 82q10 41 37 125q25 43 55 137q0 18 4 57q4 29 31.5 98.5t32.5 104.5q10 72 14 129q-37 -16 -68 -16q-35 0 -95 49 t-60 80q0 6 14 69.5t20.5 71.5t20.5 27q2 16 4 45q12 12 29 41q2 16 12 51q12 18 31 53q2 14 12 43q16 14 45 43q33 47 90 119q18 10 49 37q37 59 39 63q31 35 74 35q12 0 37.5 -5t40.5 -5q31 0 39 -49q4 -35 6 -72l12 -14q2 -12 2 -37l12 2q0 -4 8.5 -17.5t6.5 -23.5 q-2 -23 -36 -110t-48 -107q-6 -20 -27 -60q-10 -8 -28 -26q-2 -20 -15 -62l-6 -6q-10 -51 -33 -139q-18 -31 -41 -100q0 -14 -8 -41t-29 -82q-4 -16 -10 -50t-10 -51q-14 -20 -33 -75q0 -16 -8 -44t-27 -81q-8 -33 -28 -99q-12 -16 -27 -49v-20q-2 -14 -35 -60 q-39 -55 -43 -61q-25 -51 -84 -143q-14 -10 -43 -33q-72 -80 -229 -217q-20 -6 -59 -25q-35 -35 -111 -90q-84 -43 -180 -43q-70 0 -115 27q-14 23 -53 59q-16 2 -43 14q-8 8 -9 30t-3 28zM145 178q0 -18 29 -51t47 -33q74 0 94 39q10 29 21 57q10 6 33 19q31 23 37 78 q10 74 16 86q10 23 35 51q10 12 20 90l-4 8v-2v53q-6 29 -37 29q-57 0 -76 -27q-18 -35 -34 -67q-31 -29 -88 -96l-13 -6q-6 -39 -22 -105q-16 -31 -33 -63q-25 -47 -25 -60z" />
<glyph unicode=":" horiz-adv-x="657" d="M59 12q-10 -29 12.5 -50t53.5 -21q6 0 12 2q72 29 88 43q6 10 15.5 20t27.5 23q23 23 21 49q-6 39 -2 47q6 14 22 37q6 10 2 49l-4 4v-4q-14 39 -51 39q-11 0 -25 -6v-2q-53 -20 -69.5 -43t-30.5 -45q-23 -25 -63 -80l-9 -6q2 -20 0 -56zM340 559q-4 -12 8 -47 q4 -10 29.5 -20.5t40.5 -4.5q72 29 88 43q8 10 17 20.5t28 24.5q23 23 20 50q-4 37 -2 45q4 12 23 39q6 8 2 49l-6 2v-2q-14 37 -47 37q-13 -1 -27 -7h-2q-53 -20 -69.5 -43.5t-30.5 -46.5q-23 -25 -62 -80l-10 -6q2 -20 0 -53z" />
<glyph unicode=";" horiz-adv-x="657" d="M-55 -168l6 18q2 12 42.5 53t63.5 107v2q18 16 41 43v39q10 20 33 60q14 23 30.5 46t69.5 44q12 6 25 6q33 0 49 -37l2 2l4 -4q4 -39 0 -49q-18 -27 -22 -37q-4 -8 0 -47q2 -27 -21 -49q-10 -6 -28 -21q-16 -27 -54 -69q-39 -29 -96 -52q-10 0 -25.5 -3t-40 -26.5 t-63.5 -33.5zM340 563q-4 -12 8 -47q4 -10 29.5 -20.5t40.5 -3.5q72 29 88 43q8 10 17 20t28 25q23 23 20 49q-4 37 -2 45q4 12 23 39q6 8 2 49l-6 2v-2q-14 37 -47 37q-13 0 -27 -6h-2q-53 -20 -69.5 -44t-30.5 -47q-23 -25 -62 -79l-10 -7q2 -20 0 -53z" />
<glyph unicode="&#x3c;" horiz-adv-x="980" d="M90 672h2q4 -4 7 -14.5t7 -14.5q12 -2 33 -12t47 -27q55 -37 97 -53q33 -6 92 -25q18 -18 59 -49q37 -10 101 -41l28 -28q12 -12 55 -29q53 -20 66 -27q4 -2 82 -55q47 -33 88 -43q12 -4 23 -4q49 0 49 69q0 78 -28 95.5t-46 21.5t-27 8q-29 14 -72.5 56.5t-74.5 56.5 q-27 0 -76 25q-8 12 -27 30q-10 10 -64 22.5t-79 39.5q-35 37 -35 45q0 4 19.5 9t34.5 15q45 33 206 62q10 2 66 18q43 12 63 13q29 0 110 17t103 32q8 6 13.5 26.5t11.5 26.5q-4 2 -14 16q-4 4 -23 0q-27 -6 -26 -6q-49 2 -148 -8q-23 -8 -70 -22q-31 0 -90 -13 q-25 -14 -78 -39l-24 -2q-68 -41 -203 -108q-29 -10 -106 -15q-68 -1 -111 -30q-6 -4 -41 -39z" />
<glyph unicode="=" horiz-adv-x="927" d="M31 416l22 28q6 0 14.5 -5t12.5 -5q6 0 23.5 4t25.5 2q10 0 22.5 -8t16.5 -8q8 0 19.5 9t17.5 9l22 -12q37 4 86 14q8 0 27.5 -3t26.5 -3q53 0 95 7.5t87 7.5q6 0 20 2h19q8 0 21.5 -4.5t19.5 -4.5q8 0 19 9.5t18 9.5q10 0 22 -15.5t21 -15.5q6 0 16 7.5t14 7.5 q10 0 42 -18.5t32 -27.5q0 -14 -28 -40.5t-42 -26.5v2q-10 0 -26.5 8t-24.5 8q-10 2 -30.5 -2t-28.5 -4q-12 0 -35 19q-4 0 -12 -6.5t-15 -6.5h-18q-10 -2 -18 -2t-68 6q-37 4 -66 -4q-14 2 -24 17q-18 -18 -39 -19q-12 0 -29 4l-4 9q-6 0 -21.5 -7.5t-25.5 -7.5q-2 0 -6 2 h-6l-2 6q-23 -14 -62 -16q-6 0 -18 -6q-39 -35 -68 -35q-23 0 -43 47q-18 37 -22 68zM133 698l21 29q6 0 14 -6t12 -6q8 0 24.5 4t26.5 4q12 0 22.5 -8t14.5 -8q8 0 19.5 9t19.5 9l21 -12q37 4 86 14q8 0 27.5 -3t25.5 -3q53 0 95 7t87 7q6 0 21 2h20q8 0 20.5 -4t18.5 -4 q8 0 20.5 9.5t18.5 9.5q10 0 21.5 -15.5t19.5 -15.5q6 0 16.5 6t16.5 6q10 0 41.5 -17.5t31.5 -25.5q0 -14 -27.5 -41t-43.5 -27q-10 0 -26.5 8.5t-24.5 10.5q-12 2 -31 -2t-27 -4q-12 0 -35 18q-4 0 -12 -6t-14 -6h-19q-10 -2 -20 -2q-8 0 -68 6q-37 4 -65 -4q-12 2 -25 14 q-18 -18 -37 -18q-14 0 -30 6l-4 8q-8 0 -22.5 -7t-23.5 -7q-2 0 -6 2h-6l-4 6q-23 -14 -61 -16q-10 0 -17 -7q-39 -35 -67 -34q-23 0 -43 47q-18 37 -23 67z" />
<glyph unicode="&#x3e;" horiz-adv-x="980" d="M-53 268q0 27 48 82.5t73.5 64.5t91.5 29q37 14 112.5 56.5t118.5 56.5q27 0 90 25q18 12 54 30q18 10 79.5 22.5t106.5 39.5q70 41 70 49q0 2 -16.5 6t-24 15.5t-72.5 33.5q-57 20 -84 27q-10 2 -53 18q-35 12 -56 13q-31 0 -99.5 16t-80.5 33q-4 6 6.5 26.5t7.5 26.5 l29 16q8 4 23 0l20 -6q51 2 144 -8q16 -8 53 -22q29 0 78 -13q16 -14 51 -39l22 -2q23 -14 61 -54t64 -54q20 -10 99 -13q63 -1 86 -32h-2q6 -12 16 -39h-4q-10 -10 -35 -29q-12 -2 -41 -12t-68 -27q-80 -37 -137 -53q-37 -6 -108 -25q-31 -18 -95 -49q-45 -12 -133 -41 q-12 -4 -45 -28q-57 -18 -161 -56q-80 -41 -242 -98q-14 -4 -25 -4q-23 0 -22 18z" />
<glyph unicode="?" horiz-adv-x="1234" d="M150 1311q0 20 20 40.5t20 65.5q0 20 18.5 43t33 44.5t41.5 68.5q12 18 47 35.5t48 32t25 30.5q10 8 36 16.5t61 46.5t79 44t89 8q23 8 75 22q12 0 36 -7t36 -7q8 0 24.5 3t24.5 3q12 0 25.5 -8t17.5 -10q35 -6 71 -13.5t52.5 -38t44.5 -47.5q35 -23 47 -84q4 -20 15 -32 l8 -8q16 -33 59 -99q0 -16 -20 -94q-4 -12 0 -25v-6l8 -14q4 -27 0 -47q-4 -27 -4 -31q0 -10 5 -33.5t5 -35.5q0 -16 -10 -47t-10 -58q0 -6 -14.5 -46t-18.5 -46q-10 -12 -20.5 -22.5t-6.5 -41.5q4 -33 4 -45q0 -6 -39 -88t-45 -88q-12 -6 -30 -24q-8 -31 -33 -90 q-33 -27 -84 -97q-6 -18 -23 -55q-43 -51 -86 -76q-12 0 -41 -22q-33 -51 -71 -74l-31 8l-2 27q-2 23 37 47q31 18 59 37q18 16 67.5 90t61.5 102q2 6 10 43q4 16 31 43q20 47 68 140q12 6 24 43q0 23 2 45t21 39q10 10 10 25t4 24q18 18 19 41q0 14 -4.5 40.5t-4.5 38.5 q0 23 10.5 68t10.5 65.5t6 59.5t6 59q0 18 -8 55.5t-8 59.5q0 12 -10 29q-16 23 -19 26q-4 18 -14 58q-16 37 -66 71l-86 54q-8 4 -10 6l-8 8q-12 12 -55 12q-35 0 -84 21q-16 10 -35 10q-4 0 -59.5 -24.5t-67.5 -32.5q-2 -2 -31 -29q-16 -16 -39 -18q-10 0 -31 -5v-4 q-14 -8 -57 -41.5t-45 -38.5q-2 -23 -12 -65q-6 -18 -54 -86q-10 -14 -10 -23q0 -2 2 -8v-10q0 -18 -18 -37l-8 -8q-23 -23 -23 -43q0 -14 17.5 -43t17.5 -51v-80q-6 -18 -4 -25q12 -18 12 -49q0 -6 4 -14q16 -20 19.5 -31.5t29 -19t35.5 -18.5t31 -27q16 -6 57 -7 q29 0 45 9q33 16 37 18q29 8 68 29q10 10 33 71l8 9l2 12q0 49 -35 49q-16 0 -47 -20.5t-51 -20.5q10 0 -56 14q0 29 -18 52l-8 10q-16 20 -17 37q0 12 7.5 34.5t7.5 38.5l2 13q18 18 37 47q25 39 96 41q154 2 153 -146q0 -18 7.5 -54t7.5 -52q0 -20 -17.5 -49t-17.5 -39 q0 -27 -58.5 -78t-86.5 -59q-16 -2 -43 -17q-16 -16 -37 -16q-16 0 -45 6t-43 6q-35 0 -52 25q-6 16 -34 41q-16 6 -47 20q-49 43 -50 131q0 10 -18 41t-16 60q4 90 -2 137zM354 -20q-4 23 2 59l9 6q10 16 51 61q12 23 41 64q25 27 78 49q14 6 28 6q37 0 55 -39l9 -4 q6 -49 -2.5 -58t-22.5 -40q-2 -6 2 -45q2 -29 -24 -53q-2 -2 -9 -6l-8 -5q-16 -23 -117 -79q-6 -2 -16 -2q-55 0 -68.5 35.5t-7.5 50.5z" />
<glyph unicode="@" horiz-adv-x="1159" d="M49 938q0 14 4 27q40 153 58 163q27 16 39 62q4 20 28.5 37.5t43 35t57.5 56.5q18 16 55 25.5t52 18.5t32 21q12 6 38.5 8.5t67.5 29t80 26.5q2 0 98 -16q12 -2 50 4q23 4 51 -11q37 -16 43 -18q20 -2 39.5 -5t34 -17.5t36.5 -24.5q41 -16 52 -25q25 -16 33 -45.5 t32 -54.5q29 -31 27 -94q-2 -20 4 -33l6 -10q10 -16 17.5 -55t15.5 -56q-4 -18 -41 -86q-6 -10 -6 -24l-2 -7l6 -14q-8 -25 -25 -78q-4 -12 -4 -30q-2 -41 -24 -80q-14 -25 -23 -56q-25 -37 -53 -82l-27 -16q-12 -8 -16 -39q0 -14 -4 -41q-2 -6 -60.5 -76.5t-69 -76 t-30.5 -15.5q-14 -29 -53 -80q-39 -18 -105 -73q-10 -18 -39 -50q-45 -39 -100 -51q-12 4 -47 -12q-16 -20 -86 -55l-29 16l8 25q4 23 47 39q33 10 64 20q23 10 88.5 69.5t83.5 84.5q8 25 47 69l12 6q31 41 101 119q12 2 35 35q6 23 12 44.5t26 33.5q14 8 18.5 22.5 t8.5 20.5q25 14 29 38.5t12 76.5q20 41 51 127q20 43 45 135q0 29 8 90q4 12 -4 31q-10 29 -10 28q2 20 0 60q-8 51 -57 96q-59 55 -68 72l-6 8q-12 16 -50 26.5t-75 40.5q-16 14 -35 17q-4 2 -63.5 -9.5t-71.5 -15.5q-18 -10 -37.5 -20.5t-42.5 -6.5q-4 0 -14 3h-16v-5 q-14 -2 -64.5 -25.5t-54.5 -27.5q-8 -20 -29 -59q-14 -20 -74 -70q-4 -4 -12 -20q-6 -37 -31 -52l-10 -6q-33 -20 -33 -47q0 -10 8.5 -38.5t4.5 -47.5q-6 -25 -19 -78q-4 -6 -12 -22q8 -25 2 -55q-2 -6 0 -13q10 -23 4 -39q4 -8 28.5 -20t35.5 -29q4 -12 20 -33 q51 -37 98 -24q14 4 43 8t72 12q8 6 49 64l10 6l2 10q6 29 -5 45.5t-35 12.5q-10 -2 -34 -10.5t-36 -8.5q-20 0 -39 14q-10 8 -25 15q6 25 -7 54.5t-13 39.5q0 14 8 29.5t25 50.5l4 12q20 12 47 37q35 31 100 14q123 -31 123 -133q0 -23 -6 -45q0 -35 -12 -106 q-4 -23 -31 -45l-8 -9q-14 -14 -17 -24q-6 -25 -77 -62q-63 -33 -95 -36q-16 4 -47 -5q-20 -12 -41 -6q-27 12 -82 33q-33 6 -43 37q-2 16 -24 47q-14 10 -37 33q-39 53 -19 137q2 12 -6 39t-8 43z" />
<glyph unicode="A" horiz-adv-x="2914" d="M-41 -655h14l-8 24l-2 6l31 23v15q0 25 4 63l12 8q-2 23 -2 67l12 9q4 35 21 100q12 14 31 45q0 20 8 62q10 23 79.5 121t90.5 118q14 6 39 23q20 35 71 100q27 14 56 37l6 24q6 4 21.5 7.5t21.5 7.5q4 18 20 47q20 6 56 20q12 20 43 56q16 4 45 16q14 16 49 45 q25 10 70 31q78 53 243 145q59 16 172 53q10 4 39 27q20 16 49 19q16 -2 49 2q47 20 144 53q37 2 104 10q162 31 451 51q78 2 158 2q98 4 139 31q12 8 37.5 49t29.5 56q-2 14 2 38q12 8 33 25q8 12 14.5 40t10.5 36q20 18 49 63q0 27 12 76q16 10 39 37q0 23 10 63 q20 18 54 60q14 43 51 127q16 16 41 51q2 31 16 92q16 14 35 45q-4 12 -4 31q4 12 29.5 34.5t31.5 35.5q4 39 25 108q23 16 49 53q-2 10 -2 29q2 14 26.5 35.5t26.5 34.5q-2 12 -4 32q4 14 25.5 35t27.5 35q0 18 5 51q6 16 33.5 45t33.5 49v11q0 23 6 59q6 14 35 32.5 t35 35.5q-2 16 -4 45q12 10 37 32q16 18 34.5 65.5t36.5 66.5q27 16 62 59q-2 14 4 41t41 64.5t45 56.5q18 49 74 137q25 14 67 45q12 31 51 80q29 4 74 31q0 20 10 53q14 23 54.5 55.5t54.5 52.5q4 20 20 52q14 18 54.5 38.5t52.5 32.5q18 29 63 84q39 23 109 74 q14 29 51 80q45 25 119 84q2 10 12 31q8 8 35 20q16 6 27 41q20 6 53 25q20 33 76 92q23 18 76 39.5t71 35.5q12 14 43 37q18 4 47 17l2 14q35 8 99 31q27 20 88 55q45 8 135 31q16 12 51 31q37 4 109 16q35 14 108 37q119 20 342 20q172 0 297 -18q41 -12 133 -25 q23 0 76 -22q76 -31 80 -33q25 -2 76 -14q20 -8 49.5 -35t42.5 -35q20 -6 55 -31l96 -160q5 -13 5 -25q0 -6 -1 -11q-6 -16 -10 -33q-18 -88 -96 -146q-20 -12 -162 -86q-23 -18 -76 -45q-55 -4 -166 -16q-45 -10 -92 -20q-53 -10 -94 -11l-14 39q2 0 174 31q18 10 59 22 q158 27 174 33q45 18 125 105q49 53 49 71q0 20 -14 64q-27 78 -45 92q-37 27 -72 51q-27 35 -94 92q-8 4 -149.5 47t-151.5 43h-80q-20 0 -65 11.5t-70 11.5q-39 0 -110.5 -6t-106.5 -6q-14 0 -41 4t-39 4h-14q-18 -10 -56 -25q-31 0 -88 -8q-25 -12 -73 -33 q-78 -12 -226 -57q-14 -14 -47 -39q-35 -10 -100 -39q-16 -16 -55 -45q-37 -12 -107 -47q-20 -14 -52 -51t-50.5 -46t-55.5 -28q-18 -23 -59 -65q-20 -12 -43 -24.5t-27 -37.5q-12 -4 -34 -16q-23 -37 -80 -103q-20 -6 -58 -28q-2 -12 -12 -31q-18 -8 -51 -31 q-16 -29 -57 -78q-25 -12 -70 -45q-23 -20 -54.5 -68t-50.5 -69q-27 -16 -71 -53q-20 -41 -76 -117q-43 -23 -117 -86q-2 -20 -16 -59l-21 -8q-8 -4 -16 -31q-10 -35 -12 -39q-18 -14 -54 -53q-2 -20 -18 -56q-14 -8 -35 -30q-12 -33 -45 -90q-16 -12 -45 -48 q-8 -14 -15 -45.5t-14 -46.5q-29 -35 -75 -114q-4 -27 -19 -76q-18 -39 -77.5 -108.5t-75.5 -114.5q2 -12 0 -39q-16 -16 -43 -54q-2 -16 -9 -47q-6 -18 -33.5 -45.5t-33.5 -48.5q0 -35 -12 -90q-6 -2 -18.5 -8t-17.5 -30.5t-10 -31.5q-14 -6 -36 -30q0 -18 -4 -56 q-16 -20 -46 -65q-6 -29 -24 -86q-25 -31 -66 -99q-6 -35 -26 -100q-16 -39 -69.5 -103.5t-70.5 -103.5q0 -16 -8 -49q-29 -45 -69 -151l34 -31q16 -6 52 -6q39 0 57 6q18 33 64.5 70.5t82.5 52.5q10 -14 25 -47q-1 -8 -1 -18q0 -20 3 -50q12 -35 100 -45q57 -4 117 -8 q57 -12 175 -54t177 -55q0 -8 5 -18l14 -37l-51 2l-25 -2l4 -12h-47l-14 -2l6 -17h-31q-51 0 -78 17q-47 33 -63 39q-94 37 -238 38q-125 0 -125 -65v-21q2 -14 2 -22q0 -47 -32 -76q-2 -8 -1 -29.5t-5.5 -30.5t-18.5 -34q2 -18 4 -55q-10 -20 -22 -68q0 -8 9 -75.5 t11 -76.5q10 -29 36 -43t30 -26q0 -2 6 -17q-39 -20 -58 -22q7 0 7 1t-78 1q-29 0 -48.5 -20.5t-31.5 -20.5h-23l-22 14q0 12 -4 42t-2 44q12 18 26 62q-8 38 -8 102v27q4 18 41 84q27 50 27 89v5q0 6 -4 21.5t-4 23.5l18 16q-2 18 -4 54q0 12 10 34.5t10 36.5t-18 50 q-35 12 -74 26.5t-65 14.5q-45 0 -72 -27q-49 -47 -51 -49q-12 -2 -33 -19q6 -39 -14 -57q-25 -27 -27 -41q2 -8 0 -23q-8 -14 -39 -34q-37 -25 -45 -35q-6 -18 -29 -53q-20 -10 -55 -39q-12 -25 -45 -62q-10 0 -29 -6q-10 -20 -34 -53q-25 -8 -68 -33q-8 -23 -31 -61 q-39 -39 -116 -74q-66 -29 -132 -57q-16 -18 -59 -48q-20 -8 -76 -8q-158 0 -336 86l-4 15l-10 24q14 6 39 25q6 6 27 53q14 33 47 33q29 0 63 -21q49 -31 60 -35q104 -41 237 -43h7q98 0 182 58q12 18 45 47q20 2 55 12q12 10 22.5 39t20.5 39q18 8 51 31q12 23 39 61 q23 16 66 56q6 20 28 51q12 4 33 16q12 12 25.5 47t23.5 45q20 14 44 31.5t20 38.5l-2 10q-10 10 -33 37q-283 0 -520 -25h-17q-72 0 -192 -14q-10 -8 -37 -25q-33 0 -96 -6q-31 -6 -76 -28q-57 -27 -76 -33q-39 -8 -111 -31q-35 -23 -108 -61q-18 0 -51 -6q-12 -18 -47 -50 q-14 0 -43 -6q-14 -4 -34 -26.5t-30 -28.5q-27 -6 -76 -29q-25 -31 -82 -86q-23 -8 -61 -30q-6 -16 -23 -45q-33 -18 -92 -62q-31 -29 -123 -143.5t-106 -147.5q-25 -55 -45 -147q-16 -76 -33 -154q2 -2 8 -14q8 -23 13 -70h-17q2 -10 12.5 -30.5t11.5 -30.5q0 -4 -8 -12.5 t-8 -18.5q0 -12 7 -31v-7q0 -41 20 -138q23 -63 74 -123q8 -27 20 -67q6 -18 35 -46t29 -49q0 -31 -35 -57.5t-64 -26.5q-10 4 -34 9q-39 43 -86 112q0 27 -11 86q-23 37 -59 115q-10 29 -10 72q0 59 -2 72.5t-17 51.5q-10 28 -10 45v5zM3037 1696q-4 12 41 97t62.5 102.5 t48.5 52.5q8 35 33 100q20 18 49 61q0 12 4 39q20 18 53 60q10 31 39 86q33 29 92 92q6 25 29 70q25 18 69 61q6 20 27 61q29 27 74 93q2 18 16 47q12 4 33 14q14 23 47 61q23 12 63 39q10 23 39 62q23 8 60 28q20 29 65 78q35 18 101 64q6 12 20 28q25 6 70 25 q33 29 104 74q12 6 38 13t35 12.5t30 19.5q10 8 39 8q10 0 27.5 19.5t21.5 21.5q35 12 100 39q16 16 47 37h25q14 0 50 22.5t48 26.5q33 2 94 14q10 8 31 23q12 4 37.5 4t50.5 10q35 14 47 17h-1q0 -2 75 -3q18 0 43 12.5t41 12.5l2 2q31 0 37 -12q8 -18 12 -21 q-47 -27 -152 -39q-119 -16 -159 -30q-59 -27 -183 -74q-49 -12 -137 -49q-8 -10 -28 -31q-37 -14 -107 -45q-16 -18 -59 -47q-18 0 -54 -6q-39 -14 -137 -84q-25 -29 -80 -78q-43 -20 -123 -70q-25 -18 -53 -59q-37 -49 -51 -64q-29 -18 -78 -61q-10 -25 -37 -68 q-27 -29 -78 -86q-2 -2 -9 -23.5t-13 -21.5h-14q-16 -23 -41 -78t-43 -77q-16 -8 -45 -31q-12 -31 -45 -84q-76 -94 -226 -321q-10 -27 -37 -72q-10 -2 -26 -12q-4 -23 -23 -62q-18 -14 -47 -47q-6 -31 -35 -76q-12 0 -34 -10q-4 10 -15 33zM5382 3531q63 12 129 24 q80 15 131 15h2q53 0 60 -13q-4 -27 -140 -41q-84 -8 -170 -16z" />
<glyph unicode="B" horiz-adv-x="3743" d="M-1300 -203q20 41 40 137q0 29 5 86q6 35 26 70q25 49 31 64q10 47 49 129q16 10 45 32q8 23 35 66l18 6q23 39 70 115q45 45 129 137q12 23 45 66q31 23 90 71q39 43 127 115q18 6 53 24q6 6 18.5 19.5t18.5 19.5q18 6 54 25q43 37 133 106q29 12 80 41q6 10 22 23 q16 2 51 16q14 18 47 47q23 8 70 27q29 25 92 64q14 0 43 8q35 25 107 65q59 20 174 66l12 14q8 6 25.5 6t85.5 35q82 43 98 49q70 18 213 58q31 18 94 41q-12 -2 39 -3q18 0 102 29q92 33 115 37q37 2 115 8q88 10 180 27q16 6 35 16q12 4 207 4q29 0 80 4q96 8 460 31h27 h-2q0 -2 147 -18q100 -2 299 -17q80 -10 148 -37q12 -14 41 -34q29 -2 80 -15q8 -10 26 -24q33 -4 95 -19q29 -20 88 -55q219 -100 297 -156q162 -115 182 -264q5 -35 5 -54q0 -9 -1 -15q-4 -25 -27 -48q-33 -33 -37 -41q-12 -25 -47 -71q-47 -51 -182 -121 q-66 -25 -129 -51q-90 -35 -111 -70q-6 -25 -24 -74q86 -53 174 -106q94 -72 94 -166q0 -18 -4 -39q-25 -143 -176 -213q-94 -47 -289 -125q-31 -8 -78 -10q-57 0 -75.5 -3t-61.5 -22q-35 -12 -65 -12q-23 0 -65 5t-64 5q-20 0 -62.5 -5t-64.5 -5q-35 0 -93 16 q-63 18 -92 21q-11 -1 -24 -1q-41 0 -107 5q-12 2 -35.5 14.5t-46.5 12.5q-10 0 -32.5 -2t-34.5 -2q-23 0 -37 10q-20 12 -31 14q-51 6 -149 17q0 6 -17 18q4 14 17 39q25 10 59 26q18 14 57 39q41 16 88 17q59 0 167 -29t165 -29q63 0 141 19q90 20 134 53q16 23 51 66 q10 6 26 18q29 18 52 55q16 31 35.5 62t42 60.5t28.5 66.5q4 20 -20 28q-33 12 -39 19q-2 4 0 16q2 10 -2 15q55 31 129 84q6 8 35 102q31 119 61 238q51 164 121 200q12 0 34.5 11.5t47.5 25.5q12 8 57 19q16 -43 12 -62q-27 -51 -65 -139q-10 -59 -37 -180 q-12 -33 -29 -101l-2 -20q66 -6 66 -8h-4q25 0 51 16q43 25 47 27q137 59 164 77q66 49 84 152q6 63 18 190q-6 10 -17 20.5t-46 14.5t-45.5 14.5t-28.5 32.5q-31 14 -90 50q-12 14 -41 40q-29 10 -82 39q-10 18 -41 48q-14 6 -57 6q-29 0 -49 14q-29 18 -39 23 q10 -2 -33 -3q-16 0 -86 52q-76 55 -103 63q-29 8 -84 8h-23h-27q-51 0 -76 6q-20 14 -68 33q-100 16 -289 17q-8 0 -27.5 -4.5t-29.5 -4.5q-16 0 -51 2.5t-54 2.5q-37 0 -82 -21q-16 -4 -73 -4q-27 0 -80 3t-80 3t-430 -33q-41 0 -125 -10q-20 -8 -59 -22q-33 -2 -99 -9 q-39 -8 -96 -28q-82 -33 -92 -37q-37 -6 -111 -23q-29 -16 -88 -43q6 2 -26 2q-10 0 -29 -14q-25 -18 -31 -20q-18 0 -57 -9q-14 -12 -45 -30q-39 -12 -115 -43q-20 -14 -65 -39q-31 -8 -93 -31q-25 -12 -69.5 -45t-70 -43t-77.5 -35q-14 -18 -49 -49q-43 -14 -123 -55 q-25 -23 -78 -66q-66 -41 -190 -127q-53 -39 -227 -229q-20 -14 -56 -47q-23 -41 -71 -123q-16 -10 -39 -41q-2 -4 -2 -29q-12 -14 -35 -45q-2 -12 -6 -35q0 -8 -2 -12l-17 -14q-27 -57 -53 -115q-27 -63 -37 -117q-6 -34 -6 -70v-18q0 -8 7 -30.5t3 -36.5q-4 -16 -10 -50 q-4 -23 10.5 -45t10.5 -41q-6 -29 -58.5 -62.5t-83.5 -33.5h-47q-27 91 -27 122q0 6 1 9zM2470 80q8 -4 20 -14q23 -6 142 -9q35 0 61 -10q35 -14 51 -16q35 -6 109 -6q164 0 237 38q20 10 35 39q20 37 28.5 42.5t27.5 15.5q18 23 26 69q4 24 4 45q0 33 -10 58 q-12 31 -66 67q-41 27 -81 54q-25 20 -50 41q-30 24 -55 24h-2h-4l-2 -2q-59 -35 -93 -82t-67 -94q-25 -29 -71 -61q-39 -25 -78 -52q-27 -31 -88 -82q-23 -4 -60 -22q-2 -14 -14 -43z" />
<glyph unicode="C" horiz-adv-x="1888" d="M12 256v16q0 33 6 72q25 150 76 244q23 27 58 82q4 27 18 75q20 16 53 50q8 25 25 59q10 4 28 16q33 55 107 158q12 10 37 33q16 35 57 100q12 14 47 33.5t49 34.5q27 35 84 98q29 16 84 51q55 55 177 150q14 4 45 16q10 12 30 33q53 27 156 84q12 12 39 33q47 25 123 43 q61 16 123 30q57 23 176 52q31 4 98 4q98 0 115 -13q8 -6 11 -21t7 -22q-117 -69 -188 -69h-2q-18 0 -56.5 6t-58.5 6q-156 0 -279 -51q-29 -12 -71 -43q-51 -39 -70 -49q-45 -18 -129 -64q-8 -14 -31 -35l-16 -2q-18 -23 -59 -63q-51 -35 -148 -117q-23 -33 -74 -94 q-14 -8 -36 -23q-2 -10 -15 -32q-23 -14 -57 -52q-4 -10 -16 -30q-23 -18 -60 -60q-6 -20 -26 -57q-12 -8 -30 -28.5t-34 -65.5q-20 -66 -25 -74q-16 -25 -43 -96q-4 -23 -10 -68q-16 -57 -41 -172q-7 -42 -7 -68q0 -10 1 -18q2 -8 11.5 -24.5t7.5 -28.5q-4 -8 -9 -25 q-2 -10 8.5 -22t10.5 -17q4 -37 20 -110q12 -25 49 -64t58 -45q8 -2 30 -2q8 0 35 2h35l112 -4h-1q121 0 194 31q23 14 66 41q55 16 162 67q25 25 77 66q29 12 82 41q41 43 129 117q12 2 33 10q10 14 33 39q25 10 67 41q20 33 64 94q70 82 127 82q29 0 43 -20.5t10 -49.5 q-6 -37 -37.5 -71.5t-31.5 -36.5q0 4 -5 4q-8 0 -61.5 -35t-65.5 -35h-2q-41 0 -88 -43q-39 -35 -77 -69q-47 -23 -140 -76q-20 -23 -65 -60q-31 -8 -90 -34q-25 -20 -76 -56q-43 -23 -111 -45q-104 -35 -112.5 -38t-98.5 -48q-45 -24 -103 -24h-5q-31 0 -54.5 -12.5 t-39.5 -14.5q-23 -6 -78 -8q-17 -1 -32 -1q-99 0 -136 23q-6 8 -21 25q-70 59 -75 63q-25 31 -39 97q1 14 1 35t-1 47q-4 16 -30 46.5t-28 55.5z" />
<glyph unicode="D" horiz-adv-x="3743" d="M-541 -205q4 18 13 55q-6 16 -7 58q8 12 25 43q2 8 4 24.5t6 24.5v12q18 33 49 99q4 23 19 63q14 14 39 45q12 20 29.5 66.5t31.5 66.5q14 12 39 39q10 29 39 82q10 10 27 33q12 35 49 102q25 18 72 60q18 29 63 84q33 27 96 77q43 45 137 125q18 6 54 21q41 41 133 110 q18 6 57 23q20 20 64 55q25 8 75 31q18 18 62 45q23 2 65 16q10 14 37 39q25 16 77 30.5t71.5 26t60.5 33.5q35 6 98 31q8 10 28 22.5t56 20.5q45 8 58 12q49 23 149 62q53 6 152 31q6 4 20.5 18t26.5 14h10q8 -2 10 -2q12 0 50 17.5t67 17.5q14 0 41 -3t39 -3 q41 0 121 17.5t117 17.5q16 0 44.5 -5t43.5 -5q14 0 37.5 9t35.5 9q-2 0 84 -18q12 -1 64.5 -1t146.5 1h13q123 0 211 -37l12 -17q33 0 90 -16q6 -8 18 -23q25 -6 76 -22q8 -8 25 -21q31 -4 90 -18q12 -12 41 -31q53 -16 149 -69q12 -20 47 -54q16 -4 48 -14q20 -25 67 -70 q25 -10 70 -38l55 -78q25 -14 61 -54q2 -12 7 -38q20 -16 55 -56q2 -18 10 -53q14 -10 33 -37q0 -29 8 -86q14 -12 33 -39q18 -45 18 -106q0 -41 -8 -88q-25 -135 -207 -277q-20 -23 -67 -61q-39 -16 -117 -56q-12 -10 -35 -28q-39 -14 -117 -47q-14 -12 -45 -31 q-37 -6 -114 -23q-18 -10 -56 -22h-61q-18 0 -35 -10q-25 -12 -31 -15q-45 -14 -110 -14h-17q-25 0 -73.5 10t-75.5 10q-14 0 -46 -8t-50 -8q-33 0 -68 10l-12 17q-5 1 -35 1t-84 -1q-45 0 -104 24q-74 29 -101 35q-113 16 -227 33q-139 23 -207 69q0 6 2 16.5t66.5 50.5 t87.5 40q14 0 36.5 -10.5t28.5 -12.5q70 -8 203 -30q12 -2 41 -15q20 -10 47 -10q59 0 173 23.5t163 48.5q18 16 57 45q12 4 39 16q35 20 139 170q18 20 50 60q12 41 45 125q20 23 45 69q2 8 -1 24.5t-3 22.5q14 16 34 54q8 16 31 141q6 35 27 98q10 20 84.5 71.5t97.5 51.5 q16 -2 47 -8q-29 -166 -96 -324q-23 -35 -66 -106q-2 -8 -4 -29q-12 -14 -33 -43q-14 -35 -49 -106q-164 -256 -518 -410q2 -14 -2 -47q35 -10 105 -29q41 0 122 -8q20 -10 64 -27q29 -4 86 -4q61 0 233 23q47 2 142 14q74 18 159 78q18 18 58 53q20 8 59 31q47 37 89 119 t53 141q6 33 0 51q-10 25 -11 37q0 2 4 45q4 29 -6 39l4 16q10 18 23 58q1 4 1 9q0 35 -42 69q-70 55 -70 57q-2 10 -10 31q-23 14 -53 53q0 16 -6 47q-8 14 -39 30.5t-38 28t-24 35.5q-23 10 -63 37q-4 12 -19 31q-10 2 -28 8q-20 29 -72 76q-25 12 -79 22.5t-77 18.5 q-33 23 -104 61q-31 6 -90 25q-6 8 -27 20q-80 39 -160 56q10 -2 -45 -2q-29 0 -90 20t-96 20q-18 0 -51 -5t-47 -5q-8 0 -56 17q-23 8 -129 8q-80 0 -163 -8q-29 -8 -89 -17q-14 0 -42.5 5t-43.5 5q-23 0 -49 -14t-39 -18q-39 -2 -116 -15q-8 -2 -25 -8l-2 -16q10 2 -57 2 q-14 0 -33 -10q-25 -12 -33 -15q-20 0 -56 -7t-99.5 -39t-96.5 -40q8 2 -24 2q-10 0 -43 -20q-39 -23 -49 -27q-18 0 -58 -6q-29 -8 -78 -39t-73 -41q-23 -2 -64 -12q-4 -2 -10 -11.5t-10 -13.5q-29 -10 -84 -39q-8 -10 -29 -30q-37 -16 -109 -54q-51 -31 -127 -94 q-98 -82 -122 -100q-49 -29 -136 -98q-6 -12 -20 -41q-51 -43 -135 -146q-6 -25 -27 -69q-39 -53 -106 -162q-2 -8 -4 -25q-27 -41 -66 -114q-2 -8 -10 -50q-20 -53 -53 -166q-7 -36 -7 -101v-17q2 -76 13 -113q2 -6 9 -16.5t7 -16.5q-2 -12 -2 -27q0 -24 4 -57 q6 -14 33 -37q35 -29 39 -32v-17q-2 -14 -55.5 -36.5t-73.5 -22.5q-18 0 -37 6l-12 16q-4 0 -11 -2h-8q-8 0 -39.5 42t-34.5 53q0 12 5 18q8 66 8 51q4 20 -10 40q-10 15 -10 33q0 6 1 11z" />
<glyph unicode="E" horiz-adv-x="2344" d="M98 307q0 12 2 27q10 25 33 82t43 116q25 68 57 111q29 23 78 74q12 27 43 74q12 6 35 24q10 18 36 47t75 88q8 16 24 45q35 18 94 68q2 8 11 22q8 4 24 15q27 27 84 74q35 18 103 63q16 14 51 41q27 8 78 31q23 20 71 55q14 4 47 14q16 14 56 37q39 14 112 41v6l9 17 q2 9 -27 33q-22 19 -22 50q0 10 2 21q4 29 17 44t26 32q6 16 20 43q6 10 92 70q20 23 66 61q12 4 35 10q25 25 79 68q18 6 52 18q14 14 43 41q90 55 174 66q64 8 123 8q68 0 116 -8q33 -10 99 -31l2 -33q-18 -6 -55.5 -24.5t-86.5 -77.5q2 0 0 -2h-2q-6 -2 -18 -2h-2 q2 6 2 2q-12 10 -4 26q0 8 12 48q-6 4 -16 14q-29 0 -76 2q-59 2 -76 2h-15q-76 0 -134 -18q-27 -8 -62 -35q-43 -37 -55 -41t-33 -15q-45 -27 -89 -86t-52 -104q-4 -25 2 -45q10 -31 84 -57q68 -25 110 -25q25 0 51.5 9t41.5 11h86q18 0 56 5.5t56 5.5q51 0 49 -23 q0 -2 -3 -8l-5 -10q-18 -2 -59 -13q-6 -2 -37 -20q-18 -10 -41 -10l-55 2q-16 0 -34 -9.5t-26 -11.5h-86q-137 0 -213 -22q-16 -12 -55 -27q12 2 -43 2q-16 0 -29 -10q-18 -14 -24 -16q-33 -6 -99 -31q-10 -10 -34 -29q-31 -12 -95 -39q-31 -25 -98 -69q-18 -6 -55 -25 q-6 -8 -21 -25q-49 -31 -135 -102q-6 -12 -26 -37q-12 -6 -37 -26q-31 -43 -97 -129l-43 -43q-111 -143 -147 -234q0 -12 -4 -37q-14 -16 -33 -74q-8 -41 -10 -86q0 -18 8 -51t8 -47q6 -168 53 -248q18 -14 54 -49q6 -16 22 -43q10 -4 29 -14q27 -33 90 -86q18 -4 53 -12 q161 -58 228 -58h2q14 0 48 2t52 2q27 0 77 -4t75 -4q55 0 88 8q20 10 59 23h55q31 0 89.5 21.5t86.5 21.5q2 0 7 2q20 14 67 37q14 0 45 6q6 2 18.5 13t24.5 11h29l-10 -26q-41 -18 -123 -53q-16 -2 -49 -13q-6 -2 -33 -18q-10 -6 -41 -6q-6 0 -26.5 -11.5t-26.5 -13.5 q-70 -14 -207 -51q-18 -10 -60 -23q-41 -2 -122 -8q-238 -20 -232 -20q-39 0 -72 12q-18 6 -70 8t-75 13q-8 4 -18 14q-4 4 -29 4q-45 0 -115 49q-8 14 -31 45q-10 4 -32 19q-10 20 -37 55q-37 37 -76 72q-39 45 -45 94q4 18 4 55l-10 10q0 20 -2 64q-2 14 -15 53 q-8 29 -8 49zM1860 27v2q0 6 2 18q0 -4 2 10h2q35 0 90 56q12 20 39 55q23 14 57 47q4 8 12 27q16 14 45 45q16 31 52 90q14 12 32 39q14 35 15 78q0 37 -10 84q-10 41 -11 40q3 13 19 13q23 0 30 -22.5t13 -43.5q6 -6 16 -20q3 -10 3 -24t-3 -32q-14 -88 -61 -155 q-16 -14 -45 -47q-18 -33 -62 -94q-35 -39 -170 -136l-20 -20q-10 -10 -20 -10h-3q-25 0 -24 0z" />
<glyph unicode="F" horiz-adv-x="2650" d="M4 -33q-2 11 -2 25q0 24 6 57q12 72 60 152q4 0 47 6q0 -2 -2 -10q0 -4 8 -4q-14 -41 -23 -95q-10 -59 -10 -110q0 -82 27 -129q23 -18 57 -56q6 -16 29 -41q76 -53 245 -53q211 0 420 82q20 12 60 33q25 4 73 20q25 20 76 58q8 2 23.5 4t21.5 6q12 16 43 43q25 10 72 35 q20 25 68 67q14 4 34.5 21.5t40.5 60.5q25 51 39 68q27 23 68 74q6 29 26 81q10 23 46 63t47.5 68.5t24.5 93t28 95.5q16 20 45 63q12 29 25.5 86.5t25.5 83.5q2 4 14.5 20.5t12.5 20.5v15q-2 8 -2 6l2 12q-31 10 -86 15q-74 4 -88 6q0 35 0 34q35 18 69 37q14 6 74 6 q41 0 55 13q4 10 13 26q20 23 49 74q2 27 10 78q4 25 22 53q27 41 31 49q12 39 47 115q16 14 49 47q20 33 60 100q39 55 104 170q-10 10 -19 20.5t-36 10.5q-16 0 -49 -4t-49 -4q-23 0 -68 9t-70 9q-31 -8 -87 -16t-236 -8h-45q-31 -2 -47 -2t-44 4t-42 4q-20 0 -41 -8 q-27 -12 -37 -15h-5q-14 0 -63 5q-23 0 -49 -13q-33 -16 -47 -18q-43 -4 -84 -10q-53 -6 -84 -25q-57 -33 -76 -86q0 -4 -4 -10q0 -14 -4 -41q0 -6 -4 -15.5t-72.5 -44t-78.5 -34.5h-33q0 6 -2 18q-2 10 0 18t20.5 23.5t22.5 42.5q4 18 18 28.5t29 18.5q12 18 43 49 q27 23 74 41q41 14 81 29q29 16 91 45q139 51 235 51q12 0 40 -2t42 -2q18 0 52 8t48 8q8 0 23.5 -4t23.5 -4h7q39 20 116 21q33 0 94.5 -4t92.5 -4q18 0 53 4t51 4q164 0 238 -6q8 0 30 -5q16 -4 29 -4q39 0 92 31q63 39 84 45q18 0 54 6q4 2 16 8.5t22 6.5q6 0 52 -21 l-4 -20q-23 -14 -117 -54q-74 -31 -111 -67q-23 -23 -47 -64q-35 -59 -43 -69q-43 -55 -119 -170q-14 -27 -96 -238q-23 -45 -53 -141q-6 -29 0 -47q6 -33 133 -33q98 0 246 18v-26q-145 -55 -271 -55q-14 0 -38.5 3t-36.5 3q-33 0 -46.5 -10.5t-29.5 -22.5l-6 -2 q-8 -10 -15 -55q-4 -29 -30 -74q-41 -72 -41 -74q-4 -10 -8.5 -32.5t-8.5 -34.5q-23 -43 -65 -132q-6 -25 -27 -73q-14 -14 -43 -47q-6 -23 -24 -70q-23 -29 -64 -86q-6 -18 -23 -57l-14 -7q-8 -10 -19.5 -30.5t-17.5 -28.5q-23 -16 -63 -49q-49 -55 -162 -150 q-31 -10 -84 -41q-8 -10 -25 -26q-20 -6 -57 -21q-47 -31 -147 -82q-20 -4 -62 -14q-16 -14 -53 -35q-51 -10 -152 -41q-10 -8 -28 -20q-25 -10 -64 -12q-55 -4 -63 -7q-29 -12 -86 -28h-19q-23 0 -55 8q-39 10 -51 12q-49 6 -101 10q-57 8 -94 25q-18 8 -37 31 q-31 35 -30 35q-25 20 -64 69q-6 27 -20 82q-12 14 -27 47z" />
<glyph unicode="G" horiz-adv-x="2164" d="M70 256v11q0 29 8 77q31 158 76 244q23 27 57 82q4 27 18 75q20 16 54 50q8 25 24 59q10 4 29 16q20 23 52 79.5t52 78.5q12 10 37 33q16 35 60 100q14 14 47.5 33.5t48.5 34.5q27 35 84 98q29 14 82 51q33 20 89 74.5t89 75.5q16 4 43 16q10 12 33 33q53 27 155 84 q12 12 39 33q47 25 123 43q61 16 123 30q57 23 174 52q30 4 98 4q98 0 117 -13q8 -6 11 -21t8 -22q-117 -69 -189 -69h-2q-18 0 -56 6t-59 6q-156 0 -280 -51q-29 -12 -72 -43q-51 -39 -67 -49q-45 -18 -129 -64q-8 -14 -31 -35l-17 -2q-20 -23 -61 -63q-51 -35 -145 -117 q-23 -33 -74 -94q-14 -8 -37 -23q-2 -10 -14 -32q-23 -16 -60 -52q-4 -10 -14 -30q-23 -18 -59 -60q-8 -20 -29 -57q-12 -8 -29.5 -28.5t-34.5 -65.5q-20 -66 -24 -74q-16 -25 -43 -96q-4 -23 -10 -68q-14 -57 -39 -172q-8 -48 -8 -73q0 -8 1 -13q2 -8 11.5 -24.5t7.5 -28.5 q-4 -8 -8 -25q-2 -10 8 -22t10 -17q4 -37 21 -110q12 -25 49 -64t57 -45q8 -2 31 -2q8 0 67 2q20 0 58.5 -2t54.5 -2q121 0 193 31q23 14 67 41q55 16 162 67q25 25 76 66q29 10 84 41q41 43 129 117q12 2 33 10q10 14 32 39q23 10 68 43q18 33 65 90q29 8 76 43q8 29 29 82 q23 33 59 100q4 20 19 60q20 18 45 61q2 12 6 35q0 8 2 10q16 39 74 92q66 61 180 76q2 -4 11 -18q7 -12 7 -21q0 -26 -55 -112q-45 -70 -76 -107l-20 -10q-20 -37 -47 -137q-37 -127 -43 -146q-23 -31 -52 -100q0 -14 -4 -41q-4 -16 -18 -41q-20 -31 -25 -41 q-6 -33 -24 -100q-16 -20 -41 -76q0 -16 -4 -49q-4 -18 -17 -39q-18 -29 -22 -37q-8 -35 -33 -98q-16 -16 -35 -50q0 -2 -3 -18t-44 -61q-49 -55 -53 -62q-29 -51 -103 -145q-18 -10 -53 -31q-18 -14 -141 -113q-84 -72 -148 -104q-25 -6 -71 -25q-45 -35 -140 -90 q-106 -43 -225 -43q-86 0 -143 27q-14 6 -33.5 28.5t-32.5 28.5q-20 2 -55 17q-10 8 -12 26q0 27 -2 31q68 -37 138.5 -72t158.5 -35q109 0 182 41q12 12 39 35q41 14 115 49q23 18 71 56q51 25 148 94q12 23 45 67q29 23 80 74q12 29 41 84q25 27 63 82q12 43 45 125 q29 43 70 137q2 18 6 58q4 29 39 98t41 104q1 6 1 11q0 30 -40 30q-41 0 -88 -43q-39 -35 -78 -69q-47 -23 -139 -76q-20 -23 -66 -60q-31 -8 -90 -34q-25 -20 -76 -56q-43 -23 -110 -45q-104 -35 -112.5 -38t-98.5 -48q-45 -24 -104 -24h-5q-31 0 -54.5 -12.5t-39.5 -14.5 q-23 -6 -78 -8q-17 -1 -32 -1q-99 0 -136 23q-6 8 -22 25q-70 59 -74 65q-27 29 -39 95q1 14 1 35t-1 47q-4 16 -30.5 46.5t-28.5 55.5z" />
<glyph unicode="H" horiz-adv-x="4769" d="M-90 -416q6 33 27 80q29 70 30 76q6 20 19 84q23 131 135 237q20 12 59 37q25 27 78 72q23 8 66 27q23 25 73 63q20 4 58 16q27 25 82 64q37 12 106 45q29 27 92 72q92 43 277 133q61 43 188 106q18 2 55 13q23 8 134 82q96 63 143 69q-14 -2 37 -2q10 0 35.5 17.5 t31.5 19.5q39 16 150 35q4 -12 4 -21q-4 -20 -78 -43l-94 -24q-6 -2 -320 -135q-31 -14 -79 -48q-57 -39 -82 -51q-74 -29 -219 -98q-31 -27 -95 -72q-25 -8 -78 -28q-37 -29 -110 -78q-18 -4 -57 -19q-41 -20 -99 -65q-78 -57 -96 -70q-51 -20 -139 -80q-12 -12 -70.5 -98 t-62.5 -98q-4 -29 -15 -90q-4 -18 -21.5 -47t-21.5 -41q-14 -41 -16 -76q-8 -47 -8 -90q0 -125 65 -199q72 -80 203 -80q106 0 221 41q51 29 158 82q27 6 76 25q16 18 53 47q20 4 57 16q70 33 162 98q33 33 102 93q35 14 99 51q33 23 83 78t78 75q51 31 144 107 q37 43 112 125q31 20 84 69q49 78 156 224q20 14 51 47q8 27 35 80q12 8 31 26q8 20 29 64q8 14 77 100q43 51 54 115q6 37 45 100q55 94 57 96q4 25 10 72q4 31 49 87t54 110q4 20 12 34l20 9q8 20 29 63q23 18 53 64q8 43 27 122q10 23 14 39q2 10 -9 20.5t-13 14.5 q-37 -8 -111 -28q0 2 2 2q-2 -2 -8 -2q-31 0 -29 4q4 2 9 6q14 6 28.5 22.5t22.5 22.5q18 14 96 53q61 31 88 62q10 25 39 73q23 27 98.5 76t102.5 49q47 0 34 -2q2 -4 15 -22q6 -12 2 -31q-16 -27 -48 -80t-67 -156q-35 -109 -61 -155q-16 -16 -43 -56q-49 -76 -103 -215 q6 -2 20.5 -10t28.5 -8q23 0 52 18q39 23 47 27q37 8 112 29q27 16 80 43q35 2 103 18q43 27 127 72h10q27 31 52.5 103.5t45.5 101.5q8 10 56 51q37 29 40 59q4 20 37 49q41 39 47 45q18 41 64 117q23 16 65 53q10 10 80 90q51 59 84 80q12 2 37 11q27 27 86 69q14 6 45 21 q33 29 105 80q35 10 104 36q39 29 121 80q33 16 90 33q70 20 92 29q39 29 135 63q31 4 56 4h2q123 0 123 -102q0 -115 -123 -266q-100 -125 -219 -207q-20 -8 -60 -29q-25 -25 -73 -61q-12 0 -37 -8q-31 -29 -97 -82q-57 -29 -166 -90q-23 -18 -73 -52q-31 -10 -86 -37 q-12 -14 -43 -36q-10 -4 -32 -4t-32 -5l-12 -18q-141 -82 -305 -160q-33 -8 -88 -37q-6 -16 -25 -45q-29 -27 -78 -88q-16 -29 -37.5 -86t-37.5 -84q-29 -31 -80 -98q-18 -27 -39 -82t-35 -80q-39 -45 -104 -143q-14 -45 -52 -133q-6 -12 -30 -47q-14 -23 -21 -56 q-31 -35 -72 -94q-6 -10 -11 -30.5t-9 -30.5q-20 -27 -57 -82q-8 -31 -35 -90q-8 -16 -37 -50q-12 -12 -21 -63q-14 -23 -36 -66q-12 -31 -23 -86q-10 -61 -16 -84q25 -20 40 -29t42 -16l-5 -23q-4 -22 -106 -54q-94 -31 -127 -31q-23 0 -39 15.5t-33 29.5q4 18 21 53 q25 14 63 53q25 55 82 162q20 20 56 64q20 33 40.5 97t34.5 91q8 16 25 29q10 6 16 45q2 12 24.5 39.5t31.5 77.5q2 12 27.5 35.5t31.5 33.5q20 39 43 114t39 107q12 12 35 37q12 20 86 178l20 19q4 18 10 59q4 20 26 54t28 49q12 41 26.5 83t44.5 68q6 4 7 10q4 20 -29 54 q-104 -27 -242 -72q-186 -63 -218 -96t-62 -97q-23 -53 -45 -104q-23 -41 -74 -114.5t-72 -108.5q-10 -23 -33 -70q-6 -8 -51 -63q-31 -41 -37 -70q-4 -18 -24 -35q-33 -25 -37 -30q-35 -51 -109 -150q-37 -31 -106 -100q-6 -16 -24.5 -42t-61.5 -59q-49 -35 -66 -51 q-18 -29 -67 -82q-16 -6 -49 -26l-5 -17h-8l-43 -43q-55 -51 -170 -145q-31 -16 -88 -53q-14 -16 -47 -46q-29 -12 -86 -45q-16 -20 -55 -51q-23 -8 -66 -28q-27 -23 -84 -64q-33 -14 -98 -43q-29 -27 -90 -74q-35 -20 -96 -39q-76 -25 -97 -32q-80 -37 -159.5 -70 t-171.5 -33h-70q-47 2 -70 2q-39 0 -104 78q-63 72 -70 115q1 12 1 29t-1 40q0 10 -12 58q-5 18 -5 36q0 13 3 27zM1808 1450q2 4 3 10t1 8q0 18 9 7q10 14 34 36q20 2 66 11q25 10 76 26q51 0 153 8q31 6 101 46q56 34 96 34h4l-4 -18q-74 -49 -225 -123q-35 -4 -105 -20 l-57 -23q-33 -14 -62 -14q2 0 -90 12zM1909 956l4 29q168 80 211 80q18 0 18 -12q-2 -8 -14 -25q-72 -27 -219 -72zM3381 1602h15q4 0 2 -9q29 2 84 19q18 16 59 43q41 10 117 45q10 14 32 37q25 16 79.5 36.5t76.5 32.5q23 23 76 64q29 10 84 35q20 18 65 53q41 14 117 53 q31 33 96 92q57 41 113 82q76 57 96 94q6 18 21 56q16 29 35 57q12 20 20 74q4 23 4 39q0 73 -63 73h-2q-23 0 -33 -2q-14 -12 -41 -28q-61 -23 -125 -45q-80 -31 -117 -60q-6 -10 -22 -28q-29 -20 -94.5 -47t-92.5 -44q-154 -98 -217 -170q-14 -29 -49 -79q-31 -25 -86 -80 q-20 -37 -65 -109q-53 -66 -104.5 -130t-80.5 -154z" />
<glyph unicode="I" horiz-adv-x="1527" d="M-43 121v8q2 4 2 6q29 127 43 146q10 4 27 18q18 -6 45 -27q6 -10 4 -34q-2 -31 -2 -37q12 -129 141 -129q86 0 207 41q133 43 182 102q10 25 37 74q12 6 37 24q14 14 54 87t43 91.5t9.5 56.5t53.5 122t55 129q0 4 6 69q4 23 22.5 50.5t21.5 46t9 57.5q4 18 21.5 47 t20.5 46.5t10 53.5q4 27 26.5 54.5t24.5 43l6 46.5q-4 2 -12 16q-4 6 -27 6q-37 0 -133 -26q-102 -27 -125 -45q-12 -10 -24.5 -40t-22.5 -42l-141 -80h-15q-29 0 -24 24q8 41 59 88q12 0 17.5 1.5t45 38t48.5 40.5q31 16 202 66q66 12 176 47q59 31 123 113q6 14 25 36 q6 6 78 50q18 14 61 32h17q48 0 48 -27q0 -3 -1 -7q-6 -31 -60 -95q-29 -23 -78 -71q-14 -16 -22 -47q-14 -43 -18.5 -49.5t-59.5 -108.5q-37 -68 -45 -111q-2 -25 -11 -74t-44 -128q-51 -113 -58 -129q-88 -238 -141 -338q-104 -197 -239 -285q-20 -6 -60 -23 q-23 -23 -74 -57q-23 -4 -67 -16q-55 -23 -111 -47q-61 -25 -119 -25q-90 0 -196 47q-14 6 -45 34t-33 40z" />
<glyph unicode="J" horiz-adv-x="1458" d="M-1024 -258q0 27 6 61q29 160 86 236q86 115 287 199q-2 -8 4 -23q-55 -33 -154 -111q-55 -55 -90 -159q-6 -23 -18 -62q-12 -16 -27 -49q-4 -21 -4 -60q0 -27 2 -61q4 -88 17 -114q10 -10 26 -33q74 -133 160 -156q43 -12 106 -12q68 0 117 10q18 10 57 25q-10 -2 29 -2 q12 0 35 15t31 17q31 6 90 25q20 14 61 37q35 12 101 43q16 14 49 39q18 6 59 22q31 16 79 63.5t71 63.5q31 14 88 54q2 23 24 36l41 27q12 20 41 57q20 12 58 47q6 18 24 56q23 16 57 53q10 18 20.5 56t22.5 57q8 12 43 39q18 14 29 67q6 37 45 80q59 68 64 74 q27 57 86 174q18 18 51 61q6 25 27 72q14 14 38 47q10 18 19 72q6 37 21.5 54t19.5 26q14 35 28.5 106.5t30.5 106.5q20 16 49 73q0 16 4 49q2 16 38 64.5t44 93.5q2 12 2 31t-2 43q-6 0 -18 4t-21 4q-20 0 -112 -26.5t-110.5 -37t-37.5 -36.5q-25 -35 -32 -43 q-20 -20 -84 -57t-84 -37q-8 0 -22.5 4t-20.5 4q2 4 2 26q0 2 37 29q35 35 114 92q18 8 58 27q23 18 71 45q25 4 74 16l18 17q66 6 197 32q25 8 82 60q49 43 92 43q48 0 48 -37q0 -6 -1 -12q-2 -4 -9 -14.5t-10 -14.5t-12.5 -31.5t-9.5 -34.5q-23 -63 -51 -116 q-20 -29 -55 -88q-6 -29 -23 -86q-23 -35 -57 -113q-2 -4 -8 -43q-4 -20 -29 -68q-33 -57 -37 -69q-27 -72 -84 -213q-16 -35 -51 -84q-55 -78 -59 -82q-16 -37 -58 -111q-18 -20 -51 -61q-25 -63 -88 -184q-14 -12 -37 -37q-4 -14 -16 -41q-10 -4 -27 -17q-12 -29 -43 -78 q-31 -23 -78 -69q-2 -12 -12 -33q-27 -18 -74 -55q-41 -47 -133 -133q-25 -12 -71 -41q-27 -29 -84 -78q-18 -8 -58 -25q-31 -23 -90 -63q-35 -10 -102 -39q-33 -25 -99 -66q-4 -2 -18 4q-12 0 -37 -18q-31 -20 -39 -22q-18 0 -57 -9q-25 -14 -78 -39q-117 -43 -227 -45 q-39 0 -74 13q-47 18 -64 22h-22q-14 0 -27 21q-18 29 -20 30q-35 16 -84 62q2 12 -2 33q-18 16 -47 53q-8 16 -6 47q2 39 0 47q-2 12 -13.5 39t-11.5 43z" />
<glyph unicode="K" horiz-adv-x="1804" d="M-702 -113q0 6 4 17v6l34 16q2 10 7 31h43h4l4 18q68 0 178.5 21.5t169.5 21.5q18 0 52 16.5t48 18.5q-12 -2 37 -2q12 0 35 16.5t29 18.5q35 8 108 29q20 14 62 41q27 4 75 22q14 16 45 41q27 8 76 31q23 23 70 63q29 14 88 49q29 33 90 87q16 4 41 18t49 49 q31 49 39 57q31 25 86 80q6 16 23 47q20 10 55 41q14 16 29.5 55.5t27.5 55.5q14 6 37 25q10 27 35 77q31 27 80 86q8 18 26 56q25 16 58 57q2 20 8 59q2 18 24.5 52t30.5 77q14 31 33 95q2 12 2 22q0 16 -10 26.5t-12 14.5q-92 -37 -248 -74q-18 0 -58 -4q-16 -4 -59 -24 q-27 -12 -76 -13q-27 0 -71 -8q-53 -10 -72 -12q-2 8 -23 16q4 14 11 33q4 4 4 0l10 17q12 0 43 8q33 20 65.5 37.5t77.5 17.5q25 0 73 -6t73 -6q106 0 176 43l10 16q27 4 76 23q12 16 39 47q76 88 162 119l45 16l43 -16q-16 -104 -56 -181q-12 -14 -28 -49 q-20 -72 -80 -213q-12 -20 -43 -53q-14 -14 -25 -70q-2 -14 -28.5 -45t-27.5 -45t-7 -39q4 -4 16 -18q4 -8 29 -8q76 0 273.5 103t201.5 103t7 -4t9 -2q-135 -139 -364 -229q-4 -2 -78 -21q-39 -10 -76 -43q-4 -10 -10 -30q-4 -20 4 -49q8 -37 8 -48v-18q0 -38 -6 -96 q-10 -80 -10 -117q0 -14 7 -42t7 -42q-2 -45 -49 -289q-10 -53 -10 -98q0 -12 5 -35.5t5 -36.5q-8 -35 -20 -102q-4 -27 5 -47.5t9 -32.5t-23 -98q4 -37 6 -117q-2 -47 -22 -162q-18 -104 -19 -162q0 -18 9 -41q1 -4 1 -12q0 -19 -7 -61q-2 -11 -2 -25q0 -21 4 -51 q4 -41 4 -65v-13q-8 -78 -19 -155q-7 -67 -7 -117q0 -20 1 -37q8 -16 16 -45q0 -31 -10 -84q-10 -61 -12 -86q0 -18 8 -43q14 -35 17 -41q0 -14 2 -39q10 -31 63 -31q39 0 78 13l16 18q8 0 13 -2q37 0 36 0l5 -23q-47 -23 -95 -43q-37 -16 -106 -16q-172 0 -178 102 q2 16 -2 52q-2 12 -15 45q-4 12 4 59q-6 29 -10 84q2 59 29 207q8 20 18 63q4 18 -4 29.5t-10 17.5q-2 14 12 105q1 7 1 15q0 23 -8 54t-8 52q0 8 1 14q12 33 31 96q4 17 4 41q0 15 -2 33q-2 57 -2 74q6 29 16 88q9 56 9 103q0 16 -1 30q-8 16 -16 45q0 29 22 154q4 20 4 45 q0 17 -2 35q-2 59 -2 77q4 25 15 74q4 18 -3.5 48t-7.5 44q0 16 9.5 51t9.5 54q0 20 -9.5 57t-9.5 59q0 -12 13 56q2 14 -6.5 32.5t-8.5 28.5v-3q2 0 15 73q4 20 -8.5 37.5t-12.5 29.5q2 -12 10 54q2 16 -8 25t-12 16q-16 0 -47 -9q-16 -29 -43 -69q-43 -33 -123 -105 q-8 -16 -31 -47q-37 -27 -108 -82q-29 -31 -97 -86q-18 -6 -51 -22q-29 -31 -94 -86q-27 -10 -76 -33q-20 -16 -55 -39h-21q-12 0 -40 -20q-37 -27 -41 -29q-39 -10 -119 -37q-94 -47 -289 -121q-100 -29 -244 -47q-123 -16 -245 -31zM1874 1311q2 8 4 24v6q6 14 45 37 q51 29 57 35q39 33 111 103q10 16 35 47q31 23 90 71q72 72 88 101q4 14 18 43q23 16 64 55q18 33 61 94q16 12 47 39q39 55 125 158q20 14 56 47q27 49 88 141q25 18 63 60q16 18 38 60t32 58q23 18 59 62q2 8 5 27.5t39 61.5t40 66q2 18 37 48l47 43q18 31 64 86 q49 39 123 116q4 16 16 52q23 20 61 61q2 10 13 31q18 10 53 32q53 43 164 117q55 18 162 66q8 10 26 22q58 33 146 33q18 0 45 -4q35 -4 43 -4l-6 -31q-31 -10 -60 -22q-6 -2 -61 -2q-20 0 -37 -13q-25 -16 -33 -18q-37 -8 -108 -33q-12 -12 -39 -33q-45 -25 -88 -49 q-51 -29 -80 -61q-10 -25 -35 -70q-23 -37 -74 -96q-37 -29 -104 -92q-6 -14 -23 -41q-20 -12 -53 -39q-4 -12 -14 -33q-41 -47 -115 -150q-16 -43 -60 -118q-12 -10 -36 -33q-16 -33 -56 -86q-10 -4 -26 -16q-27 -29 -69 -92.5t-64 -90.5q-43 -37 -125 -119 q-18 -29 -56 -86q-43 -37 -116 -118q-2 -12 -14.5 -37t-49.5 -55q-43 -35 -52 -49.5t-26 -41.5q-25 -18 -73 -57q-55 -53 -160 -141q-23 -25 -66 -62q-10 0 -35 -10q-10 -6 -60 -54t-67 -48q-26 0 -26 1t2 1z" />
<glyph unicode="L" horiz-adv-x="1722" d="M68 551v8l6 27q90 57 190 57q86 0 191 -33q18 -10 53 -24q16 -4 76 -4q35 0 69.5 -15.5t55.5 -15.5q88 0 209 98q41 35 176 170q25 14 61 51q4 16 16 52q10 18 43 53t43 55l11 55q12 23 37 70q25 59 32 100q2 13 2 24q0 35 -26 36q-31 0 -121 -50.5t-92 -50.5 q-35 0 -35 19q0 14 25 31q20 4 63 18q4 2 92 49q102 55 144 109q10 27 36 76q25 33 136 92q16 14 57 32q6 2 18 2q40 0 40 -30q0 -4 -1 -8q-6 -31 -41 -78t-43 -70q-2 -6 -8 -67q-4 -18 -19.5 -41t-19.5 -35q-6 -27 -24 -82l-21 -17q-33 -63 -98 -186q-10 -25 -41 -74 q-33 -25 -90 -84q-10 -20 -33 -57q-23 -27 -70 -55q-63 -41 -73 -49q-45 -47 -150 -125q-2 -2 -55 -21q-39 -12 -45 -26q-2 -2 -2 -8.5t-4 -24.5q23 -16 180 -109q111 -68 174 -121q18 -27 61 -73q45 -31 127 -101q6 -16 25 -43q23 -8 61 -32q27 -23 65 -84.5t64 -83.5 q20 -10 62 -33q20 -25 63 -68q31 -14 82 -49q8 -16 29 -43q14 -4 37 -16q25 -20 64.5 -71.5t62.5 -72.5q31 -18 88 -57q29 -37 92 -102q31 -25 96.5 -60t89.5 -55q6 -4 15 -21q4 -6 28 -6q25 -23 72 -51q23 0 66 -8q12 -10 38 -23q39 -14 119 -16h13q27 0 59 6q25 4 59 25 q49 31 60 35q63 20 190 75q39 29 123 84q41 20 113 76q6 14 24 39q6 6 24.5 16.5t24.5 18.5q20 29 45 180q4 23 9 39q4 0 14 -2h16h11q16 -51 16 -93q0 -20 -4 -38q-14 -80 -127 -187q-12 -14 -24.5 -29.5t-30.5 -13.5q-10 -12 -31 -30q-25 -6 -72 -25q-43 -33 -133 -84 q-31 -6 -88 -26q-12 -12 -39 -35q-55 -31 -129 -58h-26q-8 0 -28 -11t-26 -13q-16 -6 -69 -6q-29 0 -59.5 -14.5t-39.5 -14.5q-16 0 -44.5 11.5t-39.5 13.5q-31 0 -90 8q-29 20 -90 51q-20 0 -59 8q-12 14 -41 43q-18 2 -49 17q-8 18 -31 51q-25 8 -70 33q-10 25 -41 65 q-35 14 -98 51q-18 14 -44 51t-42 52q-12 4 -37 14q-10 23 -41 61q-14 2 -37 15q-14 27 -55 67q-16 4 -47 17q-14 25 -49 67q-16 8 -41 33q-2 12 -12 33q-25 14 -68 43q-20 27 -62 74q-47 33 -135 102q-27 41 -96 109q-43 18 -125 65q-23 16 -55.5 63.5t-53 63.5t-57.5 29 q-49 14 -61 20q-57 33 -117 66q-41 22 -138 22h-9q-37 0 -70 13q-39 16 -55 18q-9 1 -44.5 1t-97.5 -1h-9q-99 0 -152 43q-43 29 -43 39z" />
<glyph unicode="M" horiz-adv-x="2519" d="M-383 -92q4 20 37 41q49 31 52 33t36 47q20 29 45 32q6 2 18 2q-4 0 62 -18q43 -12 141 -12q129 0 195 20q25 14 73 41q33 6 95 25q16 12 47 33q33 10 96 41q27 29 90 73q18 6 51 25q41 29 99 80q88 80 94 86q51 35 143 114q33 45 105 131q25 16 67 56q18 35 60 100 q35 33 94 107q4 14 12 41q18 18 53 57q18 35 60 106q29 23 69 72q8 16 23 94q4 31 22.5 59.5t22.5 43.5q6 39 27 100h8q6 4 58 49t55.5 52.5t13.5 19.5q6 6 80 35l37 -25q-10 -49 -43 -145q-12 -16 -33 -51q-16 -61 -66 -183q-14 -14 -33 -49q0 -10 -4 -33.5t-35.5 -79 t-37.5 -81.5q0 -16 -4 -50q-4 -18 -17 -39q-18 -29 -22 -36q-8 -18 -18.5 -56.5t-18.5 -56.5q-14 -33 -41 -86q-47 -94 -60 -121q-33 -74 -41 -122q-5 -27 -5 -45q0 -13 3 -21l6 -4q7 -4 7 -11h6q6 0 13 -3t11 -3q25 0 56 49q23 35 43 70q39 39 110 125q14 31 47 90 q18 16 52 49q14 27 45 74q6 6 21.5 16.5t19.5 14.5q2 14 14 43q18 12 49 41q10 23 33 65q12 14 44 29.5t42 21.5q20 20 59 62q27 14 68 51q10 29 39 82q29 16 74 55q10 20 36 60q72 86 211 120q0 -4 8 -10q5 -4 4 -14q0 -5 -1 -12q-14 -29 -41 -82q-4 -31 -25 -93 q-16 -16 -43 -51q-29 -55 -92 -162q-20 -20 -53 -65q-29 -53 -45 -145q-29 -141 -31 -152q-10 -39 -55 -127q-43 -78 -52 -127q-4 -39 -16 -121q-8 -43 -29 -76q-27 -39 -34 -58t-11 -62t-4 -50q0 -8 13.5 -23t11.5 -30q-6 -31 -6 -28q-197 -84 -228 -84q-10 0 -18 8t-15 10 q2 2 3.5 6t2.5 14.5t1 16.5t4 10q14 10 39 27q96 76 120 137q6 14 15 49q2 41 12 121q4 27 33 68q10 55 41 149q23 27 57 80q18 47 33 127q16 94 27 129q43 80 90 184q0 6 -8.5 19.5t-8.5 15.5q-29 -2 -80 -25q-6 -16 -22 -49q-25 -14 -70 -47q-12 -25 -43 -65 q-10 -4 -28 -19q-33 -55 -101 -155q-33 -27 -90 -91q-18 -37 -67 -104q-14 -6 -39 -25q-6 -16 -23 -51q-25 -16 -70 -55q-20 -33 -63 -100q-37 -33 -102 -105q-47 -57 -66 -100q-8 -20 -14 -49q-10 -53 -72 -99q-8 -6 -109 -65l-10 -17h-6h-29q0 8 -8 37q-6 23 -4 37 q14 27 41 82q20 80 84 238q27 39 68 116q12 59 49 179q37 59 86 184q4 25 -8.5 38t-26.5 25q-14 0 -41 -8q-18 -8 -62 -63.5t-61 -67.5q-27 -14 -76 -49q-25 -35 -82 -98l-247 -191q-25 -27 -76 -72q-41 -16 -117 -59q-14 -20 -53 -55q-43 -16 -125 -60q-14 -18 -49 -49 q-20 -4 -58 -14q-53 -39 -139 -78h-10q-6 2 -10 2q-14 0 -41 -18q-35 -20 -43 -23q-18 -2 -58 -6q-43 -27 -137 -68q-37 -10 -94 -10q-169 0 -169 62q0 4 1 8z" />
<glyph unicode="N" horiz-adv-x="2080" d="M-408 -122q0 19 27 38q43 31 47 35t21 43q12 31 32 35q6 2 19 2q-4 0 67 -19q47 -12 146 -12q129 0 188 20q18 16 62 41q31 6 88 25q12 12 39 33q29 12 84 41q23 27 67 73q16 8 45 25q35 29 78 80q66 80 72 86q41 35 112 115q20 45 72 131q18 16 49 55q10 33 35 100 q25 35 59 107q0 14 7 41q12 18 34 57q10 35 33 107q20 23 49 71q2 5 2 21q0 24 -4 74q-2 31 7.5 59.5t9.5 42.5q2 16 -4 59q-4 25 2 41h8q6 2 47 48t42 53.5t7 19.5q7 6 70 35h-2q16 -8 45 -25v-145q-8 -16 -21 -51q-2 -61 -16 -183q-2 -6 -11.5 -21t-7.5 -28q0 -2 2 -32v-6 q0 -25 -14 -74.5t-14 -75.5v-6q4 -16 8 -49q2 -18 -6 -39q-10 -27 -12 -37q0 -39 -5 -113q-2 -18 -18 -86q-36 -150 -36 -226q0 -11 1 -20q4 -43 15 -63q8 -2 18 -14h6q6 0 14.5 -3.5t12.5 -3.5q25 0 43 50q10 35 20 69q31 39 80 125q6 31 25 90q14 16 32 49q8 25 29 74 q12 12 27 31q0 14 6 43q14 12 37 41q4 23 20 65q8 12 34 27.5t34 24.5q14 20 43 61q23 16 53 51q2 29 14 82q6 14 32 30.5t32 24.5q4 20 18 60q47 84 176 121q10 -2 25 -37v-6q0 -16 -8 -37q-10 -31 -12 -39v-55q4 -20 0 -37q-12 -16 -29 -49q-12 -55 -47 -164 q-10 -25 -39 -39q-18 -10 -25 -10q-12 0 -26 36q-10 14 -29 35q-29 -2 -72 -24q-2 -16 -12 -49q-18 -14 -51 -48q-6 -25 -27 -65q-8 -4 -24 -19q-18 -55 -60 -155q-25 -27 -65 -90q-10 -37 -39 -105q-12 -6 -29 -24q-2 -18 -12 -52q-20 -18 -51 -55q-12 -35 -41 -100 q-27 -33 -72 -105q-16 -33 -39 -100q-4 -16 0 -49q1 -6 1 -11q0 -47 -46 -87l-90 -66l-8 -16h-4h-29q-14 25 -33 73q-2 18 6 41q10 31 13 41v16q0 81 18 222q16 39 37 117q-2 30 -2 74.5t2 103.5q2 8 24 90q12 45 12 80q0 7 -1 14q-2 25 -17.5 38t-33.5 26q-14 0 -39 -9 q-16 -8 -45 -63t-41 -68q-23 -14 -62 -49q-14 -35 -55 -98q-61 -61 -197 -191q-16 -27 -57 -71q-39 -14 -102 -60q-8 -20 -37 -55q-37 -16 -107 -59q-10 -20 -35 -50q-18 -4 -57 -14q-43 -39 -117 -78h-8q-8 2 -10 2q-14 0 -40 -18t-36 -23q-18 -2 -55 -6q-37 -27 -119 -67 q-33 -10 -92 -11q-187 0 -187 73z" />
<glyph unicode="O" horiz-adv-x="1277" d="M63 281q2 16 9 47q2 12 -6 41q-4 10 3 36.5t17 79.5q2 29 8 88q16 25 39 82q0 16 4 46t37 82.5t39 84.5q4 25 18 41q23 20 27 29q4 25 27 74q18 12 49 41q10 23 41 65q18 8 49 33q18 20 36.5 68.5t38 64.5t64.5 45q12 18 43 49q18 6 56 23q12 16 40 43q31 10 93 35 q18 14 63 37q16 0 51 4q2 0 52 22q28 14 51 14q-12 0 49 -14q12 2 33 0q66 0 104 -149q17 -64 17 -131q0 -48 -9 -97q-10 -55 -20 -86q-14 -20 -39 -63q-18 -59 -70 -178q-27 -33 -78 -101q-12 -23 -43 -63q-8 -4 -22 -12q-4 -14 -21 -44q-25 -16 -67 -55q-2 -10 -12 -28 q-25 -29 -76 -68q-80 -59 -82 -61q-31 -33 -103 -91q-53 -25 -155 -79q-63 -47 -129 -97q-82 -57 -139 -57q-25 0 -29 8t-10 19q-20 25 -23 43q-4 45 -5 49t-15 37q-6 15 -6 31q0 6 1 12zM281 479q2 -51 6 -102q2 -70 4 -86q11 -43 53 -43h4q10 0 29 2q18 12 51 35 q61 37 172 127q20 29 62 80q20 12 49 32q2 10 14 29q12 10 33 31q12 23 39 63q31 35 82 107q20 68 71 200q2 4 33 56q23 37 24 55t7 55q26 44 26 65q0 7 -6 16q-8 11 -8 16q0 18 -6 55q-10 14 -27 41q0 16 -8 47q-30 70 -129 70h-6q-109 -2 -172 -84q-6 -12 -21 -37 q-18 -10 -55 -37q-14 -12 -78 -119q-31 -37 -86 -115q-18 -33 -35 -86q-23 -74 -28 -86q-12 -14 -31 -49q-2 -18 -10 -57v-6q-2 -4 -2 -9q-18 -53 -47 -163q-5 -29 -5 -65q0 -18 1 -38z" />
<glyph unicode="P" horiz-adv-x="2414" d="M12 1636q0 29 11 54q27 63 215 157h-2q12 -6 36 -6q-2 -8 -4 -26q-2 -8 -25.5 -30t-27.5 -50q-2 -11 -2 -22q-1 -41 23 -77q30 -46 79 -65q94 -39 242 -39q59 0 121 6q20 10 61 25q94 4 283 30q16 9 51 19q29 8 77 8h21q25 -1 44 -1q39 0 59 3q18 2 53 13.5t64 11.5h47 q31 -2 47 -2q33 0 106.5 4t110.5 4q47 0 137 -6q16 -8 47 -25q43 -4 125 -20q10 -4 41 -25q18 -10 55 -10q27 0 34 -8.5t16 -18.5q23 -8 63 -29q12 -18 43 -53q12 -4 35 -16q35 -33 57 -125q23 -84 23 -164q0 -72 -25 -121q-27 -20 -74 -67q-12 -23 -43 -68q-20 -12 -59 -45 q-18 -29 -66 -76q-20 -6 -63 -22q-18 -18 -61 -52q-23 -6 -70 -22q-18 -16 -62 -45q-20 -6 -63 -23q-98 -49 -100 -49q-53 -24 -99 -24h-4q-47 0 -90 22l10 29h19q42 0 112 6q25 18 74 47q8 2 17 -2q16 0 47 23q39 29 45 30q37 12 110 45q27 16 52 49q33 45 43 56q8 4 26 16 q8 23 31 60q12 10 35 28q25 31 53.5 96.5t28.5 100.5q0 16 -9.5 33.5t-11.5 31.5q1 8 1 19q0 21 -5 51q-14 10 -39 37q-2 25 -16 65q-12 4 -35 15q-16 23 -57 61q-37 25 -103 39q-55 10 -110 21q-20 4 -70 30q-33 16 -92 17q-139 -2 -133 -2q-23 0 -69 7t-69 7 q-35 0 -106.5 -15.5t-106.5 -15.5q-16 0 -50 3t-48 3q-35 0 -57 -10q-29 -14 -41 -16t-70 -2q-39 0 -74 -17q-43 -23 -63 -26q-33 -6 -97.5 -7t-97.5 -10q-18 -10 -57 -20t-205 -10q-129 0 -159 10q-53 18 -96.5 75.5t-43.5 116.5zM754 -201q2 4 3 12.5t5 24.5l37.5 22.5 t48.5 10.5q12 0 43 -2t47 -2q12 0 34.5 4t55.5 38t45 56q4 20 19 62q53 106 114 251q-4 18 -4 60q4 18 45 55t49 49q51 88 86 291q1 8 1 16q0 25 -9 49q-12 34 -12 56q0 25 39 149q16 53 29 78q18 43 45 72q66 68 114 70q25 1 33 -17q5 -10 5 -24q0 -10 -3 -23h2 q-4 -25 -20 -65q-16 -57 -54 -172q-16 -29 -34 -74q0 -20 -5 -62q-4 -25 -26 -69q-23 -51 -29 -72q-45 -168 -166 -475q-72 -129 -147 -281q-12 -12 -31 -34q40 -5 95 -5h18q170 2 258 27q-2 -2 -2 -8q2 -6 0 -14q-2 -18 -90 -50q-77 -26 -105 -26h-2q-16 0 -39 6 q-29 8 -43 10t-59 2q-25 0 -76 -2t-78 -2q-18 0 -56 5t-58 5t-40 -12t-30 -12h-16q-12 2 -16.5 4t-20.5 18z" />
<glyph unicode="Q" horiz-adv-x="1466" d="M-635 -403q2 8 5 28.5t120 73.5q104 51 143 59q-16 -2 50 -2q18 0 53 15.5t51 17.5h15q66 0 182 14q29 18 88 47q16 0 49 7q20 6 74 39q44 30 69 30h2q16 0 62 39q55 49 61 53q18 4 49 19q20 20 66 59q72 41 198 142q25 37 78 108q25 16 70 53q10 20 37 60q4 4 15 9 t18 11q12 25 38 74q25 23 66 74q2 2 6 35q10 12 27 38q4 16 16 48q27 29 64 92q2 8 3 21t3 20q2 16 25.5 43.5t29.5 58.5q2 23 8 70q10 25 27 75q3 20 3 45t-3 56q-6 68 -25 94l-24 12q-10 18 -39 47q-37 27 -98 27q-102 0 -170 -66q-27 -39 -89 -114q-14 -8 -36 -27 q-8 -16 -29 -47q-23 -18 -60.5 -61t-60.5 -93q-2 -18 -14 -55q-16 -14 -43 -47q-8 -29 -27 -84q-18 -39 -49 -117q-4 -20 -10 -61q-10 -20 -25 -66q6 -20 6 -71q-6 -20 -14 -62q-4 -23 2 -32q8 -23 10 -27q6 -35 14.5 -67.5t53.5 -32.5q2 0 63 6l4 -19q-59 -37 -118 -73 q-86 -51 -119 -52q-41 0 -54.5 37t-23.5 74q-12 14 -27 47q-2 11 -2 28q0 48 17 144q8 49 35 143q14 14 34 45q8 18 13 74q6 33 24 49q27 20 31 31q6 33 29 96q25 23 67 72q2 10 13 27q14 8 36.5 29.5t55 74.5t51.5 76q33 23 94 74q49 45 148 120q14 14 49 41q25 12 71 23 q55 10 74 16q6 2 82 39q43 23 90 23q102 0 158 -131q31 -70 31 -137q0 -26 -5 -52q-16 -31 -38 -96q-2 -23 -9.5 -67t-42.5 -101q-55 -88 -57 -92q-6 -25 -27 -70q-14 -6 -39 -61q-31 -37 -75 -92q-14 -25 -47 -72q-16 -10 -45 -33q-10 -18 -37 -53q-16 -10 -45 -35 q-12 -25 -45 -67q-20 -12 -56 -39q-39 -45 -129 -129q-49 -27 -143 -84q-25 -23 -76 -62q-6 -2 -18.5 -5t-18.5 -7q-18 -18 -57 -55q-43 -27 -127 -80q-35 -18 -105 -62q-14 -6 -20 -12q2 -2 3 -5l1 -3q-2 -10 -12 -19q23 -10 174 -47q16 -8 51 -20q-10 2 47 2 q16 0 40 -12.5t36 -14.5h57q14 0 29.5 -10t21.5 -12h-1q0 2 67 2q41 0 104 -19q84 -25 103 -28q33 0 92 -6q16 -8 49 -21q166 -25 406 -33h178q6 0 21.5 -4t23.5 -4q289 0 448 113q23 20 72 61q20 8 51 35q45 53 60 139q2 18 0 27q-10 18 -11 20l-20 66q-13 22 -67 22h-5 q-25 0 -110 -14v6h-13l5 21q68 34 126 34h3q47 0 118.5 -37.5t79.5 -74.5q-2 -14 0 -43q0 -6 10 -35q6 -13 6 -27q0 -5 -1 -10l-5 -8q-12 -55 -188 -166q-152 -98 -235 -129q-16 -2 -50 -4q-39 -20 -123 -49q-78 -2 -237 -21q-12 -2 -53 -16q-33 -10 -54 -10q-23 0 -65.5 14 t-67.5 14q-14 0 -46 -4t-48 -4q-119 0 -266 21q-59 16 -180 39q-57 0 -127 8q-33 14 -45 14t-43 -2t-48 -2q-41 0 -63.5 25.5t-62.5 25.5l-85 -2h1q-39 0 -109 29t-113 29q-18 0 -51 -3.5t-47 -3.5q-25 0 -66.5 12.5t-62.5 12.5l-98 -21q-29 -2 -84 -16q-10 -6 -31 -18 q-25 -4 -76 -15q-150 -35 -188 -35q-20 0 -31 3z" />
<glyph unicode="R" horiz-adv-x="1777" d="M-139 -123q18 23 73 53q35 8 150 9q129 0 219 165q59 137 119 275q43 63 110 199q10 31 7 47q-6 23 -4 34q4 27 26 93q20 57 37 88q14 25 64 84q39 47 63 114q8 23 8 41q0 16 -7 35t-7 25q0 23 45 63q16 10 80.5 42t73.5 32q12 0 19 -7t13 -7q-4 -23 -12 -41 q-14 -47 -66 -129q-53 -88 -67 -131q-10 -35 -35 -107q-4 -12 -12 -35q-18 -23 -45 -71q-8 -18 -2 -27q12 -10 12 -14q92 0 174 6t119 18q31 10 110 55q31 14 94.5 50t184.5 176q23 23 43 45t31.5 53t11.5 61q0 109 -80 136q-12 4 -59 4q-31 0 -74 25.5t-74 25.5 q-27 0 -82 -10.5t-80 -10.5t-45 10.5t-41 10.5q-16 0 -50 -5t-50 -5q-20 0 -66.5 4t-72.5 4h-41q-8 -2 -30.5 -9.5t-35.5 -7.5q-57 0 -104 25q-2 0 -19 18q-6 6 -45 7h-32q-23 -2 -35 -2q-41 0 -53 10q-27 25 -27 24q-16 4 -49 15q-25 20 -25 65q0 29 10 60q46 123 261 207 l24 -15q-36 -66 -54 -115q-15 -39 -14 -60q0 -6 1 -11q2 -14 22 -27q14 -10 31 -20q80 -61 239 -80q86 -10 283 -10q29 0 117 2h119h69q37 -12 115 -31q57 -6 112 -10q66 -10 97 -37q23 -20 35 -121q4 -12 6 -27q2 -10 -4 -28q-20 -57 -103.5 -153.5t-138.5 -129.5 q-20 -6 -62 -22q-47 -43 -151 -113q-74 -20 -166 -59q-4 -6 -9 -18.5t-11 -18.5q25 -25 71 -76q23 -27 53.5 -87.5t51.5 -86.5q20 -18 53 -60q23 -45 83 -132t85 -136q6 -10 27 -76q16 -45 36 -67q41 -31 115 -101q10 -18 35 -51q18 -6 51 -20q16 -16 30.5 -32.5t51.5 -16.5 q98 0 262 77q12 8 37 23h8q6 0 16.5 -4t18.5 -4q-6 -14 -32.5 -37t-94.5 -41q-88 -23 -100 -27q-25 -14 -74 -39q-39 -12 -111 -12q-68 0 -92 12q-6 10 -24 31q-18 2 -50 16q-14 25 -51 68q-18 4 -51 23q-8 10 -12 36.5t-16.5 32.5t-36 20.5t-46.5 65.5q-6 31 -28 92 q-20 20 -49 68q2 23 -2 59q-10 6 -31 21q0 16 -8 47q-6 12 -27 25q-27 12 -33 20q-6 25 -28 66q-20 14 -58 49q-37 43 -53 80q0 25 -14 59q-23 6 -64 22q-4 12 -18 31q-31 18 -103 25q-59 4 -116 6l-33 2q-4 -4 -25 -21q-10 -6 -18 -30.5t-21 -69.5q-25 -74 -108 -258 q-96 -209 -131 -248q-16 -10 -41 -30q-6 -18 -25 -52q185 -22 209 -22h2q41 0 84 6q35 20 101 53q20 2 63 8q-4 -4 -4 -8q-4 -16 -4 -22q-123 -51 -135 -56q-74 -31 -136 -41q-39 -2 -122 -8q-10 -2 -39 -9t-43 -7q-51 0 -97 24q-4 2 -11 12.5t-17 10.5t-28.5 -4t-27.5 -4 q-23 0 -68.5 5t-68.5 5q-25 0 -49 -9t-31 -9q-12 0 -17 10t-9 12z" />
<glyph unicode="S" horiz-adv-x="1576" d="M16 571q0 8 2 17q4 23 27 47q31 31 37 43q6 23 22 65q4 4 70 51.5t74 50.5t22.5 4t20.5 3q0 -6 5 -15.5t3 -17.5q-2 -14 -18 -31q-23 -23 -27 -26q-43 -61 -43 -133q0 -14 29 -107q53 -174 194 -231q14 0 39 -4q8 -8 23 -25q25 -2 69 -12q14 -10 43 -27q93 -37 214 -37 h12q96 2 278 37l10 29q-10 4 -18 10q-14 6 -12 14q4 14 4 17q12 8 39 20q20 0 61 6q18 8 35.5 30t32.5 40q16 10 42.5 38t39.5 105q6 37 2 58q-10 18 -31 55q-6 29 -29 84q-10 6 -28 21q0 2 2 6v6q2 8 -24 30.5t-28 24.5q-4 14 -20 41q-25 31 -43 43q-18 4 -51 19 q-6 18 -27 41q-18 2 -51 16q-18 12 -29 47q-12 49 -16 55t-35 33q-25 20 -20 39q6 16 12 45q18 70 31 78q35 16 71 33q29 23 88 61q35 16 125 33q84 16 127 16q70 0 105 -28q4 -2 9 -9.5t7 -11.5q-4 -4 -20 -33q-66 -6 -117 -8q-25 0 -66 2q-47 4 -65 4q-6 0 -20.5 -3 t-22.5 -2t-15 -1q-20 0 -41 -37q-14 -29 -18 -55q-6 -35 2 -53q8 -8 23 -29q20 -35 71 -94q18 -8 49 -27q29 -37 93 -104q20 -8 55 -35q6 -14 22 -41q25 -20 62 -70q2 -18 12 -53q12 -12 25 -45q1 -5 1 -19q0 -28 -5 -92q-16 -86 -31 -108q-12 -8 -34.5 -29.5t-59.5 -66.5 q-4 -16 -25 -50q-18 -23 -101 -66.5t-110 -43.5q-4 0 -12 2h-12q-12 0 -39 -14q-33 -18 -41 -21q-123 -43 -168 -43q-12 0 -37 2h-39q-27 0 -80 -14.5t-80 -14.5q-12 0 -30.5 8.5t-26.5 10.5q-25 2 -74 10q-37 18 -117 41h-63q-43 0 -68 21q-39 37 -47 41q-27 4 -71 20 q-10 6 -60.5 71.5t-50.5 73.5q3 23 3 62q0 19 -1 43q-2 10 -14.5 29.5t-12.5 33.5z" />
<glyph unicode="T" horiz-adv-x="1525" d="M-414 -45q0 66 11 123q12 72 36 108q35 45 72 90q4 14 23 37q14 2 49 9q0 -8 6 -19.5t4 -26.5q-4 -16 -23 -40q-25 -31 -30 -41q-25 -51 -41 -146q-10 -63 -10 -104q0 -82 49 -115q43 -31 166 -43q59 -6 118 -6q193 0 344 59q14 10 41 27q61 14 185 65q20 20 63 56 q55 27 156 98q20 39 72 109q23 12 63 45q23 25 37 88q18 74 28.5 93t51.5 64q33 37 39 72q2 20 8 61q4 20 23.5 50t22.5 48.5t7 55.5q4 23 30.5 58.5t30 60t9.5 74.5q4 29 31.5 60.5t33.5 66.5q0 41 6 120q6 41 43 118t45 114q-10 12 -20 24.5t-55 12.5q-27 0 -81 -9.5 t-81 -9.5q-20 0 -55 14.5t-56 14.5q-16 0 -52 -5t-54 -5h-90q-29 0 -73 10t-69 10q-14 0 -41.5 -10t-44.5 -10q-12 0 -36.5 2t-36.5 2h-6q-69 0 -107 -43q-33 -53 -66 -107q-20 -33 -77 -82q-63 -55 -95 -61q-4 -2 -12 -2q-55 0 -41 2l4 33q8 68 43 92q43 33 88 63 q39 43 129 119q35 12 105 37q41 27 127 63q121 33 360 35q82 0 191 -8q35 -2 155 -20q96 -14 158 -15q55 0 98 8q29 21 79 21h9q35 0 50 8q27 20 34 25q80 35 244 35v-2q170 0 203 -21q10 -8 12 -27q2 -25 4 -30q-154 -66 -233 -66q-16 0 -51 3t-54 3q-39 0 -57 -12 q-27 -16 -36 -18t-118 -2q-27 0 -57 -7q-6 -4 -29 -20q-31 -68 -59 -137q-35 -80 -43 -136.5t-25 -160.5q-4 -25 -18 -72q-16 -14 -41 -72q-2 -20 -6 -61q-4 -25 -27 -57q-27 -39 -31 -55.5t-8 -51.5q-2 -18 -25.5 -45t-29.5 -39q-4 -27 -20 -80q-12 -29 -45 -69 q-51 -66 -54 -68q-27 -51 -88 -143q-31 -18 -84 -64q-14 -25 -49 -72q-59 -63 -184 -133q-100 -53 -201 -106q-27 -20 -82 -51q-35 -4 -102 -19q-8 -2 -29.5 -15t-30.5 -13h-20q-14 0 -68 -23q-61 -27 -78 -31q-90 -22 -188 -22h-8q-111 0 -174 20q-18 6 -84 40t-74 44 q-33 41 -33 158z" />
<glyph unicode="U" horiz-adv-x="2220" d="M-53 578q-3 5 -3 11.5t3 14.5q18 74 110 191q18 14 47 43q6 10 15.5 45t56.5 80t57 86q8 33 72 75l94 66q78 68 113 94q63 51 119 80q35 10 108 35q47 25 146 61q55 6 168 29q27 14 80 35q17 4 49 4h22q37 0 96.5 21.5t85.5 21.5q12 0 37 -2t37 -2q41 0 119 35.5 t121 35.5q46 0 46 -26q0 -3 -1 -6q-4 -12 -12 -37q-45 -27 -78 -35q-74 -16 -78 -18q-16 -10 -49 -25q-33 0 -103 -23q-12 -6 -76.5 -64t-71.5 -71.5t-22 -36.5q-23 -10 -63 -36q-27 -20 -64.5 -67.5t-58.5 -66.5q-10 -4 -31 -16q-16 -31 -55 -88q-45 -41 -117 -133 q-6 -10 -18 -62q-8 -31 -31 -59q-33 -41 -41 -55q-23 -59 -71 -176q-23 -31 -62 -97q-37 -88 -37 -161q0 -61 29 -103q6 -16 27 -37q10 -4 45 -4q82 0 239 60q150 57 236 114q20 25 63 72q39 23 107 78q8 18 32 51q23 12 66 47q16 18 38.5 69.5t41.5 69.5q16 8 43 27 q8 18 31 53q43 47 127 142q35 29 81 86q6 14 17 43q18 72 20 124l-10 27l2 10q4 20 27.5 57.5t26.5 57.5t8 66l6 12q10 20 97 80.5t108 60.5q35 0 34 0q12 -12 27 -37q3 -11 3 -28q0 -33 -14 -87q-20 -80 -55 -128q-25 -23 -63 -72q-27 -63 -92 -186l-90 -136 q-37 -59 -60.5 -148t-44.5 -288q-2 -12 -10 -70q-8 -45 -8 -69q0 -33 10 -55q6 -10 14.5 -23.5t6.5 -24.5q-8 -31 -99 -59q-57 -18 -117 -35l-2 -8l-4 -2q-6 0 -17 5t-20 5q0 18 -6 54q-6 20 -4 26q2 8 15 8q6 27 18 78q10 37 23 45q20 18 26 27q23 33 37 88q8 29 8 53 q0 66 -59 68q-14 0 -31 -4q-25 -6 -96 -86q-80 -86 -101 -101q-25 -6 -69 -26q-29 -25 -90 -70q-25 -8 -78 -27q-37 -29 -115 -71q-45 -8 -133 -35q-33 -20 -100 -51q-39 -4 -94 -21q-6 -2 -13 -16q-86 -47 -166 -47q-39 0 -55 14q-2 2 -5 11.5t-7 11.5q-16 27 -17 43 q0 4 13 47q8 27 8 45t-10.5 34.5t-10.5 28.5q0 8 5 21q8 29 38.5 76t37.5 76.5t22 86.5q20 76 61 135q18 12 47 41q10 16 31 95q14 51 68 110q63 70 80 107q4 14 20 43q33 23 90 69q31 41 100 115q35 16 97 64q12 20 41 61q18 12 49 43q8 25 26 72q-25 2 -73 2 q-80 0 -140 -15q-12 -2 -42.5 -18t-47.5 -16q-6 0 -14 2h-14q-14 0 -31.5 -13.5t-26.5 -15.5q-35 -2 -102 -16q-76 -27 -180.5 -115t-145.5 -158q-6 -25 -28 -71q-37 -61 -119 -148q-14 -4 -21 -10q-12 -12 -36 -78q-29 -82 -33 -90q-29 -59 -201 -123q-2 4 -12 23z" />
<glyph unicode="V" horiz-adv-x="2594" d="M119 932q0 84 114 209q43 47 86 96q59 61 99 82q12 0 35 6q39 27 118 70q27 12 273 73q10 2 41 17q23 10 39 10h45q18 0 43.5 11.5t36.5 13.5q48 8 135 8h36.5h36.5q87 0 134 8q33 6 122 47q80 39 127 39q53 0 53 -25q0 -3 -1 -6q-4 -16 -31 -35.5t-43 -19.5q-4 0 -12 2 h-15h-6q-29 -8 -70.5 -41t-58.5 -59q-25 -37 -47 -123q-8 -31 -16 -80q8 -26 8 -84v-25q-27 -100 -27 -104q0 -20 14.5 -54t14.5 -59q0 -16 -6 -37q-8 -31 -2 -41q12 -20 12 -26v-111q4 -70 41 -92l-2 -8h12q37 0 94 37q43 33 88 63q78 45 230 144q35 25 93 81t91 78 q31 14 84 50q18 43 72 120q10 12 67 56q41 33 58 63q6 10 22 74q10 37 45 83t39 61.5t6 80.5q0 68 -4 76q-16 33 -65 43l6 25q6 2 45 16q27 10 45 10v2q100 0 111 -94q5 -49 5 -84t-5 -55q-20 -78 -103 -189q-18 -16 -55 -49q-20 -39 -72 -110q-25 -14 -71 -52 q-8 -14 -29 -43q-33 -27 -98 -82q-47 -29 -132 -94q-20 -23 -57 -59q-18 -2 -57 -15q-25 -25 -76 -69q-45 -35 -115 -84q-12 0 -34 -6q-20 -18 -66 -54q-10 -6 -31 -14q-45 -23 -90 -45q-49 -29 -61 -72q-6 -23 2 -45q12 -37 12 -41v-135q0 -23 6 -73t6 -76q0 -43 -10 -80 q-20 -84 -74 -133q-18 -18 -52 -31.5t-62 -26.5q-166 -79 -248 -79h-2q-57 0 -88 18q-12 6 -60 51q-14 12 -32 35q-6 16 -7 78q0 63 7 84v6l20 18q86 156 240 260l61 33q39 20 49 41q6 10 15 37q8 35 12 102v27q0 50 -6 70q-2 4 -9.5 14t-7.5 12q-4 16 11 58q4 16 4 30 q0 20 -12.5 48t-14.5 49q8 39 14 118q0 8 -7 25.5t-3 30.5q4 16 33 61q25 35 25 66q0 18 -12.5 57t-12.5 66q0 53 53 165q-14 10 -14 17h-8q-14 0 -54 2h-53q-20 0 -61 -2q-25 -2 -88 -21q-55 -14 -86 -14q-8 0 -27 2h-29q-33 0 -88 -16q-78 -25 -90 -27q-25 0 -78 -8 q-20 -12 -59 -33q-14 0 -45 -8q-8 -4 -57.5 -54.5t-57.5 -62.5q-25 -37 -57 -147q-29 -98 -66 -131q-53 -49 -106 -50q-45 0 -45 58zM932 -59q0 -70 33 -86q12 -6 39 -7h43q8 0 38 -8q25 -4 41 -4q18 0 27 2q20 6 45 51q25 37 31 62.5t6 54.5q0 20 -6 72q-3 30 -3 53 q0 11 1 21q2 12 10 48t8 52q0 14 -4 24q-10 35 -55 35q-35 0 -119 -84q-76 -76 -94.5 -114.5t-26.5 -75.5l-2 -2q-12 -49 -12 -94z" />
<glyph unicode="W" horiz-adv-x="2344" d="M-94 993q0 33 37 74q27 18 73 51q8 14 31 41q18 16 100 65.5t105 57.5q49 20 112.5 28.5t127.5 16.5q25 10 59 23q16 -1 39.5 -1t56.5 1q35 10 94 22q23 -1 54 -1q75 0 192 7l21 15q18 6 86 37q37 18 75 18q18 0 45 -4q-4 -14 -12 -45q-45 -12 -119 -49 q-14 -12 -28.5 -37t-24.5 -37q-18 -14 -47 -39q-39 -43 -80 -117q-18 -33 -24 -71q-12 -57 -13 -62q-18 -41 -49 -125q-4 -45 -14 -125q-16 -31 -37 -96q-2 -14 22 -51q16 0 48 6q37 27 104 72q61 33 180 106q18 18 58 49q27 8 79 31q29 31 89 82q76 47 202 141q16 25 58 82 q18 12 43 29q37 51 63 160v9q0 21 6 60q10 18 76 90t82 80q63 35 131 35q20 0 35 -6q8 -4 20 -23q6 -2 13 -6q0 -12 -13 -43q-14 -39 -26 -39q-10 -27 -39 -82q-33 -31 -92 -90q-23 -29 -74 -86q-18 -12 -47 -39q-6 -10 -19 -71q-14 -74 -14 -199q0 -50 2 -107q66 0 82 9 q27 23 78 59q18 6 55 21q14 18 51 55q35 20 103 65q25 25 78 74q33 29 107.5 69t105.5 62q53 45 161 133q49 29 140 97q29 35 96 104q27 14 72 45q12 23 49 66q35 23 94 73q8 16 29 52q35 27 90 88q23 35 39 92q27 84 26 86q20 39 45 110q-6 12 -10 37q4 29 4 80q0 4 -49 76 q-14 18 -53 80q-4 8 3 18t17 12q7 1 13 1q46 0 94 -48q43 -41 59 -86q8 -22 8 -44v-9q-4 -33 -8 -65q6 -27 8 -80q-20 -117 -108 -236q-41 -55 -158 -178q-27 -33 -86 -96q-49 -37 -143 -113q-33 -35 -103 -102q-18 -8 -51 -29q-51 -43 -158 -125q-25 -12 -61 -39l-6 -14 q-78 -45 -228 -148q-55 -47 -165 -139q-27 -12 -70 -43q-18 -23 -61 -49q-57 -33 -58 -33q-25 -27 -78 -84q-12 -8 -32 -22q-23 -29 -41 -127q-12 -78 -15 -131q6 -27 8 -80q-4 -31 -26 -86q-27 -66 -35 -92q0 -23 -20 -82q-18 -20 -46 -52q-8 -18 -34 -57q-8 -2 -17 -8 q-66 -59 -82 -74q-45 -37 -90 -59q-102 -49 -213 -66q-16 -2 -35 -2q-55 0 -105 18.5t-54 41.5q-2 10 4 30.5t6 28.5q-8 23 -14 66q8 45 41 98q25 41 51 80q6 23 20 59q10 20 43 45q25 18 49 37q43 45 136 133q72 49 206 156q45 41 52 51q37 57 43 139q2 55 2 111 q0 8 2 28.5t2 32.5q0 53 -47 54q-12 0 -29 -5q-27 -6 -68 -40q-55 -51 -61 -56h-14q-25 -20 -68 -51q-14 -2 -43 -14q-14 -14 -45 -37q-29 -14 -86 -45q-96 -66 -285 -191q-37 -18 -96 -69q-27 -41 -35 -103q-6 -43 -10 -88q-16 -39 -45 -117q2 -18 2 -45q-14 -53 -53 -102 l-21 -16q-6 -14 -21.5 -43t-99.5 -99q-35 -31 -71 -61q-25 -14 -94 -27q6 35 12 45q35 35 86 97q23 37 84 170q2 0 4 8q0 6 4 0l14 28q-3 17 -3 40q0 12 1 26q14 23 31 68q4 25 -10 28q-2 2 -49 6q-4 -6 -13 -12q-49 -23 -110 -74q-51 -43 -103 -88q-31 -18 -77 -59 q-20 -27 -44 -84t-40 -80q-27 -37 -48 -37q-20 0 -16 31q4 35 80 131q18 31 61 88q31 31 109 84q88 61 111 80q14 18 53 51q29 14 61.5 28.5t48.5 39.5q25 37 27 100q2 80 6 90q12 16 27 60q-8 20 -11 67q10 29 41 72q37 51 41 59q17 33 17 73l-1 29q0 33 5 48q18 59 76 139 l22 14q18 29 43 81t21 54q-12 10 -70 11q-113 0 -340 -35q-211 -35 -250 -51q-63 -29 -112 -170q-80 -43 -146 -66l-22 -12q-10 -2 -17 -2q-20 0 -20 20zM1040 -82q0 -59 35 -68q20 -6 49 -6q72 0 148 27q49 16 59 20q35 16 51 33q8 16 33 60l27 30q43 72 71 174 q20 80 39 158q20 37 45 115q3 19 3 34q0 50 -31 50q-12 0 -29 -8q-39 0 -213 -160q-164 -152 -201 -209q-86 -139 -86 -250zM1937 2224q0 29 35 72q18 12 53 37q20 23 66 65q39 29 113.5 64t105.5 35q12 0 12 -9q1 -7 -22 -30q-14 -6 -37 -25q-10 -8 -55 -58.5t-49 -58.5 q-10 -18 -10 -57q0 -14 1 -31q-25 -14 -66.5 -31.5t-76.5 -17.5q-70 0 -70 45z" />
<glyph unicode="X" horiz-adv-x="1402" d="M-594 -106q0 25 27 53q2 2 82 45q33 25 92 53q6 2 16 2q20 0 31 -12q16 -18 22 -21q27 -12 86 -12q68 0 138 31q12 4 137 71q16 14 51 33h12q18 0 13 -10q0 -2 -7.5 -11.5t-7.5 -11.5q-76 -47 -233 -129q-37 -12 -111 -43q-59 -35 -116.5 -66.5t-124.5 -31.5 q-106 0 -107 60zM205 197l6 6q2 4 4 13t37 26q23 12 47 22q29 29 90 86q51 31 148 101q55 51 170 151q25 14 71 47q31 27 91.5 91.5t70.5 86.5q2 4 2 27.5t-2 67.5q-4 84 -9 90t-16 18q-2 6 -2 17q0 16 9.5 59t9.5 63q0 14 -4 27q-8 23 -58 47q-37 18 -73 37q8 16 10 25 q2 2 3 4l1 2q106 57 162 57q78 0 96 -92q0 -2 10 -170q4 -92 49 -92q41 0 72 22q25 33 80 90q66 43 188 142q18 27 64 75q27 16 78 52q49 51 159 139q29 12 82 43q12 16 41 47q80 53 234 166q25 25 78 70q59 29 176 92q29 23 86 61q37 12 108 39q14 10 43 23q10 -2 29 0 q10 0 41 12t51 12q25 0 41.5 -10t32.5 -21q-2 -6 -10 -18v-6q-170 -92 -228 -92q-12 0 -37.5 2t-39.5 2q-35 0 -60 -10q-37 -14 -94 -62q-74 -59 -90 -69q-55 -31 -158 -99q-18 -20 -59 -61q-31 -27 -101.5 -69t-103.5 -68q-33 -37 -107 -109q-53 -33 -155 -106 q-18 -23 -60 -66q-25 -12 -71 -41q-16 -20 -49 -57q-27 -20 -80 -64q-35 -39 -111 -114q-25 -16 -61 -54q-33 -51 -33 -104q0 -25 12 -72q10 -40 10 -67v-9q-6 -18 -16 -53q-1 -8 -1 -18q0 -25 7 -61.5t7 -62.5q0 -10 -1 -18q-8 -20 -18 -61q-1 -8 -1 -18q0 -29 9 -73 q10 -50 10 -81v-10q-2 -12 -14 -52.5t-10 -56.5q2 -12 19.5 -18t19.5 -11q0 -10 4 -32q-186 -84 -250 -84q-33 0 -45 24q-6 16 10 62q20 57 23 67q-4 20 -4 50.5t4 70.5q12 18 34 55q4 10 2 17q0 6 -5 12t-5 8q-9 28 -9 55q0 33 13 66q25 33 64 103q20 47 20 96q0 37 -14 94 l-8 -2q-4 0 -10.5 3t-12.5 3t-16 -6q-29 -10 -82 -66q-68 -68 -78 -75q-20 -12 -63 -41q-53 -47 -168 -138q-33 -18 -95 -59q-16 -20 -53 -55q-29 -8 -84 -31q-8 -4 -40.5 -32.5t-45.5 -28.5h-18z" />
<glyph unicode="Y" horiz-adv-x="1544" d="M-928 -342q6 70 25 115q29 69 68 69h1q8 0 20.5 -6t18.5 -6q-16 -35 -47 -102q-12 -27 -12 -41q0 -8 5 -20.5t7 -26.5q10 -88 48 -133.5t126 -63.5q74 -16 158 -16q96 0 205 16q27 10 76 25q33 0 102 8q49 20 147 57q31 6 95 25l14 18q47 16 141 55q41 25 125 74 q49 25 142 84q18 23 59 64q27 18 76 59q12 18 43 57q33 23 90 74q16 27 53 84q39 33 94 102q2 18 11 60q14 51 53 125q51 98 61 121q18 43 25 75q2 16 -4 34t-6 28q0 16 12 39.5t33 70.5l4 9l-6 24l4 12q12 39 51 74q47 45 59 64q8 10 58 122q20 45 57 84q51 53 63 72 q6 12 19 35q6 14 29.5 35.5t29.5 27.5q8 16 29 50q16 12 41 32q16 20 27 58q14 31 36 51q33 29 43 41q8 20 33 57q23 14 62 47q33 39 125 117q8 -2 30 -25q8 -15 8 -30q0 -10 -4 -21q-2 -6 -57 -73q-41 -57 -125 -172q-8 -12 -106 -125q-70 -82 -88 -121q-6 -18 -19 -53 q-8 -18 -27 -37q-25 -23 -30.5 -32t-24.5 -52q-14 -35 -45 -101.5t-88 -191.5q-25 -57 -33 -92q2 -18 0 -58q-18 -80 -65 -184q-94 -211 -334 -440q-96 -92 -242 -183q-51 -31 -262 -147q-33 -25 -104 -66q-25 -6 -76 -24q-45 -29 -139 -74q-45 -8 -138 -33 q-47 -23 -141 -57q-27 -6 -92 -6q-45 0 -138 -15.5t-136 -15.5q-51 0 -80 14q-37 18 -56 23l-63 6q-39 4 -57.5 18.5t-30.5 49.5q-14 49 -19 57q-16 29 -33 57q-15 24 -15 54q0 7 1 14zM160 356q0 55 106 197q39 39 103 133q6 16 19 51t34.5 51.5t44.5 34.5q25 37 80 109 q16 14 41 41q10 18 18 28q8 33 33 105q16 39 70.5 112.5t70.5 112.5q14 47 49 139q12 29 31 48q27 27 35 38q45 63 78 134q2 6 -4 11t-6 11q-23 0 -70 -8q-12 -4 -51 -30.5t-56 -26.5q-14 0 -19 8t-7 8q31 25 96 66q43 20 109 36q96 25 106 28t47 22q27 12 43 12h-2 q35 0 35 -31q0 -14 -7 -33.5t-20 -33.5l-22 -19l-12 -18q-6 -14 -19 -47q-25 -55 -115 -187q-41 -47 -104 -143q-4 -23 -23 -70q-18 -18 -49 -57q-18 -33 -61 -101q-23 -25 -64 -75q-55 -76 -188 -336q-29 -43 -78 -131q-8 -18 -8 -33q0 -35 42 -35h5q8 0 25 2l2 8 q55 23 120 72q57 41 115 84q37 20 103 66q10 14 34 43q43 23 113 71q6 12 25 33l20 8l6 19q24 15 58 15q8 0 16 -1l-4 -4q4 -4 4 -12q-6 -16 -33 -33q-37 -23 -41 -25q-35 -39 -114 -104q-23 -8 -72 -35q-6 -20 -21 -27q-27 -12 -28 -14q-18 -23 -64 -68q-29 -25 -78 -51 q-39 -23 -79 -45q-12 -12 -39 -33q-43 -14 -129 -49q-47 -27 -93 -55q-53 -31 -96 -31q-61 0 -61 45z" />
<glyph unicode="Z" horiz-adv-x="1519" d="M27 -379q39 43 47 51q27 25 55 37q31 4 90 23q20 8 52 37.5t51 37.5q16 2 47 13q20 14 55 61q41 57 55 72q45 43 346 274q35 39 107 109q37 27 72 51q45 35 51 66q0 16 4 49q-53 18 -107 39q-59 20 -112 20q-156 0 -252 -47q-33 -16 -80 -68q-53 -59 -76 -75 q-20 4 -65 12q-2 23 -2 68q4 12 6 20q16 35 159 113q137 78 185 84q70 10 162 10q49 0 161 -4q104 -4 162 -4q20 0 60 3t61 3q41 0 53 -6q4 -8 21 -23q-12 -25 -45 -67q-20 -20 -69.5 -54t-68 -59t-61.5 -74q-33 -14 -96 -57q-12 -18 -43 -55q-41 -43 -141.5 -114 t-143.5 -116q-12 -23 -43 -67q-4 -4 -35 -19q-16 -10 -20 -31q-2 -16 7 -29.5t9 -19.5q61 0 185 19.5t188 19.5q70 0 85 -6l50 -20q16 -6 147 -7q59 0 93 -6q23 -14 73 -32q20 -4 168 -5q41 0 82 -8q16 -4 99 -26q59 -18 100 -19q16 0 47 2t45 2q55 0 133 -26 q117 -37 131 -41q55 -2 160 -13q45 -6 190 -45q117 -32 179 -32h4q18 0 53 3t51 3q51 0 127 -31q86 -35 121 -39q109 -2 317 -24q37 -12 113 -31q78 0 231 -10q20 -2 74 -21q45 -14 76 -14q14 0 45 2h45q41 0 65.5 -16.5t34.5 -18.5q29 -6 58 -2q27 0 92 2q59 2 92 2 q80 -2 121 -12q16 -6 25 -45q-8 -2 -17.5 -14.5t-38.5 -12.5q-12 0 -35.5 3t-35.5 3l-11 -2q-47 -2 -188 -10q-119 -8 -189 -8q-100 0 -184 8q-41 14 -127 33h-21q-79 0 -220 12q-23 4 -89 29q-47 18 -100 18q-20 0 -61 -2t-62 -2q-39 0 -104.5 17.5t-98.5 17.5 q-18 0 -58 -7.5t-60 -7.5q-45 0 -112 36t-103 36q-12 0 -35 -2t-33 -2h-20q-127 23 -383 55h-27q-12 0 -49 -2h-49q-14 0 -43 2q-18 12 -60 35q-45 14 -129 23q-92 10 -127 18q-25 14 -71 33q-53 10 -123 10q-41 0 -126 -4t-130 -4q-47 0 -138 10q-16 14 -49 35l-59 2 q-23 0 -67 -2t-62 -2q-51 0 -152.5 5t-152.5 5q-131 0 -203 -20q-29 -8 -143 -76q-100 -57 -144 -57q-14 0 -17 10t-11 12zM4737 -578q4 16 8 23q0 8 -2 10q23 14 72 35q37 10 108.5 16.5t106.5 16.5q141 39 225 88l15 20q57 20 167 80q20 23 68 64q33 12 96 45 q174 117 211 319q2 39 13 113q16 96 106 96q25 0 100.5 -21.5t81.5 -33.5q4 -10 -2 -25q6 -23 6 -73q-8 -53 -106 -166q-37 -41 -156 -131q-37 -41 -119 -111q-20 -6 -59 -23q-49 -39 -149 -110q-39 -23 -99 -43q-51 -16 -102 -33q-41 -27 -121 -67q-27 0 -80 -13 q-16 -12 -51 -30q-72 -29 -317 -56l6 4q-6 6 -27 6z" />
<glyph unicode="[" horiz-adv-x="579" d="M-313 -190q0 -4 9 -31t11 -60q2 -18 31 -24l8 -6q23 -2 61 14q20 14 64 37l10 2q14 -4 25.5 3t36.5 24l8 2q18 -12 29 -11q18 2 26 0q10 -2 23.5 -16t25.5 -14q10 0 23 6l4 2l10 2q-10 -2 -10 0q16 14 20 10q18 8 44 51t22 60q-6 29 -12 59q-14 31 -60 31q-23 0 -52.5 -7 t-86.5 -57q-14 -12 -29 -39q-10 -18 -41 -30q-6 -2 -55 14q-2 2 -5 6t-3 6q-2 20 45 78v10q80 76 121 148q20 61 51 145q4 6 29 33q20 20 18 33q-4 45 8 67q20 29 39 58q4 14 12 41q29 51 29 80q-2 18 8 51q-2 27 4 76q55 166 86 223q4 20 27 76q20 27 49 75q10 29 31 49 q4 4 7 13.5t9 17.5t15 51q8 12 18 41q6 39 13.5 81t43.5 87q10 14 9 43q-2 45 -2 43q10 20 26 64q14 72 -14 145l6 8q0 63 14 80q6 4 17 15q2 0 35 10q25 6 30 4q23 -12 19 -33q-4 -27 2 -39q25 -49 43 -55q27 -8 51 -8q43 0 80 31q27 29 55 57q16 14 21 59q6 43 -7 49 q-14 14 -12 17q4 4 10 -4l-12 6q-8 4 -18 4q-12 0 -35 -13.5t-35 -12.5t-61 -13l-9 2q-4 10 -18 23q-8 6 -25 2l-6 4q-10 12 -39 37q-29 16 -53 14l-10 -6q-16 -2 -49 -25q-39 -41 -80 -82q-18 -20 -14 -55q-6 -82 -23 -197q-14 -59 -37 -151q6 -20 -29 -76q-43 -70 -47 -80 q6 -25 -30 -108q-57 -133 -76 -168q-47 -129 -117 -293q-6 -65 -45 -184h2q-12 -41 -51 -111q-6 -12 -4 -57q2 -37 -21 -56q-33 -82 -94 -213q-59 -92 -121 -198q-27 -31 -26 -47z" />
<glyph unicode="\" horiz-adv-x="1146" d="M47 1835q-4 18 27 100l8 11q16 6 45 22q16 12 37.5 55t40 58.5t43.5 15.5q67 0 67 -63q0 -20 -10 -56q-14 -43 -16 -51q8 -14 8 -37t-16 -90l-19 4q-4 2 -14 13.5t-26.5 57.5t-10.5 58l-18 13q-31 -31 -99 -91q-35 -23 -41 -22q-4 0 -6 2zM242 1610l18 141l21 18 q20 -53 22 -131.5t13.5 -97t33.5 -55.5q4 -29 23 -76q14 -10 37 -33l8 -10q2 -35 8 -43q12 -16 25 -31q2 -18 12 -51q43 -104 137 -225q31 -27 86 -82q8 -23 31 -62q16 -8 43 -34q10 -12 17 -41t11 -37q20 -39 103 -142q33 -27 82 -81l6 -11l-4 -4q6 -16 22 -49 q29 -31 119 -170l72 -55q6 -29 31 -70q31 -49 36 -69l-6 -15q6 -68 17 -88q4 -10 53 -72q4 -8 12 -20l-6 -14q2 -31 7 -54.5t5 -27.5q0 -6 -49 -90q-23 2 -63 26q-12 25 -41 131q-25 88 -64 140q-12 16 -38.5 31.5t-34.5 23.5q-12 16 -22.5 57t-23.5 58q-18 12 -51 43 q-8 18 -32 51l-3 2q-18 25 -75 88q-4 -8 -32 46t-32 103q0 6 -13 12.5t-16.5 10.5t-11.5 49l-6 8q-14 10 -39 37l-8 14q-2 39 -26.5 71t-49.5 63q-20 25 -43.5 78t-42.5 77q-29 27 -74 78q-84 129 -116 231q-6 8 -15 31q-2 8 5.5 22.5t7.5 20.5q0 12 -17 27q-23 20 -24 22 q-29 37 -29 80q0 6 4 43q2 27 0 47q-8 20 -20 60z" />
<glyph unicode="]" horiz-adv-x="579" d="M-315 -213q0 -29 10 -33q14 -14 12 -16q-4 -4 -10 4l12 -6q8 -4 19 -4q12 0 34.5 13t34.5 15q12 -4 62 11l8 -2q4 -10 18 -23q8 -6 25 -2l6 -4q10 -14 38 -33.5t52 -17.5l12 6q14 2 48 24q10 12 77 82q20 20 19 56q6 82 20 196q25 109 39 152q-6 20 29 76q43 70 47 79 q-4 23 29 109q49 125 77 168q47 129 117 293q6 65 45 184h-2q12 39 21 57q14 35 30 52q6 12 4 59q-2 35 21 55q33 82 94 213q59 92 121 199q25 31 25 47q0 4 -8.5 30.5t-12.5 59.5q-2 18 -31 25l-6 6q-23 2 -61 -14q-20 -14 -64 -37l-10 -4q-12 4 -29 0q-10 -10 -34 -25 l-7 -2q-18 12 -28 10q-18 -2 -27 0q-10 2 -23.5 15.5t-25.5 13.5q-10 0 -23 -4l-6 -2l-8 -2q10 2 10 0q-16 -14 -20 -11q-18 -8 -44 -51t-22 -59q6 -29 13 -59q14 -31 59 -31q23 0 55 8q27 6 84 55q14 12 29 39q10 18 41 31q6 2 55 -14q2 -2 5 -6.5t3 -6.5q2 -20 -45 -78 v-10q-80 -76 -120 -147q-20 -61 -52 -146q-4 -6 -26.5 -29.5t-20.5 -35.5q4 -45 -8 -68q-20 -29 -39 -57q-2 -12 -12 -41q-29 -51 -29 -80q2 -18 -8 -51q2 -25 -4 -76q-55 -166 -86 -223q-4 -20 -27 -76q-20 -25 -51 -76q-12 -31 -29 -49q-2 -8 -14 -29q-2 -2 -18 -53 q-6 -14 -17 -41q-6 -39 -10 -78q-10 -43 -47 -90q-10 -14 -8 -43q2 -45 2 -43q-10 -20 -27 -63q-14 -72 14 -146l-8 -8q0 -63 -12 -80q-2 -2 -7 -6t-8 -6t-36 -12q-25 -6 -31 -4q-23 12 -18.5 35.5t-1.5 35.5q-25 49 -43 56q-29 8 -52 8q-45 0 -76.5 -30t-60.5 -58 q-23 -20 -22 -76z" />
<glyph unicode="^" horiz-adv-x="598" d="M160 766q-4 2 0 10l8 10q6 18 29 60q12 10 32 26q6 12 27 37q8 6 25.5 16.5t23.5 14.5l4 10q49 27 135 82q29 29 60 55q47 43 69 43q8 0 11.5 -3t4.5 -7t1 -6q10 -8 24 -18q25 -20 35 -39q2 -12 13 -37q14 -6 36 -21q6 -14 23 -45q8 -4 24 -10q10 -4 21.5 -23.5 t15.5 -23.5q31 -20 68 -68q8 -29 -74 -28q-74 0 -86 10q-4 8 -18 29q-35 18 -88 61q4 10 -11 29q-8 4 -26 10q-8 4 -11.5 25.5t-25.5 31.5q-29 14 -37 15q-6 0 -13 -8.5t-20 -14.5q-39 -20 -92 -82q-20 -18 -45 -49q-4 -12 -32.5 -45t-45.5 -43q-20 -2 -53 -8q-2 4 -12 4z " />
<glyph unicode="_" horiz-adv-x="575" d="M-168 -96l21 28q6 0 14 -6t12 -6q8 0 24.5 4t26.5 4q12 0 22.5 -8t14.5 -8q8 0 19.5 9t19.5 9l21 -12q37 2 86 14q8 0 20 -9t19 -9q14 0 40.5 10t40.5 10l25 -14q6 0 14.5 7t14.5 7l16 -6q68 0 117 25q14 -2 22.5 -11.5t14.5 -9.5t17 5.5t18 3.5q6 0 19 -4.5t19 -2.5 q8 0 20.5 9.5t18.5 9.5q10 0 21.5 -15.5t19.5 -15.5q6 0 16.5 6t16.5 6q10 0 42 -17t32 -26q0 -14 -28 -40.5t-44 -26.5q-10 0 -26.5 8t-24.5 10q-12 2 -30.5 -2t-26.5 -4q-12 0 -35 19q-4 0 -12.5 -6.5t-14.5 -6.5q-8 0 -16 13.5t-19 13.5q-8 0 -19 -11.5t-22 -9.5 q-4 0 -11 6.5t-13 6.5h-2q-25 -16 -47 -8q-6 0 -22.5 -6.5t-24.5 -6.5l-23 8l-18 -10l-15 8l-22 -4q-12 2 -25 15q-18 -18 -37 -19q-14 0 -30 6l-5 9q-8 0 -22 -7.5t-23 -7.5h-6q-4 2 -6 2l-4 4q-23 -14 -61 -14q-10 0 -17 -6q-39 -35 -67 -35q-23 0 -43 47q-18 37 -23 68z " />
<glyph unicode="`" horiz-adv-x="641" d="M193 1817q18 -27 22 -37q4 -8 0 -47q-2 -29 21 -52q12 -6 28 -20q16 -27 53 -70q51 -39 97 -49q10 2 28 -2q12 -4 38 -27.5t65 -35.5l16 8l-6 20q-4 10 -44 52.5t-65 105.5l3 2l-43 43l2 39q-10 20 -33 59q-14 23 -30.5 45.5t-72.5 44.5q-12 4 -24 5q-35 0 -49 -35v2 l-6 -2q-4 -39 0 -49z" />
<glyph unicode="a" horiz-adv-x="598" d="M18 78q8 23 15 72q-2 25 16 51q27 39 29 47q10 47 41 135q14 16 41 53q4 12 14 39q8 14 39 32.5t33 22.5q23 45 69 93q55 53 92 53h3q10 0 43.5 10t40.5 12q38 32 110 95h2q43 -12 51.5 -21.5t12.5 -58.5q2 -18 2 -33q0 -34 -10 -47q-29 -43 -33 -51q0 -14 -6.5 -42 t-21.5 -45.5t-30 -35.5q-4 -18 -20 -53q-4 -6 -31 -27q-18 -12 -18 -31q4 -12 10 -37q2 -20 -15.5 -52t-15.5 -50q2 -31 29 -53.5t57 -22.5q10 0 25.5 9.5t23.5 9.5q2 0 31 -23q0 -16 -6 -49q-6 -10 -23 -17q-23 -10 -27.5 -13t-16 -22.5t-27.5 -21.5q-34 -26 -84 -26h-4 q-35 0 -76 25.5t-61 25.5q-41 0 -123 -33l-11 -10l-20 -4q-12 -1 -23 -1q-117 0 -127 95zM129 123q2 -14 28.5 -38t41.5 -24q63 0 82 25q12 20 24 39q20 10 41 22.5t32 34.5q9 19 9 53v13q-2 43 4 61q0 2 33 66q15 32 15 73q0 9 -1 19q-4 53 -47 53q-41 0 -109 -93 q-64 -88 -63 -135v-5h2v-11q-2 -6 -2 -10q-33 -16 -63 -62q-27 -41 -27 -73v-8z" />
<glyph unicode="b" horiz-adv-x="649" d="M-61 68q6 68 32 112q43 72 54.5 99.5t20.5 93t24 98.5q23 27 63 86q8 27 27 78q12 18 33 59q4 41 20 117q10 29 49 78q27 35 33 112q2 29 15.5 46.5t17.5 27.5q4 39 22 113q10 31 80 153q53 92 59 164q2 27 25 60q35 47 38 52t40 95q25 55 55 92q12 14 37 29q35 16 43 22 q14 18 49 52q25 10 68 39q33 53 100 133q25 4 68 28q6 14 20 43q18 12 55 37q12 16 43 45q27 6 76 27q109 70 166 70q35 0 77 -24t54 -52q2 -12 8 -37q3 -4 15 -16q11 -10 10 -23q0 -65 -47 -123q-47 -55 -111 -55q-12 0 -52 8t-62 8q-31 0 -86 -4q-61 -6 -84 -6h-4h-7 q-47 0 -49 -18q0 -2 -2 -5q-70 -45 -137 -88q-86 -57 -127 -106q-12 -6 -25 -6q-6 0 -13 2t-9 2q-8 0 -12 -50t-15 -73q-8 -12 -24 -35q-25 -55 -78 -160q-12 -12 -31 -41q-8 -25 -29 -73q-18 -20 -40 -66q0 -8 2 -25.5t2 -23.5q-2 -14 -24.5 -39.5t-29.5 -75.5 q0 -4 -52 -137t-58 -141q-18 -29 -19 -31q0 -16 -2 -27l13 -12q20 -6 69 -6q25 0 37 23.5t29 23.5q41 0 80 -43q35 -38 34 -75v-9q-2 -20 -21.5 -56t-21.5 -56.5t-19 -57.5t-19.5 -55.5t-28 -46t-27.5 -54t-43 -88.5q-40 -61 -63 -61h-2q-6 -14 -21.5 -39.5t-79.5 -66.5 q-53 -37 -57 -60h-4q-16 -8 -31.5 -33.5t-34.5 -38.5q-29 -18 -90 -18q-43 0 -61 35q-11 21 -11 54q0 10 1 20zM100 207q-2 -12 11.5 -24.5t25.5 -12.5q14 0 31 16q10 12 22 25q25 8 66 37q41 47 90 149q6 20 29 64q2 6 2 37q10 8 22 49v10q0 64 -71 64h-15q-47 -43 -96 -99 q-2 -18 -14 -55q-12 -14 -22.5 -25.5t-6.5 -44.5l-2 -6l-12 -14q-4 -10 -6 -43q-2 -12 -19.5 -43t-21.5 -60l-11 -8z" />
<glyph unicode="c" horiz-adv-x="520" d="M16 137q0 20 13.5 51t13.5 55.5t21.5 50t21.5 42.5q0 8 -5 23.5t-5 23.5q0 23 35.5 50.5t40 44t14.5 46.5q8 14 34.5 34t32.5 28q33 43 82 102q14 6 41 23q12 20 45 51q27 8 82 29q4 2 18.5 12t24.5 10h2q4 0 32 -5t46 -5l17 -2l6 -10q27 -6 47 -36t20 -61v-4 q-55 -57 -57 -59q-27 -20 -72 -21q-14 0 -50 -5t-56 -5l-17 -2q-37 -12 -96 -49q-6 -12 -18 -35q-45 -51 -101 -119q-4 -6 -8 -21.5t-8 -23.5l-29 -18q0 -2 -4 -53q-4 -39 -20 -48q0 -94 11 -107t101 -13q10 0 25.5 11t17.5 13q29 8 80 33q10 14 35 39q16 6 45 24 q2 2 11.5 15.5t15.5 13.5l10 -2l4 2q-8 -57 -39 -129q-37 -6 -110 -53q-66 -43 -105 -43q-18 0 -45 -23.5t-63 -23.5q-55 0 -96.5 46t-41.5 103z" />
<glyph unicode="d" horiz-adv-x="759" d="M34 192q22 36 27 70q0 8 30 65.5t36 63.5q35 10 76 70q31 47 59 94q25 18 70 59q10 20 37 54q29 14 84 43q18 16 59 43q37 12 74 22q43 18 63 51q6 20 17 60q6 12 26 41q14 18 17 49q2 25 25.5 45t27.5 68q2 23 27.5 63.5t27.5 73.5q2 27 29 53q31 35 37 49q4 25 16 74 q12 18 35 53q4 16 18 51q10 4 23 33q10 16 31 47q14 33 51 96q18 16 51 54q12 25 39 73q8 10 59 63.5t62 59.5q29 25 90 70q29 10 78 35q18 35 90 98q79 70 116 70h-2q14 0 54 -2h51h2q56 0 106 -88l13 -5q0 -16 4 -43q12 -29 24 -57q2 -5 2 -19q0 -21 -4 -63 q-2 -31 -61 -76q-23 10 -98 11h-95q-4 0 -17 12t-38 12t-74 -6t-73.5 -6t-134 -78t-132.5 -104q-10 -23 -36 -62q-23 -10 -52 -30q-2 -4 -6 -35q-2 -23 -24 -39q-27 -23 -33 -33q-2 -16 -12 -47q-23 -37 -46.5 -73t-27.5 -87q-2 -14 -24.5 -37.5t-26.5 -58.5q0 -4 -45 -132 t-50 -136q-20 -18 -43 -64q0 -8 2.5 -21.5t2.5 -21.5q-2 -18 -26 -37.5t-28 -56.5q-10 -27 -22 -84q-2 -16 -15 -39q-18 -29 -21 -41t-9 -88q-2 -37 -76 -147.5t-80 -208.5l-2 -9q6 -8 18 -20q90 14 101 20q33 20 40 23.5t48 9.5l10 -12v-2l-2 -21q-18 -8 -63 -30 q-10 -14 -33 -37q-10 -8 -72.5 -30.5t-77.5 -22.5q-35 0 -67.5 45t-71.5 45q-18 0 -78.5 -32t-116.5 -32q-23 0 -33 5q-11 5 -37 55q-25 47 -24 61q-1 21 24 61zM143 188h2v-8q0 -47 64 -49q39 0 112.5 52.5t75.5 86.5q20 18 54 104.5t38 121.5q1 5 1 10q0 47 -56 47 q-33 0 -123 -88q-82 -82 -102 -123q-4 -25 -21 -74q-20 -25 -45 -80z" />
<glyph unicode="e" horiz-adv-x="610" d="M-18 88q47 94 96 201v33q2 12 41 68t43 79q2 16 25.5 36.5t27.5 45.5q2 16 16 24q25 16 27 19q6 18 29 53q10 12 40.5 25.5t39 28t26.5 44.5q10 12 48.5 36t52.5 24h-2q18 0 47 -29l6 2q2 0 9 -14t9 -16q4 -23 -6 -62q-6 -31 -14 -61q-4 -20 3 -32.5t13 -25.5 q16 -4 27 -4l30 12q0 -8 -1 -24t-3 -25q-8 -37 -28 -51q-29 -6 -64 -41h-12q-8 -14 -31 -37h-16q-29 -16 -105.5 -37.5t-99.5 -33.5q-23 -20 -72 -60q-23 -31 -34 -102l-3 -12q41 -23 54 -23q37 0 121 57.5t90 87.5q-2 14 0 39q6 39 102 39q45 0 37 -26q-4 -23 -20.5 -37.5 t-32.5 -26.5q-18 -27 -54 -100q-4 0 -14 2h-16h-15l-75 -47l-17 -21q-20 -8 -59 -26q-35 -25 -70 -52q-29 -16 -90 -16q-108 0 -108 63q0 11 2 23zM293 479q-1 -10 -1 -18q0 -41 34 -41q53 0 39 2q18 18 39.5 40.5t23.5 41.5q1 6 1 12q1 22 -11 42q-14 24 -43 24 q-66 -1 -82 -101v-2z" />
<glyph unicode="f" horiz-adv-x="655" d="M-1112 -651q0 10 11 24.5t9 32.5q0 12 5 14q12 6 12 7q0 14 10 41q2 4 86 38l10 -2l6 -8q43 -35 101 -71l6 -13q25 -4 72 -22q14 -8 53 -62q33 -43 63 -43q16 0 39 15.5t41 15.5q10 0 27.5 -3t25.5 -3q33 0 154 43q102 37 143 57q10 23 39 60q18 6 49 26.5t64 66.5t31 75 q12 20 21 59t18 55q18 18 43 60q0 25 4 67q2 10 26 76q18 51 17 80q-2 18 15 44.5t15 55.5q0 16 23 80l8 2q2 10 0 37q-2 18 15 48q13 24 13 62q0 9 -1 19v12h6q2 25 12 68l10 4l-2 14q0 12 -20.5 18.5t-24.5 10.5q-29 55 -28 68q-2 29 63 53q76 27 80 33q25 51 64 120 q16 14 40 45q4 25 23 72q10 8 27 23q8 10 17 33.5t15 33.5q20 16 52 51q10 27 41 72q20 8 55 33q8 8 33 51q18 31 49 49q27 8 74 29q12 6 53 53q25 31 82 31q8 0 36.5 13t57.5 13q41 0 65.5 -10t51.5 -20q23 0 61 -13q8 -4 53 -53t47 -57q17 -31 17 -80v-6q5 -23 5 -41 q0 -21 -7 -35q-2 -4 -33 -31.5t-35 -27.5q-33 0 -33 28q-2 10 7.5 25.5t9.5 24.5q-2 12 -22.5 64t-26.5 56q-20 2 -60 11q-20 8 -37 24q-6 8 -61 8q-8 0 -28.5 3.5t-32.5 0.5q-25 0 -43.5 -16t-57.5 -16h-8l-8 -11q-25 -4 -70 -22q-10 -10 -31 -29q-12 -2 -30.5 -11 t-30.5 -34q-10 -16 -51 -31q-33 -12 -72 -124q-14 -20 -41 -66q-2 -18 -12 -53q-4 -8 -49 -64q-33 -41 -33 -70q0 -69 92 -69q20 0 31 2l16 14h6q12 0 30.5 -11t27.5 -11q14 0 32 14q6 0 14.5 -5t10.5 -5l2 -16q2 -10 -23.5 -42t-35.5 -32q-8 0 -24.5 11t-29.5 11 q-14 0 -26 -15t-22.5 -18t-106.5 -3q-31 0 -45 -13q-16 -18 -33 -37q-8 -29 -8 -80q0 -26 2 -57q0 -12 -19.5 -50t-19.5 -40l4 -27q2 -10 -16.5 -22t-20.5 -19q-4 -8 2 -59v-12l-6 -6v-4q-31 -31 -35 -52q-2 -29 -6 -59q-4 -18 -22 -41q-14 -14 -11 -59q2 -18 -18 -37 q-25 -25 -29 -33q-2 -29 -12 -86q-8 -10 -21 -31q-4 -27 -22 -67q-8 -4 -23 -15q0 -12 -8 -35q-10 -6 -26 -22q-18 -31 -60 -92q-20 -12 -53 -47q-4 -14 -21 -43q-12 -10 -40.5 -19.5t-38 -18.5t-23.5 -28q-49 -53 -81 -71.5t-103 -38.5l-11 -11q12 2 -38 2q-14 0 -28.5 -15 t-33.5 -15q-10 0 -29.5 6t-29.5 6l-15 -2l-8 -8q-10 -2 -47 2q-14 0 -53 -13.5t-76 -17.5h-12l-8 -10q-6 -2 -17.5 2t-15.5 4q-8 0 -20.5 -5t-18.5 -5q-12 0 -22.5 6t-16.5 8q-14 0 -43 6q-10 2 -67.5 60.5t-57.5 66.5z" />
<glyph unicode="g" horiz-adv-x="614" d="M-1233 -1358q0 41 6 45l17 17q0 16 10 53q14 12 41 41q2 14 14 39q41 35 96 94q2 18 19 51q6 10 31.5 18.5t33.5 20.5q2 14 15 41q10 20 123 119q43 53 143 151q20 12 59 39l62 62q41 41 65 47q12 0 39 6q12 6 19 51q80 23 108 80q10 20 28.5 31.5t23 20.5t16.5 28 q49 33 117 82q10 6 24 25.5t25 27.5q35 25 100 74q6 12 23 33q18 8 47 32q22 30 22 83q0 38 -18.5 60.5t-18.5 37.5q0 74 19 118q10 12 24 39q2 6 -4 49q0 20 29 48q39 31 43 38q16 35 51 101q10 6 27 22q4 16 20 43l19 11q16 35 78.5 90t99.5 61q16 -2 45 4q6 8 16 23 q39 38 86 75q10 -2 25 -12q4 -16 18 -49q4 -6 52 -47q31 -29 30 -59l-2 -11l-10 -16v-31q0 -35 -47 -41q-66 -6 -74 -12v-4q-10 -4 -13 -20.5t-7 -20.5q-12 -10 -33 -35q-2 -18 -14 -51q-8 -8 -23 -25q-2 -18 -14 -51q0 -2 -19 -16q-6 -8 -6 -25q0 -20 19 -20q14 0 38.5 11 t36.5 11h27q0 -20 2 -28q-109 -88 -223 -191q-4 -29 -19 -82q-8 -18 -43 -51q-14 -12 -14 -113q0 -14 -20.5 -66t-28.5 -65q-29 -14 -55 -104q-31 -100 -50 -123v-41v-10q-14 -18 -14 -29q0 -8 5 -21.5t5 -19.5q0 -16 -16 -31q-25 -18 -29 -24q-4 -27 -22 -76 q-25 -27 -70 -84q-2 -4 -25 -82q-12 -16 -34 -49q-6 -33 -29 -96q-10 -14 -35 -25q-31 -12 -38 -19t-21 -22q-23 -14 -63 -44t-48 -48q-8 -29 -16 -37q-12 -14 -43 -28.5t-41 -22.5q-43 -35 -105 -80q-14 -8 -110 -45q-102 -39 -113 -39q-20 0 -44.5 -16.5t-35.5 -20.5h-16 q-35 0 -90 -6q-29 -12 -59.5 -24.5t-61.5 -12.5q-76 0 -112 13.5t-87 64.5q-8 18 -8 90zM-1059 -1241q0 -125 105 -125q23 0 69.5 2t71.5 2t65 21q55 27 62 28q25 4 74 19q18 14 61 39q20 0 64 4q12 12 43 32q29 8 79 33q35 39 107 109q35 25 113 100q16 18 30.5 64.5 t28.5 62.5q12 10 33 37q6 25 24 72q12 10 33 39q0 18 6 57q6 16 25 33q12 12 12 63q0 23 17.5 44.5t17.5 58.5q0 8 6 26.5t6 32.5t19.5 44t23.5 40q20 63 23 125q10 16 20 35q18 35 19 71q0 37 -29 37q-10 0 -105.5 -91t-105.5 -89q-78 -80 -164 -162q-14 -4 -41 -14 q-8 -6 -30.5 -26.5t-32.5 -28.5q-20 -14 -46 -51.5t-40 -49.5q-68 -43 -195 -127q-162 -147 -223 -209q-20 -33 -68 -96q-33 -29 -127 -151q-12 -10 -26 -37q-25 -29 -25 -74zM152 197q0 -37 57 -37q35 0 80 53t45 86q0 14 14 33.5t17 29.5v50q0 10 17 36.5t17 47.5 q0 23 -16 53l-16 -2l-7 2h-2q-2 -4 -96 -82q-53 -47 -53 -115q0 -12 -23.5 -40.5t-23.5 -78.5q0 -6 -5 -17t-5 -19z" />
<glyph unicode="h" horiz-adv-x="727" d="M47 86q12 25 27 78q-3 18 -3 48q0 15 1 34q0 14 6 30l10 7q16 23 32.5 47t18.5 47q-4 23 -6 69v7l12 16l5 43q0 8 17 32.5t21 73.5q2 23 27 52q31 37 35 52t18 50q12 8 31 31q4 6 6 17t4 16q10 10 27 34q2 23 18 66q18 14 49 47q4 23 19 64q10 10 24 32q2 14 13 41 q18 14 57 113l6 22q14 6 37 17q12 8 31 37q16 23 45 34q10 23 35 66q27 18 75 57q29 37 99 101q12 6 37 18q35 33 104 94q23 8 62 29q4 4 10 16.5t8 14.5l76 51h30q16 0 63.5 22.5t74.5 22.5l61 -6q16 0 35.5 10t24.5 10q18 0 38 -14q29 -20 35 -23q39 -8 109 -38 q12 -23 47 -60q16 -2 41 -16q4 -4 31 -115q2 -6 8 -17.5t6 -21.5q-2 -25 -24.5 -98.5t-34.5 -91.5h-25q-6 0 -10 12l-4 12q-10 25 -21 49l2 65q0 29 -39 79q-41 53 -67 65q-20 4 -64 13q-35 18 -108 39q-23 0 -67 -12.5t-68.5 -12.5t-55.5 -23q-39 -29 -51 -32 q-18 0 -53 -13q-10 -12 -33 -34q-20 -6 -57 -29q-6 -16 -27 -41q-31 -14 -64 -27q-45 -20 -67 -55q-6 -25 -31 -72h-10q-10 -18 -107 -77l-6 2q-8 -31 -32 -91q-18 -14 -50 -47q-12 -31 -45 -86q-20 -20 -57 -65q-6 -20 -25 -60q-14 -12 -32 -47q0 -6 2 -17t2 -18 q-8 -10 -23 -32q-2 -18 -10 -58q-14 -16 -39 -53q-20 -51 -20 -63q0 -18 14 -27l90 64l37.5 25t23.5 30q8 6 31 7t31 4t45 32q25 20 66 20q63 0 47 -2q31 -16 34 -53q0 -9 -51 -105q-47 -89 -47 -127v-6q0 -10 -17.5 -38.5t-15.5 -59.5q2 -16 -10 -26.5t-12 -14.5v-14 q23 -14 31 -23q14 -14 16 -32q0 -4 1 -7q0 -26 -26 -59q-76 -72 -172 -162q-4 -8 -14 -22q-4 -2 -13.5 -3t-13.5 -3q-39 29 -43 77v7q0 39 39 57q38 17 38 61q0 6 -1 13q-2 27 14 49q25 39 27 41q2 27 19 75q25 16 55 58q2 10 -2 45v20q33 33 30 56q0 10 -8 30h-2l-14 4 q-6 0 -18.5 -5t-20.5 -3q-6 0 -19.5 5t-21.5 5l-10 -2q-66 -78 -109 -98q-4 -6 -10 -28.5t-12 -28.5q-12 -6 -43 -45q-8 -25 -27 -80q-10 -27 -29 -47q-10 -10 -10 -33q0 -16 4 -53q2 -31 -2 -45q-10 -10 -33 -35q-20 -41 -43 -80q-33 -61 -51 -61q-50 11 -50 87q0 8 1 17z " />
<glyph unicode="i" horiz-adv-x="354" d="M45 119q-1 5 -1 16q0 23 3 74q8 4 23 16q6 20 24 62q18 27 53 80q4 6 43 49q29 33 31 55q-2 14 2 43q2 10 17 37q8 18 6 49q0 -6 14 43q31 78 37 86q19 28 74 57h2q20 0 40.5 -32.5t20.5 -53.5q0 -14 -29.5 -45.5t-33.5 -46.5q4 -14 -4 -45l-15 -31q-2 -29 -37 -90 q-25 -41 -47 -80q-8 -14 -39.5 -105t-31.5 -101q6 -49 65 -50q45 0 68 17q2 2 9 16.5t15 14.5q6 0 19 -7q0 -16 -8 -51q-8 -14 -37 -24q-39 -12 -46.5 -16.5t-43.5 -43.5q-24 -28 -50 -28h-2q-10 0 -21 9t-13 11q-20 6 -41 13.5t-31 23.5q-31 53 -35 78zM344 969 q-2 18 23 50t43 32q27 0 49 -27q24 -30 24 -57q0 -15 -16 -29q-18 -16 -35 -31l-14 -2q-27 0 -70 43z" />
<glyph unicode="j" horiz-adv-x="970" d="M-856 -1001q68 -37 138.5 -72t158.5 -35q111 0 180 41q12 12 41 35q41 14 115 49q23 20 69 57q53 27 150 92q12 23 45 68q29 23 80 74q10 29 39 84q25 25 65 82q12 43 45 125q29 43 68 137q2 18 8 57q4 29 38 97.5t40 105.5q8 92 20 194q6 5 41 50q10 29 31 82 q20 33 59 102q4 18 19 57q20 18 45 64q2 12 6 33q0 8 2 10q6 12 72 92q68 61 182 76q0 -2 -10 -50.5t-111 -175.5l-30 -51q-23 -37 -54 -131q-25 -70 -47 -141q-16 -31 -41 -101q-2 -23 -8 -59q-10 -27 -31 -82q-4 -25 -20 -78q-12 -25 -35 -82q-2 -16 -6 -51 q-12 -20 -37 -71q-8 -35 -35 -101q-2 -4 -17.5 -21.5t-15.5 -24.5t-1 -13t-3 -8q-2 -14 -43 -60q-49 -57 -53 -63q-29 -51 -102 -144l-54 -30q-18 -14 -141 -113q-84 -72 -147 -104q-23 -6 -72 -27q-45 -35 -139 -90q-106 -43 -226 -43q-86 0 -143 26q-14 6 -33.5 29 t-31.5 31q-20 2 -56 16q-10 8 -11 29.5t-3 26.5z" />
<glyph unicode="k" horiz-adv-x="876" d="M-47 92l2 14q2 18 97 90t106 89q20 33 41 53q0 16 10 45q8 8 22 27q4 25 17 75q20 31 51 99q6 35 27 102q12 12 32 43q6 16 7 66q0 39 26.5 69.5t26.5 96.5q0 10 8 30.5t8 40.5q0 12 16.5 42t16.5 69q0 10 11 28.5t11 45.5q0 8 11.5 43.5t11.5 66.5t20 49q27 27 33 39 q4 25 21 72q33 20 45 65q14 55 20 64q14 8 43 31q8 20 27 59q20 20 55 66q4 14 17 36q23 10 59 43q4 18 20 50q57 74 93 81q8 12 28 39q20 16 64 47q33 39 102 111q12 6 37 19q6 10 23 20q12 0 36 2q10 0 26 8t24 8v-2q70 0 118 -45q43 -49 86 -100l2 -10q0 -152 -159 -152 q-37 0 -56 -10q-27 -12 -41 -16q-127 -29 -219 -29q-14 0 -53 -26.5t-52 -26.5t-18 -7q-6 -12 -8 -14h-8q0 -2 -16 -53q-10 -33 -45 -55v-11q-29 -12 -76 -49q-2 -18 -17 -55q-20 -12 -26 -31q-10 -35 -12 -37q-20 -18 -48 -65v-45q0 -18 -16 -43q-20 -31 -25 -43 q0 -25 -8 -70q-6 -20 -22 -43q-10 -14 -11 -61q0 -18 -18 -45q-20 -37 -25 -45q-23 -80 -71 -226q-29 -68 -29 -80q0 -35 39 -66.5t76 -31.5q53 0 101 78t112 78q27 0 77 -62.5t50 -93.5q0 -23 -20.5 -39t-45.5 -16q2 0 -46 16.5t-85 16.5q-16 0 -49 -7l-4 -10 q-37 -16 -47 -22q-23 -14 -37 -37l-10 -4q-4 -14 -2 -19q0 -8 4 -25.5t4 -27.5q0 -6 -3 -19.5t-3 -21.5q0 -14 15 -35.5t17 -32.5v-8q0 -32 13 -84q31 -35 80 -123q12 -8 24 -8q55 0 111.5 83t79.5 83q18 0 14 -20q0 -45 -35 -99q-45 -63 -51 -84q-4 -10 -33.5 -26.5 t-46.5 -69.5q-10 0 -42 -4t-50 -4q-63 0 -88 55q-16 53 -35 107q-6 16 -29.5 36.5t-29.5 30.5q-12 20 -16.5 51t-37.5 68h-12l-20 2q-10 -20 -21 -41q-6 -4 -39 -20l-12 10q14 57 51 76q29 14 29 73q0 96 -45 101h-12q-18 -33 -43 -103q0 -33 -11 -92q-6 -16 -26.5 -33.5 t-28.5 -42.5q-4 -12 -29.5 -41.5t-25.5 -58.5q0 -45 65 -45q37 0 66 18q43 31 55 35l6 6q20 0 26.5 -20.5t10.5 -38.5q-20 -10 -59 -33q-29 -23 -59.5 -47t-65.5 -33q-16 0 -47 -6q-8 -2 -22.5 -15t-31.5 -13q-10 0 -29.5 6t-29.5 6q-6 0 -20.5 -2t-22.5 -2q-47 0 -47 102z " />
<glyph unicode="l" horiz-adv-x="352" d="M-6 14q0 14 15.5 33t17.5 27q12 43 43 119q14 12 36 40q0 27 11 76q12 10 28 35l50 143q0 23 28.5 52.5t28.5 62.5q0 14 13.5 40t15.5 32q2 18 12 57q10 12 29 39q2 20 12 55q6 10 18 33q6 37 25 109q14 25 35 73q2 12 4 37q20 20 53 66q2 20 12 59q18 27 47 86 q0 23 11 70q6 14 29.5 33.5t29.5 31.5q2 23 16 68q16 10 45 33q12 20 39 61q25 16 66 53q4 27 31 66q18 4 49 20q2 12 12 37q2 -2 4 0t0 4q23 14 53.5 52t32.5 38q10 6 51 11q31 4 43 28h9q39 57 106 94t135 37v3q63 0 111 -68q2 -2 37 -10q25 -6 24 -23q0 -10 -6 -22 q2 -8 27 -45q12 -18 12 -62q0 -10 -4 -45q-83 -51 -181 -51h-7q-12 0 -37 -12l-4 -2q-8 0 -26.5 6t-29.5 6q-16 0 -133 -33t-133 -45t-51 -33q-27 -6 -56.5 -14t-48.5 -27v-8q-14 -8 -39.5 -50t-27.5 -58.5t-28.5 -39t-31.5 -32.5q-14 -51 -53 -137q-12 -8 -31 -29 q0 -18 -10 -57q-20 -14 -49 -50q0 -27 -12 -79q-14 -14 -35 -52q0 -14 -4 -45q-8 -14 -27 -45q-6 -35 -28 -100q-2 -4 -17 -21q-6 -8 -6 -24t-10 -28.5t-13 -18.5q-2 -14 -10 -39q-6 -12 -28 -33q-10 -8 -11 -53q0 -29 -37 -84l-10 -4q-4 -35 -35 -111l-10 -6 q0 -12 -2 -35.5t-20.5 -59.5t-18.5 -56q0 -41 27 -41q8 0 26.5 6t28.5 6q8 0 33 -10q2 -10 6 -31q-6 -8 -65.5 -55.5t-63.5 -49.5q-20 -2 -61 -10q-20 -16 -74 -35q-8 0 -31 4z" />
<glyph unicode="m" horiz-adv-x="960" d="M78 37q-2 8 29.5 92t44 94t32.5 35v14q0 23 4 60l48 49q36 40 36 93q0 19 -2 38q-10 23 -24 70q-4 23 8 61q10 33 20 64q2 12 62 49t76 37h-2q33 0 41 -31q14 -43 21 -48t22 -18q68 8 120 54q50 38 69 38h1q86 0 107 -126q6 -35 40 -35q6 0 15 4h-6q27 12 75 39l5 10 q16 0 43.5 28.5t54.5 28.5q-2 0 59 -20l2 -8q19 -25 19 -49q0 -8 -6 -18q-8 -12 -9 -15q2 -18 -2 -56q-4 -14 -25.5 -31.5t-27.5 -25.5q-8 -33 -33 -92q-10 -6 -26 -27q-6 -23 -21 -63q-2 -2 -30 -47q-23 -33 -19 -47l6 -13q-14 -14 -22 -67q6 -39 39 -41q10 0 17 9t13 9 q16 0 31 -6h2l10 -4l-2 -4l4 -10l-2 -2q-2 -18 -39 -29q-25 -8 -49 -14q-10 -6 -30 -35q-14 -20 -56 -21q-51 0 -61 60q-2 14 20 57q16 29 33 57q2 31 12 90q6 25 29 56q27 39 33 51q2 20 14 57q12 10 31 33q8 25 26 76q2 2 11 14q8 6 6 14q0 2 -23 35q-6 -2 -22 2 q-2 0 -72 -46t-76 -52q-4 -18 -45 -49q-10 -10 -16 -40t-15.5 -37t-23.5 -23q0 -10 -6 -33q-18 -12 -27 -35q-8 -31 -14 -39q-14 -8 -39 -27q-4 -18 -16 -53q-12 -8 -33 -33q-2 -6 -12 -79q-6 -49 -50 -60q-16 10 -31.5 20.5t-19.5 30.5q-4 18 7.5 50t7.5 51q0 4 12 15 t12 15q6 20 25 60q16 10 37 35q-1 6 -1 14q0 23 5 57q2 6 59 68q47 51 47 119q0 20 -4 43q-6 37 -39 37q-72 0 -147 -70q-10 -18 -37 -53q-14 -6 -41 -25q-2 -25 -15 -72q-8 -8 -20 -26q-2 -16 -8 -47q-10 -16 -28 -49q0 -18 -7 -54q-16 -10 -20 -24q-4 -20 -9 -27 q-18 -16 -49 -55q-10 -41 -21.5 -84t-54.5 -43q-18 0 -47 4q-8 12 -20 41z" />
<glyph unicode="n" horiz-adv-x="833" d="M78 49q0 1 37 61q35 56 35 81q0 7 36 58q33 47 33 90v9q-2 16 5 21.5t16 11.5q31 37 49 65q2 23 14 66q8 6 23 23q20 31 36 96l-12 20l-24 11l-7 10q-16 4 -24 4q-41 0 -57 -43q-8 -2 -25 -10q-2 -2 -12.5 -11.5t-18.5 -9.5l-18 10q-2 14 2 39q4 12 22 23q27 14 29 16 q35 33 72 68q28 22 94 22h6l-2 2q2 0 8 2h8q41 0 50 -32q2 -33 4 -65t20 -46h23q20 0 38.5 18.5t22.5 36.5q8 6 30.5 7.5t33 4.5t45.5 31q25 20 65 21q63 0 47 -2q31 -16 35 -53q0 -9 -51 -105q-49 -93 -49 -130q0 -13 -17.5 -43t-15.5 -60q2 -16 -9 -25.5t-11 -13.5v-17 q23 -15 33 -25q12 -13 12 -32q0 -24 -23 -61q-76 -72 -172 -162q-4 -8 -14 -23q-8 0 -29 -6q-39 29 -43 78v7q0 39 39 57q38 17 38 61q0 6 -1 12q-2 27 14 49q29 39 29 41q2 27 16 74q25 16 55 59v45q0 14 -2 21q33 33 33 55q0 10 -8 31h-2l-14 4q-6 0 -18.5 -5t-20.5 -3 q-6 0 -19.5 5t-21.5 5l-10 -2q-66 -78 -111 -98q-6 -14 -21 -41q-20 -14 -57 -54q0 -29 -12 -88q-10 -27 -29 -47q-10 -10 -10 -32q0 -16 4 -54q2 -31 -2 -45l-35 -35q-20 -41 -43 -79q-33 -62 -51 -62v2q-23 0 -54.5 32t-35.5 54z" />
<glyph unicode="o" horiz-adv-x="557" d="M29 117q0 6 14 69.5t20.5 71.5t20.5 27q2 16 4 45q12 12 29 41q2 16 12 51q12 18 31 53q2 14 12 43q16 14 45 43q33 47 90 119q18 10 49 37q37 59 39 63q29 35 72 35h2q12 0 37.5 -5t40.5 -5q31 0 39 -49q4 -35 6 -72l12 -16q2 -12 2 -39t-10 -72t-10 -80t-8 -53 q-14 -25 -29 -47q-6 -20 -27 -60q-10 -8 -28 -26q-4 -20 -17 -60q-18 -16 -55 -53q-129 -190 -238 -190q-35 0 -95 49t-60 80zM147 178q0 -18 29 -51t47 -33q74 0 94 39q10 29 21 57q10 6 33 19q31 23 37 78q10 74 16 86q10 23 35 51q10 12 20 90l-4 8v-2v53q-6 29 -37 29 q-57 0 -76 -27q-18 -35 -34 -67q-31 -29 -88 -96l-13 -6q-6 -39 -22 -105q-16 -31 -33 -63q-25 -47 -25 -60z" />
<glyph unicode="p" horiz-adv-x="643" d="M-1106 -1073q0 20 28.5 55t47.5 35q8 0 26.5 -6t28.5 -6t18.5 6t14.5 6t19.5 -8t21.5 -8q4 0 17.5 8t23.5 8q8 0 23.5 -8t25.5 -6q10 0 38 11t40 11q31 0 90 2q33 0 60.5 18.5t43.5 22.5q25 0 68 10q12 10 37 27q20 4 57 21q6 14 27 36q6 4 20.5 8.5t20.5 10.5 q88 53 88 157q0 12 15.5 21.5t19.5 13.5q2 12 10 37q23 18 49 70q0 14 2 43q0 18 21.5 42.5t25.5 37.5v8q0 26 10 65q4 6 20.5 20.5t16.5 29.5q-2 27 0 34q0 18 24.5 46t24.5 44q0 8 -7 27t-5 29v6l8 10q14 51 35 82t26 48.5t7 49.5q0 43 2 57.5t20.5 45.5t18.5 49 q0 8 -4 24.5t-4 26.5q0 14 23.5 38t23.5 79q0 12 19.5 68.5t19.5 97.5q0 18 -4 37l2 10h6q10 6 52 58t48 65q2 6 12.5 16t10.5 21q0 32 48 32h3q18 0 46.5 23.5t51.5 23.5h2q37 0 35 -22q0 -12 -5 -26.5t-5 -28.5q0 -33 53 -43q94 -16 98 -19q53 -20 54 -82 q0 -20 -19.5 -42.5t-23.5 -32.5q-29 -76 -29 -89q0 -27 -45 -65q-27 -23 -53 -45q0 -16 -9 -49q-8 -14 -36.5 -24.5t-35.5 -23t-20 -36.5q-43 -53 -67 -111l10 -10t20 -8q16 0 57.5 9t47.5 17.5t18 24.5q14 4 41 16l47 47l19 -10v-6q0 -25 -13 -57q-12 -2 -36 -11 q-6 -8 -21 -20q-33 -12 -94 -43q-18 -20 -59 -55q-14 -6 -39 -21q-8 -10 -29 -26q-18 -6 -51 -7q-55 0 -70 11q-6 4 -16 24q-8 14 -23 15q-8 -2 -28 -9q-2 -18 -11 -51l-10 -6l-33 -72q0 -20 -10 -63q-8 -18 -49 -64q-25 -27 -25 -82q0 -12 -45 -94t-45 -121q0 -10 2 -30.5 t2 -28.5q0 -29 -37.5 -95.5t-37.5 -62.5v-24q12 0 33.5 -2t31.5 -2q39 0 141 80q20 8 58 28l6 8q27 10 76 39q16 18 35.5 38t39.5 20q8 0 14.5 -7.5t10.5 -9.5v-28q0 -35 -74 -72q-98 -47 -100 -49q-86 -74 -182 -154q-31 -6 -95 -26q-12 -6 -69 -56q-39 -33 -101 -33 q-6 0 -34.5 -15t-73.5 -15q-18 0 -39 -17q-25 -23 -35 -26q-25 0 -74 -10q-8 -8 -24 -23q-6 -2 -18.5 -2t-18.5 -2t-31.5 -19.5t-36.5 -17.5q-12 0 -41.5 6t-46.5 6q-14 0 -38.5 -6t-36.5 -6q-8 0 -23.5 6t-24.5 4h-4l-14 -10h-25l-59 2q-8 0 -46 34t-40 42zM215 209 q0 -10 7 -30.5t16 -20.5h22q16 35 47 80q18 4 51 20q8 18 27 53q16 6 43 27q4 20 18 55q8 12 54 49q37 31 43 52q-2 10 0 30q0 8 5 23.5t5 23.5q0 18 -23.5 34t-42.5 16q-16 0 -26 -9q-16 -12 -19 -14q-16 -2 -47 -14q-4 -8 -16 -21q-18 -8 -53 -33q-56 -51 -56 -133h2 q0 -12 -14 -31.5t-14 -31.5q0 -8 6 -23.5t4 -23.5l2 -4q-41 -35 -41 -74z" />
<glyph unicode="q" horiz-adv-x="673" d="M-850 -1151q4 27 8 35q6 18 21 26q57 35 252 35q23 0 65.5 20.5t87.5 20.5q23 0 33 8q23 14 27 17q39 8 110 31q23 10 90.5 72.5t85.5 88.5q4 16 21 45q20 18 61 60q14 25 60 71l2 13q-4 16 -4 26q0 16 15 50t15 61q0 10 11.5 25.5t13.5 19.5q4 29 18 82q2 6 19 29 q14 16 14 30q0 6 -3 17.5t-3 15.5q0 8 12.5 19.5t14.5 19.5q0 29 10 84q18 29 37 57q27 41 26 82q0 53 -75 53h-11q-16 0 -61 48.5t-45 66.5q0 25 11 57.5t11 51.5q0 8 13.5 19t13.5 46q0 18 15.5 29.5t19.5 17.5q2 16 14 47q23 10 33 29q14 35 18 39q45 37 115 102 q20 33 72 91q25 16 49 16q8 0 21.5 -6t21.5 -6q4 0 17.5 8t21.5 10q10 27 24.5 34t20.5 15q6 33 90 82l10 2q10 0 20.5 -25.5t10.5 -39.5q0 -16 -19 -64l-8 -8v-25q0 -20 -18 -45q-29 -33 -31 -39q-6 -29 -20 -88q-2 -6 -7.5 -15t-5.5 -18.5t-16 -17.5l-25 -10v-4 q0 -6 -8 -13.5t-10 -9.5q-2 -12 -8 -30q-23 -18 -60 -64q-2 -14 -12 -47q-14 -14 -41 -49q-14 -27 -22 -90l-15 -19q4 12 4 -24q0 -12 -6 -36t-6 -37t-13.5 -22.5t-13.5 -31.5q-4 -10 -26 -37q-16 -18 -16.5 -38.5t-24 -53.5t-23.5 -72q0 -16 -16 -40.5t-18.5 -37 t-6.5 -37.5l-10 -8q0 -10 3 -29.5t1 -29.5q0 -18 -14 -45q-18 -35 -21 -41q-2 -25 -14 -68l-18 -20q-8 -25 -31 -68q-16 -12 -41 -43q-18 -43 -49 -90q-8 0 -23 -6q0 -12 -10 -35l-27 -18q8 -29 19 -45l22 -2q8 0 16.5 9t10.5 11q31 18 63 25q57 12 63.5 14t26 21.5 t52.5 17.5l8 -2l8 -8q-70 -106 -96 -123q-12 -2 -39 -9q-16 -8 -51 -38q-18 -18 -70 -19q-14 0 -31 -14q-23 -23 -26.5 -25t-78.5 -32q-70 -27 -76 -27h-1q-18 -4 -71 -6q-37 0 -96 -32q-55 -30 -94 -30h-5q-78 -47 -133 -47q-27 0 -84 8l-12 11h-15q-14 0 -39.5 -4.5 t-38.5 -4.5q-23 0 -57 27zM190 231q0 -27 9.5 -35t19.5 -18q23 4 74 10q23 4 54.5 65.5t31.5 92.5q0 4 2 10v9q41 27 41 69q0 -14 -8 43l26 15q-10 32 -21 32h-1q-18 0 -35.5 -19.5t-56.5 -19.5l2 -2q-25 0 -35 -34q-10 -43 -19 -50l-41 -34h-10q-14 -23 -4 -52 q-14 -27 -29 -82zM299 -758q10 70 166 176l14 -10q-6 -14 -14 -49q0 -25 -54.5 -73t-86.5 -48q-8 0 -25 4z" />
<glyph unicode="r" horiz-adv-x="731" d="M-88 305q8 8 4 14q37 31 102 99q12 23 41 61q20 12 58 43q4 12 14 33q18 10 49 33q6 14 25 41q84 74 129 88q14 25 45 61l72 33q14 0 25 -20.5t11 -34.5q0 -25 -14 -41.5t-14 -32.5q0 -18 12 -29.5t33 -11.5q27 0 54.5 40t57.5 40q66 0 109 -76q-6 2 43 2q12 0 16 -6 t9 -6q-37 -78 -80 -78h-2q-12 16 -55.5 36.5t-65.5 20.5q-37 0 -78 -57q-49 -72 -63 -82q-2 -18 -13 -53q-12 -25 -35 -66q-8 -16 -37.5 -42.5t-39.5 -45.5q-2 -18 -15 -51q-2 -4 -17.5 -17.5t-15.5 -19.5l3 -12q-12 -10 -35 -29q-6 -6 -74 -82q-49 -55 -80 -65 q-23 35 -22 76q0 43 20 61q41 39 45 43t12 31q6 14 25 24q4 23 14 66q4 14 35 72q25 47 25 75q0 20 26.5 51t26.5 54q-2 37 -37 37q-8 0 -20 -4l-4 -9q-25 -16 -38.5 -36.5t-15.5 -22.5q-18 -2 -49 -15.5t-45 -50.5q-23 -49 -29 -57q-20 -8 -55 -31q-23 -33 -61 -71h-17z " />
<glyph unicode="s" horiz-adv-x="798" d="M23 94q8 14 10 72q0 8 65 100h8q10 2 28 -5t28 -7t16 -10q8 -16 11.5 -18.5t13.5 -4.5t14 -6q4 -10 14 -29q12 0 31 -6q6 -4 33 -35q16 -20 61 -20h3q114 0 151 149q2 10 19.5 34t15.5 38q-12 12 -31 103q-10 37 -25 108q4 23 7 88q-2 31 22 47q39 25 43 34t12 28 q2 6 32 25.5t34 19.5v2l31 -13q68 -12 80 -22t18 -76q0 -6 8 -17t8 -20q2 -14 -21.5 -38.5t-37.5 -24.5q-16 0 -37.5 22.5t-40.5 22.5q-14 0 -61 -31q16 -39 18 -82q6 -12 14 -35q2 -8 -5 -18t-7 -18q4 -55 4 -58q6 -14 13 -43q2 -16 -9.5 -27.5t-13.5 -17.5q0 -23 -12 -65 q-20 -39 -107 -125v-11q-4 -4 -14 -10t-14 -10l2 -10q-78 -86 -125 -86q-6 0 -19.5 5t-21.5 5q-10 0 -27.5 -10.5t-28.5 -10.5q-10 0 -29.5 7.5t-29.5 7.5q-6 0 -20.5 -2t-22.5 -2h-37q-23 2 -37 2q-16 35 -34 104z" />
<glyph unicode="t" horiz-adv-x="636" d="M18 94q0 84 11 119q8 18 31.5 42t39.5 60q8 16 19 72q6 33 41 70q10 14 28 47q10 25 17 76q4 59 10 79q16 35 47 109q2 27 19 78q6 10 79 65q16 12 37 43t35 41.5t47 32.5l45 53q27 31 60 31h-2q36 0 36 -27q0 -28 -41.5 -114t-62.5 -94v-56q39 -8 96 -22v-19l2 -8 q-10 -16 -80 -106q-14 -6 -69 -7q-39 0 -58.5 -23.5t-46.5 -29.5q-8 -8 -13 -33.5t-9 -33.5q-10 -6 -25 -23q-6 -20 -24 -61q-10 -8 -33 -29q-6 -12 -13.5 -40t-15.5 -40q-2 -2 -28 -35q-18 -23 -19 -41q2 -41 2 -30q0 -14 -19.5 -33t-19.5 -41q0 -33 33 -39t64 -8 q37 61 90 61q33 0 32 -22q0 -41 -61 -66q-47 -16 -92 -33q-10 -6 -35 -41q-17 -24 -45 -24h-2q-61 0 -84 20.5t-23 79.5z" />
<glyph unicode="u" horiz-adv-x="632" d="M6 63q0 9 52 105q47 88 46 124v7q0 10 17.5 40t15.5 60q-2 16 9.5 25.5t11.5 13.5v17q-23 14 -33 24q-12 12 -12 33q0 24 22 61q12 20 184 193q2 2 6.5 11t11.5 12.5t25 5.5q39 -29 44 -76v-7q0 -41 -46 -73q-44 -31 -43 -77v-11q2 -27 -14 -49q-27 -39 -29 -43 q-2 -27 -16 -74q-25 -16 -55 -59v-45q0 -14 2 -21q-33 -33 -31 -53l6 -31h4l13 -6q6 0 19 5t22 5q8 0 21 -5t20 -5l8 2q66 78 110 98q6 14 23 41q23 14 55 54q6 14 6 43.5t6 42.5q10 27 29 47q10 10 10 32q0 16 -4 56q-2 29 7.5 42t29.5 36q20 41 43 79q33 62 51 62h2 q23 0 54.5 -33t33.5 -55q-1 -1 -37 -61q-35 -56 -34 -81q0 -7 -37 -58q-33 -47 -33 -90v-9q2 -16 -5 -21.5t-15 -11.5q-31 -37 -50 -66q-2 -23 -14 -65q-8 -6 -20 -23q-16 -27 -39 -96l12 -20l27 -9l6 -10q16 -4 22 -4q41 0 58 43q8 2 24 10q2 2 12.5 11.5t18.5 9.5l18 -10 q2 -12 -2 -41q-4 -12 -22 -23q-27 -14 -29 -16q-35 -33 -72 -68q-28 -22 -94 -22h-6l4 -2q-2 0 -8 -2h-8q-41 0 -47 32.5t-9.5 65.5t-17.5 45l-22 2q-20 2 -40 -16.5t-24 -38.5q-8 -6 -30.5 -7.5t-31 -4.5t-44.5 -31q-25 -20 -66 -21q-68 0 -49 2q-31 16 -33 53z" />
<glyph unicode="v" horiz-adv-x="444" d="M-88 446q-1 12 -1 24q0 32 8 63q11 42 48 80t49 73l95 25l12 10q23 2 63 4l17 10q18 4 53 4t54.5 -13t39.5 -13q18 0 50 13t53 13l8 2q16 16 60.5 44t58.5 28l2 -2q32 0 32 -39q0 -16 -8 -59l-2 -11l6 -10q1 -9 1 -17q0 -43 -25 -79q-14 -8 -41 -29q-16 -25 -66 -67 q-18 -35 -65 -101q-12 -6 -37 -24q-6 -14 -23 -39q-18 -14 -51 -49q-16 -29 -33 -56q-25 -23 -49 -45q-14 -31 -61 -80q-2 -12 -15 -34q-4 -6 -15 -12.5t-15 -12.5q-6 -18 -21 -41l-61 -49l-25 -4q-4 6 -16 14q10 31 35 96l12 11q14 47 35 119q8 25 4 51q-2 12 3 24.5 t5 16.5q0 10 -10 22q0 84 10 121q18 47 45 141l2 17q-25 12 -27 12q2 0 -34 -12l-15 2q-6 0 -24 -47q-10 -6 -31 -56q-6 -12 -6 -16q-66 -25 -62 -25zM174 297v-21q0 -47 8 -47q27 0 80 80q49 70 57 103q4 18 54.5 57t68.5 104q2 8 2 17q0 12 -11 38.5t-11 47.5 q-29 2 -82 18q-47 -33 -102 -92q0 -12 -5 -41l-4 -10l-12 -10q-2 -14 -12 -45q-8 -16 -23 -50q3 -6 3 -23t-3 -46q-4 -18 -8 -80z" />
<glyph unicode="w" horiz-adv-x="1005" d="M-59 131q20 43 30 55q20 33 45 41v9h7q59 59 116 133q14 16 23 49q14 49 14 50t19 30q12 18 12 32q0 10 -2 35t-2 37l-49 4q0 41 12 101q10 6 29.5 21t64.5 46q39 7 113 27v2q31 0 31 -37q0 -7 -1 -16v-60q2 -18 -10 -30.5t-24 -22.5q-20 -25 -32.5 -55.5t-23.5 -59.5 q-12 -10 -30 -39q0 -25 -15 -71q-16 -16 -47 -54q-6 -29 -31 -84q-18 -27 -36 -51q-27 -41 -27 -55q0 -10 27 -51q113 29 161 67q14 14 45 43q20 6 56 27q84 66 100 90q10 16 14.5 50t10.5 48q2 6 18 23q10 12 10 27q0 16 -15 42.5t-15 43.5q0 12 28 53q49 72 70 92 q33 31 106 61l7 -8q6 -8 6 -26q0 -31 -28 -73t-28 -65.5t-18 -43t-23 -31.5q-2 -23 -14 -68q-6 -12 -28.5 -30.5t-30.5 -32.5q-2 -20 -15 -60q-8 -10 -22 -29q-6 -8 -29 -90l-2 2v-8q14 -43 31 -43q6 0 53 17.5t51 21.5q10 14 33 39q37 16 100 66q10 27 39 75h9l59 68 q20 106 45 223q8 12 31.5 21.5t31.5 15.5q10 39 62 39l12 -2q6 -14 6 -33q0 -27 -16 -63q-18 -49 -23 -64q0 -25 -14 -65q-25 -14 -43 -53.5t-18 -69.5q0 -18 -23 -35q-31 -25 -35 -29q-10 -12 -37 -119q-8 -16 -8 -28q0 -10 41 -19l-2 -2h4q37 4 56 25l18 -2q-4 -29 -6 -55 q-8 -25 -41 -29q-20 -2 -78 -45q-68 -49 -84 -58h-4q-39 0 -39 58q0 51 14 65l-6 15l2 4l-10 8q-4 2 -13 4t-14 2q-37 0 -55 -10q-8 -10 -27.5 -29.5t-54.5 -42.5q-47 -29 -58 -39t-38 -28q-12 -6 -45 -11q-51 0 -58.5 54.5t-31.5 54.5q-23 0 -35 -21q-18 -27 -27 -32 q-23 -6 -65 -21q-12 -6 -55 -41q-32 -26 -60 -26h-2q-53 0 -57 65q-6 82 -21 94q-23 -6 -67 -24z" />
<glyph unicode="x" horiz-adv-x="866" d="M-180 16q-4 9 -4 19.5t4 23.5q20 59 57 107q47 55 96 55q8 0 31 10.5t32 12.5t30.5 2t61.5 25.5t56 29.5q23 23 60 53q10 2 28 8q23 18 39 72q2 25 6 76q2 70 2 68q-2 27 -30 47q-16 14 -36 28.5t-44 14.5q-76 0 -105 -93q-6 -18 -29.5 -41.5t-39.5 -23.5q-18 0 -18 21 q0 14 8 38q18 51 32 66q10 6 31 20q45 47 92 93q64 59 103 59h2q14 0 26 -10q20 -16 23 -17q20 0 55 -10q8 -4 15.5 -22.5t14.5 -22.5t23 -16q0 -2 17 -54q8 -32 47 -32h2q57 0 123.5 74.5t97.5 74.5q33 0 60.5 -41t27.5 -84q0 -33 -21.5 -57.5t-54.5 -24.5l-12 2 q-18 33 -84 33q-37 0 -94 -29q-66 -31 -74 -65q-14 -31 -35 -94q1 -9 1 -20q0 -38 -11 -105l-2 -13l37 -129l-2 -6q12 -6 16 -4q45 0 123 79t90 79q16 0 8 -27q-23 -66 -121 -152.5t-104 -105.5q-37 0 -76 -20q-27 0 -48 17.5t-21 41.5q0 10 2 19q4 14 0 24q-6 14 -6 19 q4 23 2 63q-2 10 -14.5 32.5t-12.5 39.5q0 6 3 33.5t1 39.5q-2 18 -14 17l-23 -2q-23 -14 -59 -51q-6 -10 -18 -27q-14 -6 -43 -25q-14 -20 -48 -59q-10 -6 -30 -27q-4 -6 -10.5 -20t-14.5 -22.5t-32.5 -17.5t-29.5 -13t-24 -29q-12 -14 -27 -14h-4q-10 0 -36.5 -14.5 t-40.5 -14.5q-23 0 -33 18z" />
<glyph unicode="y" horiz-adv-x="782" d="M-754 -1020q0 20 6 43q86 53 189 53q14 0 35 13h6q8 0 25.5 -6.5t27.5 -4.5q14 0 131 33t137 41q14 14 52 37q37 6 104 39l-2 10q14 8 41 50t29 58.5t27.5 39t29.5 32.5q16 51 55 138q12 8 29 28q0 20 10 56q20 12 51 49q2 27 11 82q14 14 36 49q0 14 5 47q8 14 24 45 q6 35 31 100l16 21q6 6 6 26q0 14 9.5 25.5t11.5 17.5q2 14 12 39l-43 -12q-53 -14 -59 -55q-8 -6 -30.5 -7t-31 -4.5t-45.5 -31.5q-27 -20 -67 -21q-63 0 -47 2q-31 16 -35 54q0 8 51 104q49 92 49 128q0 13 17.5 43t15.5 60q-2 16 9 25.5t11 15.5v15q-23 14 -33 25 q-12 14 -12 34q0 24 23 62q12 20 184 192q4 10 14 23q10 2 27 4q41 -31 45 -76v-7q0 -41 -45 -73q-44 -31 -44 -77q0 -5 1 -11q2 -27 -14 -49q-29 -39 -29 -41q-2 -25 -16 -76q-25 -16 -56 -57v-45q0 -14 2 -21q-33 -33 -30 -55l6 -31h4l12 -4q6 0 18.5 5t20.5 3 q6 0 20.5 -5t22.5 -5l8 2q66 78 111 98q6 14 20 41q23 16 58 54q0 29 12 88q10 27 29 47q10 10 10 33q0 16 -4 53q-2 29 4 45l33 33q20 41 43 79q33 61 51 62q23 0 54.5 -32t35.5 -54q0 -2 -37 -61q-35 -57 -35 -80q0 -6 -36 -58q-33 -48 -33 -91v-9q2 -16 -5.5 -21.5 t-15.5 -11.5q-31 -37 -49 -65q-2 -23 -14 -66q-8 -6 -25 -27q0 -14 -29.5 -67.5t-31.5 -61.5q-2 -18 -10 -55q-10 -12 -29 -39q-2 -20 -12 -55q-6 -10 -19 -33q-8 -37 -26 -108q-14 -25 -33 -76q-2 -12 -6 -35q-18 -20 -54 -66q-2 -20 -12 -59q-18 -27 -47 -88q0 -25 -8 -68 q-6 -14 -29.5 -33.5t-30.5 -33.5q-2 -23 -16 -66q-14 -10 -45 -35q-12 -20 -39 -59q-25 -16 -68 -53q-4 -27 -28 -66q-18 -4 -49 -20q-2 -12 -13 -37q-2 2 -4 0t0 -4q-23 -14 -53.5 -52t-32.5 -38q-10 -6 -51 -10q-31 -4 -43 -31h-10q-39 -57 -105.5 -94t-134.5 -37 q-63 0 -112 67q-2 2 -37 11q-25 6 -25 22q0 8 6 21q-2 6 -26 45q-12 20 -13 63z" />
<glyph unicode="z" horiz-adv-x="526" d="M-1458 -1247q0 15 41 67q39 50 52 50h1q25 -6 47 -7q47 0 80 21l33 22h86q47 0 69.5 10.5t65.5 10.5q18 0 44 16.5t38 17.5t37 7l10 8q12 -2 37 -2l61 12l8 10q-10 0 56 -8q25 0 55.5 32t83.5 32q23 0 69 34.5t58 57.5q6 2 37 2l18 2l-2 4q43 20 68.5 52t50.5 65 q8 6 23 22q0 10 8 31q10 2 26.5 9t37 40t30.5 41q10 25 27 64q8 10 22 30q2 16 10 50q12 23 50 43q20 10 20 73q0 35 47 82q4 8 -2 35q0 12 23 76q25 72 28 86l17 16q4 25 14 64q2 4 13.5 16t9.5 23v14q-20 10 -35 12q-10 2 -27 0q-23 -2 -35 -2q-39 0 -39 29q0 27 47 61 q43 29 76 37q10 6 17.5 24.5t9.5 22.5q12 18 61 54q43 31 56 61q2 12 8 37q25 16 49 65q0 2 -19 31q-18 6 -24 6q-8 0 -16 -6q-12 -12 -15 -12q-55 -29 -90 -64q-41 -39 -51 -45q-25 -4 -72 -14q-2 0 -67 -27l-2 17q0 18 27.5 33.5t31.5 19.5q4 25 22 70q8 14 35 25t35 20 q37 41 72 79q45 49 84 72q18 4 53 15q37 25 123 59l39 22q14 29 31 58q30 51 63 51q43 0 43 -53l-2 -17l-8 -12q-12 -78 -27 -102q-31 -41 -59 -82l-8 -4q-8 -33 -33 -97q-8 -16 -51 -49q-35 -29 -41 -55q-2 -12 -20.5 -30.5t-22.5 -31.5q-8 -27 -25.5 -44t-24.5 -29 q-2 -18 -12 -51q-18 -12 -45 -43q-39 -76 -41 -160q0 -16 -21.5 -41t-21.5 -44.5t-26 -64.5q-18 -12 -21 -26q2 14 2 -33q0 -14 -13.5 -34.5t-15.5 -29.5q0 -16 -4 -47q-6 -20 -45 -53q-31 -25 -30 -88v-14l-11 -13l2 -22q0 -8 -11 -16.5t-13 -12.5q0 -18 -12 -53 q-4 -6 -27 -20.5t-23 -28.5v-17l33 -16q4 4 10.5 14.5t10.5 14.5t15 5t15 5l11 20q12 2 34 17q8 20 37 53q16 4 45 21v10q18 14 32.5 40.5t28 34t42.5 21.5q12 8 23.5 32.5t16.5 31t33 26.5q20 12 21 31q0 8 -4 24l8 9v2h6q4 2 6 2q31 0 31 -25q0 -33 -37 -82 q-29 -39 -59 -76q-4 -6 -39 -28q-25 -16 -25 -41q0 -4 2 -15.5t2 -17.5q0 -16 -16 -26.5t-33 -18.5q-16 -27 -57 -72q-47 -35 -121 -100q-14 -33 -49 -80q-20 -14 -76.5 -37.5t-77.5 -40.5q-18 -27 -53 -61q-37 -14 -100 -49q-8 -12 -25 -33q-12 -2 -35 -27 q-12 -8 -40.5 -13t-41.5 -13l-10 -13q-10 -2 -31 -10q-10 -10 -32 -26q-25 -2 -70 -21q-18 -18 -59 -45q-27 -4 -82 -16q-20 -10 -66 -25q-33 -6 -94 -18l-10 -9q-14 2 -45 2h-6q-27 0 -77 -15q-54 -17 -85 -17q-92 -25 -133 -25q-14 0 -46 6t-57 6q-16 0 -37.5 20.5 t-21.5 39.5z" />
<glyph unicode="{" horiz-adv-x="978" d="M-164 -98q8 -8 23 -25q23 -49 90 -141q14 -8 41 -25q12 -23 49 -65q45 -35 141 -62q63 -18 121 -18q12 0 39 5t41 5q6 0 22.5 -2t24.5 -2q14 6 43 18h-139q-72 2 -135 19q-82 23 -111 53q-2 6 -10 21q-23 12 -60 43q-4 12 -16 36q-27 20 -59 64q2 12 4 35q0 6 -9.5 22.5 t-7.5 24.5q6 14 17 43q-2 14 0 43q14 18 35 59q2 23 24 66q14 14 27.5 24.5t20.5 48t22 54.5q43 49 78 69q14 6 14 35q0 18 10 39q16 12 39 37q8 14 23 25q2 4 9 10t11 31q0 -8 12 16q0 10 -3 19.5t-3 11.5q0 12 29 32q4 2 4 9q0 4 -7 12t-7 12q0 6 8 16.5t8 14.5 q0 31 -33 67q10 0 29 7q27 23 37 71q2 18 2 39l-23 6q59 37 82 68q0 10 6 31q2 4 19.5 15t13.5 15q-10 14 -10 23q0 8 12 19.5t19 21.5q0 6 2 20q16 20 12 27q-2 2 0 6q0 4 -3 9t-1 22q2 6 -7.5 18.5t-9.5 18.5q8 25 19 39q16 23 16 28q0 -2 -12 15.5t-18 58.5q-2 14 17 52 t15 52q-2 8 -8 27q-4 12 6 33q8 14 17 31q0 20 6 61q14 14 35 43q2 14 12 41q18 14 49 45q4 12 23 37q37 23 108 63q12 14 43 39q31 14 88 43q8 8 25 19q51 31 149 53q76 16 150 18h139q-4 8 -27 19q-8 2 -27.5 -1t-25.5 -3q-12 0 -35.5 5t-38.5 5q-53 0 -131 -18 q-113 -27 -188 -64q-31 -20 -96 -61q-18 -8 -56 -27q-45 -25 -102 -70q-76 -59 -92.5 -68t-42.5 -28q-6 -6 -47 -76q-16 -18 -31 -34q-23 -27 -20 -35q0 -2 2 -2v-4q2 -4 -7.5 -13.5t-9.5 -11.5q0 -14 -4 -45q0 -2 -10 -21q-6 -10 -4 -20q4 -6 8 -18q2 -8 -6 -20.5t-8 -16.5 q4 -14 2 -45q0 -4 -8.5 -18.5t-6.5 -20.5q2 -2 5.5 -8.5t3.5 -10.5v-2q2 -10 -5 -35q-8 -31 -8 -34q4 -25 -8 -82q-2 -20 -25 -56q-4 -8 4.5 -21t8.5 -20q0 -8 -7.5 -16t-41.5 -63q-4 -8 -40 -50.5t-36 -44.5q-8 -8 -11 -12l-4.5 -6t-1.5 -6l5 -13q6 -39 8 -96 q-2 -25 -13 -63q2 -4 5 -8q0 -8 -23 -23.5t-25 -24.5q10 -12 -12 -53q-31 -59 -53 -84q-12 -27 -39 -69q-8 -6 -20 -19q-4 -14 -17 -39q-14 -14 -33 -45q0 -12 -16 -39q-8 -6 -18.5 -16t-11.5 -23.5t-3 -17.5q-12 -14 -31 -45q2 -10 -2 -29q-2 0 -5 -2t-3 -4q-6 -6 -2 -33 q4 -31 4 -35q-8 -72 -6 -75z" />
<glyph unicode="|" horiz-adv-x="851" d="M2 -299q0 -8 62.5 83t80.5 167q4 18 0 49t-2 45q4 20 30 53t30 52q-2 23 2 67q8 18 20 57v5q6 29 19 112q-8 0 16.5 55.5t58.5 85.5q6 4 5 17q-4 16 -2 20q0 4 28 41l4 11q0 18 2 53l4 16q29 29 40.5 67t19.5 77q6 29 32.5 81t30.5 87.5t17 101.5q51 158 108 235 q2 10 13 31q6 6 26.5 12.5t22.5 21.5t6 48q10 47 49 76l68 51q10 18 32 51q41 27 121 76l25 -6q-29 -49 -86.5 -100.5t-65.5 -71t-24 -62.5q-18 -20 -43 -65q2 -16 -2 -47l-5 -13q-27 -25 -28 -32q-4 -20 -8 -39q-10 -14 -31 -43q-53 -98 -88 -248q0 -41 -12 -119 q-10 -20 -27 -63q2 -18 2 -56q-4 -16 -22.5 -38.5t-22.5 -32.5q-47 -104 -53 -191q2 -31 -4 -92l-5 -10h-6q-8 -16 -24 -47q-8 -63 -23 -101q-16 -51 -35 -100l4 -88q-16 -20 -34.5 -71.5t-32.5 -71.5l-14 -4q-47 -47 -58 -70q-4 -8 -22 -84q-2 -8 -8 -23l-15 -6 q-31 -31 -59 -61q-4 -2 -96 -19q-23 55 -21 70zM881 1923q8 10 90 43h16q8 -2 27.5 -12t36.5 -10q16 0 47.5 7t48.5 7q35 0 58.5 -24.5t15.5 -59.5h-2q-6 -31 -44 -48.5t-71 -33.5q-14 -35 -107 -70l-10 13q0 12 2 18q4 18 28.5 60t39.5 45l-2 22q-45 4 -131 21 q-49 12 -43 22z" />
<glyph unicode="}" horiz-adv-x="978" d="M-328 -410h140q74 2 149 19q98 23 150 53q8 6 24 21q31 14 90 43q12 12 43 36q41 20 107 64q6 12 20 35q20 14 51 47q2 14 13 43q14 14 37 43q0 20 4 59q8 16 17 34.5t5 31.5q-2 8 -8 22q-4 14 15.5 52t17.5 53q-6 41 -18.5 59.5t-12.5 16.5q0 4 16 28q10 14 19 39 q2 6 -7 18.5t-9 18.5q4 16 -3 25q-2 2 0 6q0 4 -2 6q-2 4 13 29q0 6 4 16t16 22.5t12 18.5q0 8 -8 22q-4 6 14.5 18.5t20.5 14.5q-2 10 4 31q18 29 80 67q-10 0 -22 7q-2 6 -2 12q0 25 21.5 64.5t21.5 36.5t26 3q-35 39 -31 68q0 6 8.5 16.5t8.5 14.5t-7.5 12t-7.5 12t5 6 q29 20 28 33q0 2 -3 11.5t-1 19.5q0 4 6 10t6 10q0 23 4.5 27t15.5 13t19 24q16 12 39 37q10 20 10 39q0 29 15 34q35 18 78 68q12 14 20 52t23 52q10 8 26 27q12 12 19 31q6 31 8 33q14 20 33 61v43q8 12 16 41q2 8 -7 23.5t-9 21.5q4 12 4 37q-4 14 -27 33q-31 29 -33 30 q-2 14 -16 39q-20 14 -57 43q-2 8 -11 19q-29 31 -110 53q-63 16 -135 18h-142q12 8 45 19q8 0 24.5 -2t25.5 -2q14 0 39.5 5t37.5 5q147 0 260 -82q16 -20 52 -61q14 -8 39 -27q27 -25 49 -70q31 -57 41 -71q10 -6 18 -22.5t4 -39.5q-4 -35 -4 -39q6 -29 0 -69l-3 -2t-5 -4 q0 -10 -2 -25q-10 -14 -31 -45q2 -12 -12 -41q-8 -6 -21 -18q-2 -12 -14 -37q-12 -16 -35 -45q-2 -14 -16 -39q-2 -2 -9.5 -8.5t-11.5 -10.5v-2q-14 -27 -36 -69q-2 -2 -56 -82q-20 -43 -12 -56q-2 -8 -24.5 -23.5t-22.5 -23.5q2 -6 4 -8q-2 -25 -10 -65q6 -45 6 -95 q4 -8 4 -12v-6q0 -4 -6 -8t-8 -9.5t-38 -47.5t-40 -50q-14 -25 -37 -63q-10 -6 -10 -15q0 -6 8 -19t4 -22q-14 -10 -27 -53q-10 -68 -6 -84q0 -4 -8 -32.5t-6 -36.5q6 -20 6 -19q2 -6 -5 -20.5t-7 -18.5q-2 -8 1 -23.5t3 -21.5t-8.5 -18.5t-6.5 -20.5q6 -20 7 -18 q2 -8 -5.5 -20.5t-7.5 -18.5q2 -14 -4 -45q0 -4 -9 -14.5t-7 -14.5q0 -2 2 -2v-4q2 -6 -23 -33q-29 -33 -30 -35q-12 -25 -50 -75q-14 -8 -38 -25q-59 -49 -195 -141q-20 -8 -55 -25q-31 -23 -99 -65q-70 -35 -186 -62q-78 -18 -131 -18q-14 0 -37.5 5t-36.5 5 q-6 0 -24.5 -2t-26.5 -2q-10 6 -31 18z" />
<glyph unicode="~" horiz-adv-x="948" d="M41 1776q4 117 109 247l14 -6q-8 -78 -8 -114q0 -47 2 -58.5t39 -32.5q31 -16 69 -16q68 0 234 76q43 23 129 65q12 6 35 17q23 -2 73 4q92 27 90 27q18 0 32.5 -11.5t37.5 -93.5q6 -20 10 -59l19 -49l-56 -70q-25 -12 -41 -12q-20 0 -20 24q2 55 -21.5 102.5t-52.5 49.5 q-10 0 -26.5 -8.5t-24.5 -8.5q-10 0 -27.5 7.5t-27.5 7.5q-18 0 -54 -27q-43 -35 -54 -40t-23.5 -2t-22.5 -1q-18 -12 -53 -37q-39 -8 -100 -41q-12 -12 -37 -30q-31 -14 -60 -9q-2 0 -14 13q-4 6 -27 -4q-61 -29 -59 -29q-6 0 -13.5 8t-15.5 10q-10 -2 -26 0 q-31 18 -29 101z" />
<glyph unicode="&#xa1;" horiz-adv-x="962" d="M170 -20h2q-2 12 11.5 31.5t15.5 29.5q-4 18 -2 57q4 16 22.5 39t22.5 33q43 94 51 182q-2 33 6 99l4 12l6 -2l25 49q6 39 55 199l-2 90q16 20 34.5 70.5t33.5 70.5l14 6q47 47 57 70q4 8 23 84q4 8 8 22l14 6q31 31 60 62q4 2 96 16q23 -53 18 -67q0 8 -61 -80 q-63 -94 -80 -172q-4 -20 0 -49q4 -31 2 -43q-4 -20 -29.5 -54t-26.5 -54.5t-5 -65.5q-8 -18 -21 -56v-4q-6 -29 -18 -112q8 0 -16.5 -55.5t-59.5 -88.5q-6 -4 -4 -16q4 -16 2 -21q0 -4 -29 -41l-4 -8q-2 -8 0 -26q0 -18 -2 -29l-6 -14q-27 -25 -37 -68q-14 -61 -20 -74.5 t-49 -40t-74 -26.5q-35 0 -37 39zM743 1397l7 -2l-2 2q14 -39 51 -39q10 0 24 6v2q53 20 74 43q14 23 29 45q23 27 61 80l8 8q-2 20 0 53q2 6 -6 47q-8 27 -59 27q-6 0 -12 -2q-72 -29 -89 -43q-6 -12 -15 -21.5t-28 -23.5q-23 -23 -20 -49q6 -39 2 -47q-6 -14 -23 -37 q-6 -10 -2 -49z" />
<glyph unicode="&#xa2;" horiz-adv-x="534" d="M-12 201q0 16 10 39.5t10 39t19 44.5l4 6q8 8 8 14q0 -14 -8 35q0 25 28.5 47.5t29.5 31.5t9 31q6 12 25.5 25.5t26.5 20.5q25 37 79 86l7 4q6 2 20 22.5t47 28.5q8 2 23 6q10 20 24 55q2 0 8 15q27 55 62 112l53 4l14 -30v-41v-15q-2 -8 -2 -14l-2 -4l-4 -31 q-4 -35 -18 -51q47 -23 47 -80v-10q-39 -41 -43 -45q-25 -16 -64 -17q-12 0 -37.5 -4t-37.5 -4l-9 -2q-25 -8 -65 -33q-2 -8 -12.5 -22t-36.5 -47q-14 -14 -35 -43l-2 -6q-2 -6 -10 -25l-17 -10q0 -27 -18 -72q0 -55 4 -59t63 -4q2 0 9 2l6 6q29 6 76 41q12 18 34 26 q6 2 13 9l4 6q10 16 24 16h6l33 8q-10 -18 -28 -75q-8 -41 -19 -52q-33 -41 -102 -61q-43 -12 -47 -41l-2 -4l-5 -29q-6 -41 -22 -59q-31 -35 -35 -41q0 -20 -35 -64q-10 -23 -61 -6q-2 0 -6 2q-31 8 -31 33q0 14 18 55q2 4 13 19q6 8 30 63q10 0 15 27q-37 10 -62.5 46 t-25.5 75z" />
<glyph unicode="&#xa3;" horiz-adv-x="1161" d="M-2 -467l4 23q23 14 117 53q74 33 108 67q23 23 47 64q35 55 43 67q43 55 119 170q10 16 99 238q23 45 51 143q4 31 2 48q-6 33 -133 32q-98 0 -246 -18l-2 26q147 55 270 54q10 0 37 -2t41 -2q33 0 46 10t28 22l6 2q8 12 16 54q4 29 31 73q33 59 38 79t19 65 q23 43 64 129q6 25 26 74q16 16 43 49q6 25 27 67q23 29 62 88q6 20 22 56l14 6q10 23 39 61q23 14 64 47q49 55 162 152q31 10 84 41q8 10 22 24q20 6 59 23q47 31 146 80q20 4 61 14q18 14 54 37q51 10 153 39q10 8 31.5 19.5t60.5 13.5q51 6 64 8q29 12 84 29h18 q23 0 58.5 -10.5t50.5 -12.5q49 -6 103 -11t91 -22q18 -8 37 -30l31 -37q25 -20 61 -70q6 -27 21 -82q12 -14 26 -47q6 -31 -2 -80q-10 -68 -59 -151l-49 -7q0 2 4 9q0 2 -10 6q33 98 32 203q0 82 -26 131q-20 18 -58 53q-6 16 -28 43q-76 53 -244 53q-211 0 -422 -82 q-18 -14 -59 -35q-25 -4 -74 -20q-25 -20 -76 -55q-14 -2 -43 -13q-12 -14 -43 -41q-25 -10 -71 -34q-20 -25 -68 -70q-12 -4 -33.5 -21.5t-44.5 -60.5q-25 -49 -39 -66q-25 -23 -65 -75q-6 -14 -13.5 -42t-13.5 -40q-10 -23 -46 -63t-47 -68.5t-24.5 -93t-27.5 -95.5 q-16 -20 -45 -61q-14 -29 -26.5 -87.5t-25.5 -84.5q-12 -16 -28 -39v-17q2 -8 4 -4l-2 -14q33 -10 86 -12l88 -6v-37q-68 -37 -70 -37q-14 -6 -75 -4q-41 0 -56 -15q-2 -2 -10 -24q-20 -25 -51 -76q-2 -27 -10 -76q-4 -25 -23 -53q-27 -41 -31 -49q-12 -39 -47 -115 q-16 -14 -49 -49q-20 -33 -59 -100q-37 -55 -105 -170q10 -10 19.5 -20.5t36.5 -10.5q16 0 48.5 5t49.5 5q23 0 69 -10t70 -10q16 0 47 8t43 10q39 4 232 8q59 2 92 0q12 0 41.5 -3t46.5 -3q25 8 78 21q-12 -2 67 -2q23 0 52.5 14t41.5 16q43 6 84 11q53 6 84 24 q18 10 49 45t32 50.5t3 41.5q0 8 4.5 15.5t74 42.5t79.5 35h31q2 -12 2 -35q-2 -8 -20.5 -23.5t-22.5 -44.5q-4 -18 -17.5 -28.5t-27.5 -18.5q-12 -18 -42 -44t-74 -42t-85 -31q-29 -16 -88 -45q-135 -51 -238 -53q-14 0 -40.5 2t-38.5 2q-16 0 -50 -7t-53 -7q-6 0 -22.5 4 t-24.5 2l-6 2q-41 -20 -115 -23q-33 0 -96.5 4.5t-91.5 4.5q-16 0 -51 -3t-52 -3q-80 0 -237 4q-18 4 -60 10q-39 0 -92 -31q-63 -39 -82.5 -43t-56.5 -10q-45 -14 -37 -14h-2q-8 0 -49 20z" />
<glyph unicode="&#xa4;" horiz-adv-x="528" d="M55 1231q0 4 11.5 35.5t13.5 35t8 7.5t7 9t6 15t20 25q2 8 8 24q8 10 25 29q0 8 9 18.5t30 24.5q25 23 71 57q14 6 37 17q47 51 82 51h2q8 0 27.5 -2t29.5 -2q23 0 31 -25q2 -18 4 -37l8 -8q4 -8 0 -18q0 -12 -7 -36t-7 -40q0 -23 -29 -49q-6 -12 -18 -31q-4 -4 -11 -7 t-10 -5q-2 -10 -12 -33q-14 -8 -41 -26q-98 -94 -182 -95q-27 0 -71 24.5t-42 41.5zM143 1262q0 -10 21.5 -26.5t36.5 -16.5q53 0 69 20q8 14 17 29q4 2 12 4t10 4q23 12 29 39q8 35 14 42t27 27q6 6 14 46l-4 4l-2 -2q0 29 0 26q-2 15 -27 15h2q-43 0 -57 -14.5t-29 -31.5 q-23 -14 -63 -51l-8 -2q-4 -18 -19 -51q-43 -63 -43 -61z" />
<glyph unicode="&#xa5;" horiz-adv-x="2592" d="M53 -70q0 2 4 101q2 35 8.5 60.5t37 60t38.5 49.5q6 25 21 69q16 18 47 62q12 41 55 110q29 18 82 60q20 23 44 50.5t44 29.5q59 8 82 35.5t43 29.5h55v2q-2 2 -2 8l4 -10q4 2 5 6q35 6 108 19q35 4 75 -12.5t58 -14.5q100 12 156 -37q12 -25 45 -67q8 -8 49 -27 q27 -10 31 -47q14 -35 35 -107q2 -20 -7 -30q-12 -16 -14 -23q-2 -16 -6 -47q-10 -37 -57 -108q-53 -80 -80 -84q-16 -2 -48 -30t-53 -30q-47 4 -135 0q-18 -2 -35 -2q-135 0 -157 158q-4 25 -4 43q0 41 26 63q47 43 58 60l8 4q33 12 90 26q16 2 54 -19.5t65 -16.5 q10 -16 22 -50q2 -25 -17.5 -66.5t-15.5 -64.5q8 -55 82 -47l21 6l8 13q76 43 87 57t26 92q2 10 16 49q10 23 4 60q-6 49 -22 78q-6 12 -26.5 24t-27.5 21q-8 31 -47 71q-20 -4 -36.5 6.5t-28.5 8.5q-35 -4 -64 10q-8 0 -36.5 -8.5t-96.5 -18.5q-23 -4 -60.5 14.5 t-60.5 14.5q-31 -4 -57.5 -39t-41.5 -36t-46 -7q-35 -39 -107 -94q-29 -6 -79 -29q-8 -6 -44 -65.5t-40 -71.5l-5 -2q0 -23 -4 -66q-14 -25 -43 -73q-6 -14 -21.5 -86t-12.5 -82q14 -41 38 -127q4 -23 25 -54q16 -23 10 -36l-2 -2q8 -6 19 -21q41 -51 82 -100 q53 -57 106 -70q25 0 74 -8q6 -2 37 -19q23 -10 43 -8q35 4 75 2q43 -4 66 -2q47 14 143 35q45 6 94.5 25.5t71.5 23.5q33 0 99 4q33 6 55 33q14 2 39 12q10 14 39 37q16 8 50 13.5t46 14.5t34.5 30.5t78 54.5t79.5 53q8 14 31 35q25 6 70 27q35 20 117.5 96t101.5 104 q39 66 94 119q43 39 80 129v-2q35 63 96 193q18 43 25 75q2 16 -4 34t-6 28q0 16 12 39.5t33 70.5l4 9l-6 24l4 12q12 39 51 74q47 45 59 64q8 10 58 122q20 45 57 84q51 53 63 72q6 12 19 35q6 14 29.5 35.5t29.5 27.5q8 16 29 50q16 12 41 32q16 20 27 58q14 31 36 51 q33 29 43 41q8 20 33 57q23 14 62 47q33 39 125 117q8 -2 30 -25q14 -25 4 -51q-2 -6 -57 -73q-41 -57 -125 -172q-8 -12 -106 -125q-70 -82 -88 -121q-6 -18 -19 -53q-8 -18 -27 -37q-25 -23 -30.5 -32t-24.5 -52q-14 -35 -45 -101.5t-88 -191.5q-25 -57 -33 -92 q2 -18 0 -58q-18 -80 -65 -184q-96 -215 -332 -442q-131 -125 -444 -291q-2 -6 -7.5 -14.5t-98.5 -70t-99 -63.5q-29 0 -86 -6l-27 -16q-4 -10 -18 -25q-88 -53 -107 -55q-37 -6 -75.5 -24.5t-51.5 -20.5q-29 4 -86 4q-12 -2 -37.5 -11t-40.5 -9h-14l-20 8l-11 -2 q-23 -2 -65.5 -21.5t-65.5 -19.5h-6q-18 10 -55 22q-37 -4 -55 -4q-51 0 -78 14q-39 18 -56 23q-2 0 -65 6q-39 4 -57.5 18.5t-30.5 49.5q-14 47 -21 57q-18 27 -34.5 56.5t-10.5 66.5l2 14q-10 10 -12 23q2 20 0 61q-10 29 -27 90q-10 72 -6 86zM1184 356q0 55 106 197 q39 39 103 133q6 16 19 51t34.5 51.5t44.5 34.5q25 37 80 109q16 14 41 41q10 18 18 28q8 33 33 105q16 39 70.5 112.5t70.5 112.5q14 47 49 139q12 29 31 48q27 27 35 38q45 63 78 134q2 6 -4 11t-6 11q-23 0 -70 -8q-12 -4 -51 -30.5t-56 -26.5q-14 0 -19 8t-7 8 q31 25 96 66q43 20 109 36q96 25 106 28t47 22q27 12 43 12h-2q35 0 35 -31q0 -14 -7 -33.5t-20 -33.5l-22 -19l-12 -18q-6 -14 -19 -47q-25 -55 -115 -187q-41 -47 -104 -143q-4 -23 -23 -70q-18 -18 -49 -57q-18 -33 -61 -101q-23 -25 -64 -75q-55 -76 -188 -336 q-29 -43 -78 -131q-8 -18 -8 -33q0 -37 47 -35q8 0 25 2l2 8q55 23 120 72q57 41 115 84q37 20 103 66q10 14 34 43q43 23 113 71q6 12 25 33l20 8l6 19q29 18 74 14l-4 -4q4 -4 4 -12q-6 -16 -33 -33q-37 -23 -41 -25q-35 -39 -114 -104q-23 -8 -72 -35q-6 -20 -21 -27 q-27 -12 -28 -14q-18 -23 -64 -68q-29 -25 -78 -51q-39 -23 -79 -45q-12 -12 -39 -33q-43 -14 -129 -49q-47 -27 -93 -55q-53 -31 -96 -31q-61 0 -61 45z" />
<glyph unicode="&#xa6;" />
<glyph unicode="&#xa7;" horiz-adv-x="2592" d="M55 -70q0 2 4 101q2 35 8.5 60.5t37 60t38.5 49.5q6 25 21 69q16 18 47 62q12 41 55 110q29 18 82 60q20 23 44 50.5t44 29.5q59 8 82 35.5t43 29.5h55v2q-2 2 -2 8l4 -10q4 2 5 6q35 6 108 19q35 4 75 -12.5t58 -14.5q100 12 156 -37q12 -25 45 -67q8 -8 49 -27 q27 -10 31 -47q14 -35 35 -107q2 -20 -6 -30q-12 -16 -15 -23q-2 -16 -6 -47q-10 -37 -57 -108q-53 -80 -80 -84q-16 -2 -48 -30t-53 -30q-47 4 -135 0q-18 -2 -35 -2q-135 0 -157 158q-4 25 -4 43q0 41 26 63q47 43 58 60l8 4q33 12 90 26q16 2 54 -19.5t65 -16.5 q10 -16 22 -50q2 -25 -17.5 -66.5t-15.5 -64.5q8 -55 82 -47l21 6l8 13q76 43 87 57t26 92q2 10 16 49q10 23 4 60q-6 49 -22 78q-6 12 -26.5 24t-27.5 21q-8 31 -47 71q-20 -4 -36.5 6.5t-28.5 8.5q-35 -4 -64 10q-8 0 -36.5 -8.5t-96.5 -18.5q-23 -4 -60.5 14.5 t-60.5 14.5q-31 -4 -57.5 -39t-41.5 -36t-46 -7q-35 -39 -107 -94q-29 -6 -79 -29q-8 -6 -44 -65.5t-40 -71.5l-4 -2q0 -23 -5 -66q-14 -25 -43 -73q-6 -14 -21 -86t-13 -82q14 -41 39 -127q4 -23 24 -54q16 -23 10 -36l-2 -2q8 -6 19 -21q41 -51 82 -100q53 -57 106 -70 q25 0 74 -8q6 -2 37 -19q23 -10 43 -8q35 4 75 2q43 -4 66 -2q47 14 143 35q45 6 94.5 25.5t71.5 23.5q33 0 99 4q33 6 55 33q14 2 39 12q10 14 39 37q16 8 50 13.5t46 14.5t34.5 30.5t78 54.5t79.5 53q8 14 31 35q25 6 70 27q35 20 119 95t100 103q39 66 94 121 q41 39 80 129v-2q35 63 96 193q18 43 25 75q2 16 -4 34t-6 28q0 16 12 39.5t33 70.5l4 9l-6 24l4 12q12 39 51 74q47 45 59 64q8 10 58 122q20 45 57 84q51 53 64 72q6 12 18 35q6 14 29.5 35.5t29.5 27.5q8 16 29 50q16 12 41 32q16 20 27 58q14 31 36 51q33 29 43 41 q8 20 33 57q23 14 62 47q33 39 125 117q8 -2 30 -25q14 -25 4 -51q-2 -6 -57 -73q-41 -57 -125 -172q-8 -12 -106 -125q-70 -82 -88 -121q-6 -18 -19 -53q-8 -18 -26 -37q-25 -23 -31 -32t-25 -52q-14 -35 -45 -101.5t-88 -191.5q-25 -57 -33 -92q2 -18 0 -58 q-18 -80 -65 -184q-96 -215 -332 -442q-131 -125 -444 -291q-2 -6 -7.5 -14.5t-98.5 -70t-99 -63.5q-29 0 -86 -6l-27 -16q-4 -10 -18 -25q-88 -53 -107 -55q-37 -6 -75.5 -24.5t-51.5 -20.5q-29 4 -86 4q-12 -2 -37.5 -11t-40.5 -9h-14l-20 8l-11 -2q-23 -2 -65.5 -21.5 t-65.5 -19.5h-6q-18 10 -55 22q-37 -4 -55 -4q-51 0 -80 14q-37 18 -56 23l-63 6q-39 4 -57.5 18.5t-30.5 49.5q-14 47 -21 57q-18 27 -34.5 56.5t-10.5 66.5l2 14q-10 10 -12 23q2 20 0 61q-10 29 -27 90q-10 72 -6 86z" />
<glyph unicode="&#xa8;" horiz-adv-x="1028" d="M145 1792q-6 -16 9 -45q4 -10 29.5 -20.5t39.5 -4.5q72 29 88 43q6 10 15.5 20.5t27.5 22.5q23 23 21 50q-6 39 -2 47q6 14 22 39q8 8 4 49l-6 2v-4q-14 39 -51 39q-11 -1 -25 -7q-53 -20 -69.5 -43.5t-30.5 -46.5q-23 -25 -63 -80l-9 -6q2 -20 0 -55zM694 1792 q-6 -16 8 -45q8 -27 60 -27q6 0 12 2q72 29 88 43q6 10 15.5 20.5t27.5 22.5q23 23 21 50q-6 39 -2 47q4 12 22 39q6 8 2 49l-6 2v-4q-14 39 -49 39q-13 -1 -25 -7q-53 -20 -70.5 -43.5t-31.5 -46.5q-23 -25 -61 -80l-9 -6q2 -20 -2 -55z" />
<glyph unicode="&#xa9;" horiz-adv-x="1257" d="M88 424q-2 18 10.5 54t12.5 54l-2 9l-9 14l-2 12q-2 12 2 33t4 27q0 12 -5 35.5t-5 35.5q0 10 10.5 43t10.5 64q0 4 15 45t15 43q10 8 25 29q6 16 4 41l-4 41q0 4 39 83.5t46 87t26 23.5q8 33 32 90q29 25 76 82q10 25 35 72q29 41 82 74q8 2 26 8q10 6 28.5 35t53.5 49 l19 -4v-19q0 -16 -37 -43l-51 -35q-20 -16 -70.5 -90t-64.5 -104q-2 -18 -13 -58q-8 -8 -26 -28q-20 -47 -66 -137q-10 -8 -24 -29q0 -27 -11 -84q-8 -10 -22 -31q0 -10 -6 -33q-20 -20 -21 -47q0 -12 4 -38.5t4 -41.5q0 -16 -9 -57t-9 -78q0 -18 -6 -58t-6 -61q0 -18 7 -52 t7 -60q0 -16 12 -31q16 -23 19 -29q2 -20 16 -59t66 -74q45 -29 88 -55q10 -10 32 -22q14 -4 39 -5h11q25 0 36 -4q6 -2 37 -16q23 -10 41 -10q8 0 64.5 25.5t68.5 33.5q16 16 54 43q18 2 51 8v6q10 4 52 39t46 41q4 23 16.5 67t63.5 95q-2 -12 -2 35q0 14 24.5 39.5 t24.5 50.5q0 18 -17.5 47t-17.5 47v78q6 25 6 29q-14 20 -14 47q0 10 -11 22.5t-9 30.5q-8 12 -29 19q-27 6 -33 10q-53 6 -53 53q0 27 18 27q29 0 41 -21q18 -31 27 -37q20 -8 57 -28q47 -39 47 -121q0 -14 17.5 -44t17.5 -59v-86q-2 0 -6 -4q2 -2 8 -2h-8q2 -6 5 -20.5 t3 -22.5q0 -18 -20.5 -38.5t-20.5 -67.5q0 -16 -17 -38t-34 -40q-12 -25 -39 -72q-12 -16 -39 -33q-35 -20 -41 -24q-12 -16 -43 -43q-18 -6 -55 -25q-23 -27 -80 -69q-27 -10 -82 -12.5t-66.5 -8.5t-43.5 -16q-12 0 -37 7t-37 7q-8 0 -24.5 -3t-24.5 -3q-10 0 -21 8l-20 10 q-35 2 -96 23q-10 6 -20.5 26.5t-16.5 26.5q-23 12 -60 43q-4 25 -18 72q-10 12 -25.5 39.5t-50.5 85.5zM338 403q0 16 11 40t11 43.5t17.5 40t17.5 32.5q0 8 -5 21.5t-5 19.5q0 18 28.5 40t35.5 34q0 14 8 39q18 16 55 49q27 33 70 82q10 6 28 18q10 16 37 39q23 6 65 23.5 t36 17.5v2q4 0 26.5 -4t36.5 -4l12 -2l4 -10q23 -4 39.5 -28t16.5 -48v-4q-41 -43 -45 -45q-20 -16 -60 -17q-12 0 -39.5 -4t-44.5 -4l-14 -2q-29 -10 -76 -39q-4 -10 -12 -28q-37 -41 -84 -95q-2 -12 -12 -37l-25 -12q0 -2 -2 -45q-2 -31 -16 -39q0 -76 9 -86t83 -8 q10 6 35 18q23 6 65 27q6 12 27 33q12 4 33 14q25 25 22 25h8l2 2q-6 -47 -30 -107q-29 -4 -85.5 -37.5t-86.5 -33.5q-14 0 -36 -20.5t-50 -20.5q-45 0 -78 37.5t-33 82.5z" />
<glyph unicode="&#xaa;" horiz-adv-x="620" d="M-14 600q0 27 34 51q49 35 181 37q39 0 92 -8q16 -2 78 -21q49 -14 80 -14q27 0 49 8q18 23 45 21q16 0 22 10q14 18 19 23q39 35 123 32q35 -2 53 -4q39 -4 47 -16q2 -18 10 -57q-80 -66 -119 -66q-10 0 -26.5 3t-24.5 3q-20 0 -32.5 -14.5t-16.5 -16.5t-55 -2 q-14 0 -31 -6q-8 -14 -16 -18q-2 -12 -37 -37t-53 -25q-15 1 -13 17l2 -2q-6 12 -11 24.5t-30 12.5q-12 0 -38.5 -9.5t-41.5 -9.5q-10 0 -27.5 14.5t-27.5 14.5t-27.5 -5t-25.5 -5h-47q-135 0 -135 65zM53 856q-2 39 21 90q18 41 39 82q10 47 41 135q6 10 21 26.5t19.5 27 t14.5 36.5q8 14 39 33t33 23q23 45 69 92q57 55 94 55q8 0 41 10.5t41 10.5q39 31 113 94l2 2q43 -12 51 -22.5t13 -59.5q6 -61 -9 -80q-31 -41 -32 -49q0 -14 -7.5 -43t-23 -46.5t-29.5 -35.5q-4 -18 -18 -51q-4 -6 -31 -27q-18 -14 -18 -33q8 -49 8 -34q2 -20 -15.5 -52 t-15.5 -53q2 -33 28.5 -54.5t59.5 -19.5q10 0 24.5 8.5t22.5 8.5q10 0 19.5 -10.5t11.5 -10.5q2 -16 -4 -51q-6 -10 -23 -16q-27 -10 -31 -13.5t-14 -23t-26 -19.5q-35 -27 -88 -26q-35 0 -76 24.5t-62 24.5q-43 0 -123 -33l-10 -10l-22 -2q-55 -4 -95 14q-49 25 -53 78z M162 903q2 -14 28.5 -37.5t40.5 -23.5q63 0 82 26q14 18 27 39q20 10 40.5 22.5t32 34t9.5 64.5t4 62q16 33 33.5 69.5t13.5 89.5q-4 51 -49 51q-51 0 -111.5 -97t-60.5 -156q-33 -16 -63.5 -62.5t-26.5 -81.5z" />
<glyph unicode="&#xab;" horiz-adv-x="1665" d="M90 672h2q4 -4 7 -14.5t7 -14.5q12 -2 33 -12t47 -27q55 -37 97 -53q33 -6 92 -25q18 -18 59 -49q37 -10 101 -41l28 -28q12 -12 55 -29q53 -20 66 -27q4 -2 82 -55q47 -33 88 -43q12 -4 23 -4q49 0 49 69q0 78 -28 95.5t-46 21.5t-27 8q-29 14 -72.5 56.5t-74.5 56.5 q-27 0 -76 25q-8 12 -27 30q-10 10 -64 22.5t-79 39.5q-35 37 -35 45q0 4 19.5 9t34.5 15q45 33 206 62q10 2 66 18q43 12 63 13q29 0 110 17t103 32q8 6 13.5 26.5t11.5 26.5q-4 2 -14 16q-4 4 -23 0q-27 -6 -26 -6q-49 2 -148 -8q-23 -8 -70 -22q-31 0 -90 -13 q-25 -14 -78 -39l-24 -2q-68 -41 -203 -108q-29 -10 -106 -15q-68 -1 -111 -30q-6 -4 -41 -39zM696 659h2q4 -10 15 -30q12 -2 35 -8q20 -12 45 -29q55 -35 98 -55q33 -6 90 -25q18 -16 59 -47q37 -10 103 -41q6 -2 28 -31q12 -12 56 -28q53 -18 62 -23.5t83 -56.5 q49 -33 90 -45q12 -4 23 -4q49 0 49 69q0 78 -27.5 95.5t-46 21.5t-26.5 8q-29 14 -74 57t-76 58q-27 0 -76 22q-8 10 -26 33q-10 10 -64.5 22.5t-79.5 39.5q-35 37 -34 45q0 4 16 8q25 6 39 16q47 31 205 62q10 2 65 18q43 12 64 12q29 0 109.5 17.5t103.5 31.5q8 6 13 26 t13 26q-4 2 -14 16q-4 4 -23 2q-27 -6 -28 -6q-49 2 -148 -8q-23 -8 -67 -23q-29 -2 -90 -14q-25 -14 -78 -39h-25q-68 -41 -203 -109q-27 -10 -106 -14q-68 -2 -111 -33h-2q-12 -12 -41 -37z" />
<glyph unicode="&#xac;" horiz-adv-x="1038" d="M18 -113q0 37 31 56q31 12 60 24q16 18 55 19q4 0 90 34.5t92 38.5q20 23 68 86q0 20 8 58q16 6 43 20q10 6 16 25.5t9.5 23.5t26 24.5t22.5 37.5q0 8 -7.5 20.5t-7.5 18.5q0 10 8.5 24.5t6.5 32.5q10 8 22 25q6 16 17 49l10 8q2 6 -4 31q2 10 13 26.5t11 24.5q0 2 -6 20 l-67 62h-15l4 -43l-14 -10q-2 6 -14 6l-11 14v12q0 6 17 66q8 -2 22.5 -5t20.5 -5q4 12 8 39l20 -7v-14l15 -14q2 6 14 6l10 8v6v25q-18 10 -65 67q-43 51 -55 52q-6 0 -17.5 -4.5t-15.5 -4.5q-94 8 -97 11q-10 4 -18 23.5t-12 23.5q-29 27 -55.5 55.5t-22.5 75.5l2 8 q14 25 14 57q0 6 4 23q25 16 27 24q4 20 6 23q14 27 49 49q51 31 58 37q12 16 39 45q14 4 43 18q12 18 45 48q14 2 39 6q41 45 125 45q18 0 32 -6q53 -61 54 -74q0 -16 -11 -23q-2 -10 2 -26.5t4 -22.5q0 2 -14 -35q-20 -35 -35 -36q-25 -4 -49 -7q-18 -20 -31 -22 q-18 -2 -26 -6q-18 -23 -66 -51q-8 4 -59 -23q-27 2 -43.5 -7t-34.5 -20v-20q0 -2 27.5 -20.5t29.5 -22.5q6 -2 17.5 2t17.5 4q12 0 30.5 -20.5t33.5 -20.5q14 0 28 10h35h12l15 11q14 0 24 -11h11q74 0 133 29q74 33 88 96q16 8 41 31q4 20 18 61q12 25 52 60t53 57 q2 10 10 29q14 8 39 28q8 10 47 70t39 62q16 16 60 35.5t54.5 29.5t26.5 33q16 2 47 12q18 8 41 33q18 18 37 39v29q-25 -4 -37 -9l-20 -2q-20 10 -45 35q10 29 176 29q20 0 66 11t73 11v2q94 0 115 -22q41 -43 55 -51q16 0 47 -9q2 -2 8 -15t43 -28q-29 -41 -30 -47 q-6 -14 -7 -55q0 -12 -6 -23q-4 -25 -57 -59q-37 -25 -76 -47q-31 -39 -106 -107q-20 -6 -58 -24q-10 -14 -34 -39q-29 -2 -82 -18l-15 -25q-18 -8 -53 -29q-14 -20 -53 -51q-23 -2 -68 -12q-10 -12 -140 -76.5t-143.5 -66t-19.5 -3.5l-20 -16q-18 -4 -54 -16 q-20 -12 -34.5 -42t-26.5 -57q-12 -6 -31 -28q-2 -10 -4 -31q-2 -4 -27.5 -29.5t-25.5 -48.5q0 -6 3 -18.5t3 -20.5q0 -16 -14 -26q-23 -18 -26 -23.5t-7 -19t-8 -19.5l-15 -12q0 -8 -4 -27q-4 -6 -24 -10q-12 -4 -13 -41q0 -16 -10 -27q-14 -16 -16 -22q-27 -72 -27 -129 q0 -16 -20 -35q-27 -25 -31 -31q-4 -23 -27 -59q-6 4 -8 -16q-2 -23 0 -25q-14 -8 -27.5 -30.5t-27.5 -33.5q-2 -4 -2 -26q0 -8 -4 -12l-29 -9l2 -24q12 -12 27.5 -25.5t27.5 -13.5q25 0 99 39q68 37 90 57q4 2 15 22.5t16 20.5h18l4 -22q-25 -76 -47 -103 q-12 -16 -39 -28.5t-45 -34.5q-20 -6 -61 -31l-31 -6q-18 0 -36.5 -16.5t-27.5 -18.5q-10 -2 -24 0q-16 4 -23 4q-14 0 -61 -39h-21q-20 0 -57 6.5t-55 6.5q-86 0 -95 -3l-18 -14h-6q-104 0 -105 51zM578 834q0 -10 20 -17q18 0 43 10v-18q-25 -18 -25 -29q0 -8 5 -16 q16 -4 43 -14q2 8 2 24l8 8h6q4 0 9 -3t7 -3h6q49 63 50 88q0 10 -4 31l-27 -2q-10 0 -24.5 8t-24.5 8q-19 0 -60 -20q-6 -20 -30 -37q-4 -12 -4 -18zM1040 1122q4 -10 21 -26q29 16 39 16q18 -2 35 -2q10 0 36 20q33 12 93 48q12 16 41 41q18 -2 36.5 9t36 11t43 22.5 t70.5 22.5l10 2q14 16 30.5 19.5t24.5 9.5q18 20 62 55q14 6 41 23q14 14 45 41q8 0 63.5 60t61.5 77v14q0 39 -25 43q2 0 -55 0q-8 0 -26.5 5t-28.5 5q-45 0 -98.5 -17t-73.5 -17q-8 0 -21 -5l-20 -24q-20 -4 -67.5 -44t-53.5 -42q-16 -2 -47 -14l-4 -29q-23 -16 -54 -45 q-49 -53 -116 -115q-6 -10 -8.5 -33.5t-7.5 -33t-48 -31.5q-33 -18 -35 -66z" />
<glyph unicode="&#xad;" horiz-adv-x="847" d="M31 477l22 29q6 0 14.5 -5t12.5 -5q6 0 23.5 4t25.5 2q10 0 22.5 -8.5t16.5 -8.5q8 0 19.5 9.5t17.5 9.5l22 -12q37 4 86 14q8 0 27.5 -3t26.5 -3q53 0 95 7t87 7q6 0 20 2h19q8 0 21.5 -4t19.5 -4q8 0 19 9t18 9q10 0 22 -15t21 -15q6 0 16 6t14 6q10 0 42 -17.5 t32 -25.5q0 -14 -28 -41t-42 -27v2q-10 0 -26.5 8.5t-24.5 8.5q-10 2 -30.5 -2t-28.5 -4q-12 0 -35 18q-4 0 -12 -6t-15 -6h-18q-10 -2 -18 -2t-68 6q-37 4 -66 -4q-14 2 -24 16q-18 -18 -39 -18q-12 0 -29 4l-4 8q-6 0 -21.5 -7t-25.5 -7q-2 0 -6 2h-6l-2 6 q-23 -14 -62 -17q-6 0 -18 -6q-39 -35 -68 -35q-23 0 -43 48q-18 37 -22 67z" />
<glyph unicode="&#xae;" horiz-adv-x="1226" d="M88 444q-2 18 10.5 54.5t12.5 54.5l-2 8l-9 14l-2 13q-2 12 2 32.5t4 26.5q0 12 -5 36t-5 36q0 10 10.5 43t10.5 63q0 4 15 45t15 43q10 8 25 29q6 16 4 41l-4 41q0 4 39 84t46 87t26 24q8 33 32 90q29 25 76 82q10 25 35 71q29 41 82 74q8 2 26 8q10 6 29 35t53 49 l19 -4v-18q0 -16 -37 -43l-51 -35q-20 -16 -70.5 -90t-64.5 -105q-2 -18 -13 -57q-8 -8 -26 -29q-20 -47 -66 -137q-10 -8 -24 -29q0 -27 -11 -84q-8 -10 -22 -30q0 -10 -6 -33q-20 -20 -21 -47q0 -12 4 -40t4 -42q0 -33 -20 -133q-12 -59 -12 -92q0 -43 22 -43 q33 0 123 110q10 18 33 53q16 8 45 31q2 10 12 29q14 8 39 24q4 12 21 35q70 63 104 68q12 20 35 51l57 25q25 0 31 -45q0 -18 -11.5 -31t-11.5 -25q0 -33 33 -37q23 0 45.5 33t46.5 33q47 0 86 -57h35q10 0 13 -5.5t6 -5.5q-27 -63 -64 -63h-2q-8 14 -44 30.5t-52 16.5 q-31 0 -62 -45q-41 -57 -51 -66q-2 -14 -10 -43q-8 -18 -29 -51q-25 -20 -63 -72q-2 -14 -11 -43q-2 -4 -13 -13t-11 -13l2 -12q-10 -8 -27 -23q-4 -2 -59 -66q-39 -43 -64 -51q-18 33 -20 60q0 35 16 49q33 29 35 33q2 16 29 47q4 18 14 53q2 6 29 57q16 35 16 60 q0 18 22.5 42.5t22.5 41.5q0 29 -30 28h-7q-6 -2 -8 -2l-4 -8q-18 -12 -28.5 -28.5t-12.5 -18.5q-14 -2 -38.5 -13.5t-37.5 -37.5q-20 -41 -22 -45q-16 -8 -47 -25q-104 -74 -105 -145q0 -33 19 -76q2 -20 16 -59t66 -74q45 -29 88 -55q10 -10 32 -23q14 -4 39 -4h11 q25 0 36 -4q6 -2 37 -17q23 -10 41 -10q8 0 64.5 25.5t68.5 34.5q16 16 54 43q18 2 51 8v6q10 4 52 39t46 41q4 23 16.5 66.5t63.5 95.5q-2 -12 -2 34q0 14 24.5 40t24.5 50q0 18 -17.5 47t-17.5 48v78q6 25 6 28q-14 20 -14 47q0 10 -11 22.5t-9 31.5q-8 12 -29 18 q-27 6 -33 10q-53 6 -53 53q0 27 18 27q29 0 41 -20q18 -31 27 -37q20 -8 57 -29q47 -39 47 -121q0 -14 17.5 -43.5t17.5 -58.5v-86q-4 0 -4 -4l8 -2q-2 0 -8 2l-2 -2q2 -6 5 -20.5t3 -22.5q0 -18 -20.5 -39t-20.5 -68q0 -16 -17 -37.5t-34 -40.5q-12 -25 -39 -71 q-12 -16 -39 -33q-35 -20 -41 -25q-12 -16 -43 -43q-18 -6 -55 -24q-23 -27 -80 -70q-27 -10 -82 -12t-66.5 -8.5t-43.5 -16.5q-12 0 -37 7.5t-37 7.5q-8 0 -24.5 -3.5t-24.5 -3.5q-10 0 -21 9l-20 10q-35 2 -96 22q-10 6 -20.5 27t-16.5 27q-23 12 -60 43q-4 25 -18 69 q-10 12 -25.5 41t-50.5 86z" />
<glyph unicode="&#xaf;" />
<glyph unicode="&#xb0;" horiz-adv-x="528" d="M55 1231q0 4 11.5 35.5t13.5 35t8 7.5t7 9t6 15t20 25q2 8 8 24q8 10 25 29q0 8 9 18.5t30 24.5q25 23 71 57q14 6 37 17q47 51 82 51h2q8 0 27.5 -2t29.5 -2q23 0 31 -25q2 -18 4 -37l8 -8q4 -8 0 -18q0 -12 -7 -36t-7 -40q0 -23 -29 -49q-6 -12 -18 -31q-4 -4 -11 -7 t-10 -5q-2 -10 -12 -33q-14 -8 -41 -26q-98 -94 -182 -95q-27 0 -71 24.5t-42 41.5zM143 1262q0 -10 21.5 -26.5t34.5 -16.5q55 0 71 20q8 14 17 29q4 2 12 4t10 4q23 12 29 39q8 35 14 42t27 27q6 6 14 46l-4 4l-2 -2q0 29 0 26q-2 15 -27 15h2q-43 0 -57 -14.5t-29 -31.5 q-23 -14 -63 -51l-8 -2q-4 -18 -19 -51q-43 -63 -43 -61z" />
<glyph unicode="&#xb1;" horiz-adv-x="1966" d="M-86 -707q0 2 25 66q18 49 28 59q18 23 62 23q37 0 65 -29q41 -41 49 -45q8 -29 43 -72q27 -6 76 -18q20 -20 68 -49q16 -4 127 -2q20 0 50 -11.5t48 -11.5q49 0 88 6q23 10 66 27q47 -2 139 12q12 8 37 23q45 14 131 51q25 18 71 51q49 16 146 60q10 12 37 30q10 0 30 7 q10 10 29 30q27 12 74 41q14 20 47 53q10 2 25 13l12 24q37 18 98 74q6 16 23 47q14 12 37 43q2 12 0 21q0 16 23.5 27.5t27.5 19.5q2 2 30 88q-2 2 -12 26q-154 18 -268 17q-23 -4 -68 -19q-2 0 -26 -16q-10 -8 -37 -8q-51 0 -78 39t-27 90q0 57 40 97t40 71q0 78 -12 98 q-6 2 -21 12h-24l-4 -2q-23 -4 -45 -41q-16 -27 -33 -55q-43 -53 -96 -72q-10 0 -31 -6q-8 -14 -31 -35q-4 -4 -16 -7t-19 -7q-12 -20 -24 -24q-25 -6 -31 -12.5t-24 -24.5q-66 -41 -121 -54q16 2 -51 2q-20 0 -51 -20t-48 -23q-29 0 -84 -4q-14 -10 -75 -20 q-10 0 -31 -13.5t-39 -11.5l-19 13q-20 0 -59 6q-18 10 -53 22q-35 0 -98 15q-14 20 -54 55q-33 10 -78 41q-14 27 -26 115q0 4 13 28.5t13 50.5q0 37 68 72q59 31 102 31q63 0 75.5 -42t23.5 -85q10 -23 72.5 -88.5t80.5 -69.5q6 -2 19 -2q18 0 71 31l7 14h12q10 0 29.5 -7 t31.5 -7q16 0 46 14.5t42 16.5q49 0 146 12q10 8 37 24q31 6 88 31q10 18 37 47q16 4 47 19q16 20 55 55q25 10 61 41q2 14 11 43q20 14 55 47q8 23 25 68q6 14 47 47q33 27 32 49q0 10 -6 23.5t-8 19.5q-8 0 -24.5 3t-24.5 1h-4l-19 -12h-6q-51 0 -102 86q-23 12 -71 11 t-68 5q-43 14 -80 62q-4 12 -19 34q-27 12 -65 50q-12 25 -4 98q0 63 36 112q8 6 19 17q2 6 2 59q0 66 70 107q59 31 118 63q16 12 39 48t41.5 48.5t55 21.5t51.5 15q25 20 80 56q35 8 102 28l4 13q12 8 38 16t36 14l6 15q-8 -2 57 -2q27 0 82.5 15t83.5 15q12 0 32.5 -4 t31.5 -4q14 0 26.5 9.5t24.5 9.5q16 0 31.5 -11.5t33.5 -11.5q16 0 51 4t54 4q27 0 35 -14q14 -20 22 -25q25 0 68 -2t61.5 -30.5t34.5 -57.5l12 -2q62 -62 62 -74q0 -10 -9.5 -31.5t-9.5 -52.5q0 -16 -14 -26q-20 -16 -22 -19q-4 -20 -25 -53q-14 -14 -49 -16q-25 0 -51 -2 q-20 -14 -101 -29q-25 0 -57.5 -20.5t-30.5 -42.5q-4 -4 -16 -6.5t-19 -6.5q-16 -10 -35.5 -44t-33.5 -44q-10 -2 -27 -14l-6 -19q-16 -10 -43 -34q-2 -10 -12 -31q-10 -6 -31 -25q-12 -33 -49 -96q-27 -27 -70 -84q-14 -41 -49 -121q-2 -2 -51 -73q-31 -45 -31 -80 q0 -16 -15.5 -38t-15.5 -50.5t-28 -69.5q-35 -47 -38 -65.5t-9 -49.5q-2 -6 -12.5 -28.5t-10.5 -34.5q0 -8 29 -60q4 -2 5 -8t3 -6q33 0 79 16.5t62 16.5q18 0 53 -9.5t52 -9.5q20 0 34.5 9.5t47.5 31.5q29 6 79 31q12 14 37 37q2 -2 9 -2l14 2q14 -14 29 -68 q0 -47 -29 -108q-27 -51 -55 -103q-16 -29 -39 -90q-2 -20 -15 -59q-6 -8 -24.5 -14.5t-24.5 -10.5q-10 -16 -35 -49q-29 -20 -84 -65q-10 -20 -36 -58q-12 -18 -39 -37q-39 -27 -45 -32q-10 -16 -35 -43q-25 -8 -66 -31q-20 -10 -45 -33q-31 -31 -41 -39q-31 -12 -90 -39 l-49 -49q-57 -47 -109 -59q-16 -2 -47 -8q-23 -14 -73 -37q-33 0 -97 -10q-16 -12 -53 -31q-27 0 -80 -10q-20 -8 -39 -31q-10 -12 -90 -12q-29 0 -86 -4.5t-86 -4.5q-76 0 -119 9q-12 2 -41 12q-14 6 -57 6q-35 0 -51 16q-29 27 -40 30t-34 7q-31 10 -82 60.5t-51 76.5z M1022 1032q0 -12 2 -18l12 -10q0 -20 4 -62q4 -8 18.5 -24.5t14.5 -30.5q18 -4 53 -17q10 -6 35 -36q18 -23 45 -23q14 0 40 11.5t42 11.5q12 0 35 -6.5t31 -6.5q10 -86 51 -86q12 0 16 2q12 2 28.5 29t20.5 31q20 10 54 37l6 24q14 12 37 41q8 20 30 59q4 6 56 52 q37 35 37 57q0 16 24 33q20 10 39 22q16 25 55 66q18 8 41 31q4 14 0 49q0 12 6 24q37 8 77 47t38 72l-2 25q-33 18 -82 84q-29 39 -121 39q-27 0 -60.5 -25t-70.5 -25q-16 0 -44.5 4.5t-43.5 4.5q-57 2 -100 -41q-2 -6 -12 -17q-14 0 -43 -6q-90 -27 -140 -59 q-6 -4 -14 -18.5t-13 -18.5t-13.5 -4t-12.5 -2q-37 -25 -53 -49q-4 -14 -21 -41q-18 -10 -47 -37q-35 -47 -33 -121q0 -12 -11 -33.5t-11 -38.5z" />
<glyph unicode="&#xb2;" />
<glyph unicode="&#xb3;" />
<glyph unicode="&#xb4;" horiz-adv-x="641" d="M193 1485l6 20q4 10 43.5 52.5t64.5 105.5v2q18 16 41 43l-2 39q10 14 19.5 31.5t15.5 27.5q14 23 30.5 46.5t69.5 43.5q12 6 25 7q33 0 49 -37v2l6 -2q4 -39 0 -49q-18 -27 -22 -37q-4 -8 0 -47q2 -29 -21 -52q-10 -6 -29 -20q-16 -27 -53 -70q-51 -39 -96 -49 q-10 2 -25.5 -2t-40 -27.5t-63.5 -35.5z" />
<glyph unicode="&#xb6;" horiz-adv-x="1392" d="M68 186q-2 23 12 68t14 68v10l-12 18l-2 12q-2 14 4 42t6 40q0 14 -8 43t-8 43t13 54.5t13 77.5q0 6 18.5 55t27 58t24.5 34q6 20 4 51l-4 49q0 4 48 105.5t54 109.5q14 8 37 31q12 16 21.5 56t20.5 57.5t47 49.5t48 50q10 31 41 90q39 53 99 90q14 2 39 13 q12 8 34.5 43.5t65.5 62.5l25 -6v-25q0 -23 -48 -53q-35 -23 -67 -43q-25 -20 -88.5 -113.5t-77.5 -128.5q-4 -25 -18 -71q-10 -12 -29 -37q-25 -59 -84 -172q-12 -10 -31 -35q0 -35 -10 -104q-12 -12 -31 -39q0 -14 -6 -41q-27 -27 -27 -62q0 -16 5.5 -49t5.5 -51 q0 -20 -11.5 -71.5t-11.5 -96.5q0 -25 -8 -73t-8 -72q0 -23 8 -66t8 -78q0 -20 15 -39q23 -29 24 -35q4 -25 21.5 -73.5t80.5 -93.5q4 -2 113 -66q12 -12 43 -31q35 0 107 -8q6 -2 45 -22q27 -12 49 -13q10 0 79.5 32t86.5 42q20 20 67 53q23 2 66 13l-2 6q12 6 66.5 50 t61.5 55t9 40t6 39q8 23 43 72q16 23 35 47q2 8 -2 47q0 16 31.5 47t31.5 61q0 25 -21.5 60t-21.5 57q2 68 0 98q8 23 7 35q-16 27 -19 60q0 14 -12 29.5t-10 35.5q-10 16 -37 23q-37 10 -43 14q-14 20 -54 49q-20 8 -77 8q-37 0 -58 -10q-41 -20 -49 -24q-76 -27 -88 -39.5 t-43 -91.5l-12 -11v-22q0 -74 57 -72q23 0 60.5 24.5t62.5 24.5q-10 0 53 -14q0 -27 27 -61.5t27 -53.5q0 -8 -8.5 -36.5t-8.5 -53.5v-10q-29 -37 -55 -74q-25 -29 -98 -29q-180 0 -183 168q0 20 -8 66.5t-8 71.5q0 20 21.5 55t21.5 51q0 27 70 90q66 57 100 72q16 2 49 10 q4 2 21 19q8 8 28 8q18 0 54 -7.5t57 -7.5q35 0 51 -24q23 -39 33 -45q25 -10 71 -37q59 -51 58 -150q0 -18 22.5 -56t22.5 -73q0 -125 -2 -108h-2q-2 -2 -4 -2q0 -4 10 -4h-10q8 -74 8 -58q0 -20 -23.5 -44.5t-23.5 -84.5q0 -20 -25 -53q-20 -23 -41 -47q-14 -31 -51 -90 q-14 -20 -47 -39q-43 -25 -51 -31q-16 -20 -56 -55q-23 -6 -65 -29q-29 -37 -101 -90q-31 -14 -101.5 -15t-84.5 -7q-47 -20 -57 -21q-14 0 -44 7.5t-46 7.5q-10 0 -31 -3.5t-33 -3.5t-27.5 10.5t-21.5 12.5q-41 4 -119 31q-14 8 -26.5 32.5t-20.5 32.5q-29 14 -74 53 q-10 14 -16 43q-6 39 -8 48q-12 16 -31.5 49.5t-62.5 105.5zM850 1763v4q23 25 65 60q35 6 101 31q10 12 39.5 36.5t98.5 45t83 30.5l16 2q31 4 84 -2q66 -10 84 -10q8 0 25 -2l18 -12q16 -2 43 0q35 2 45 2q84 0 192.5 -102.5t125.5 -184.5q0 4 -2 -78q-2 -63 4 -78 q2 -4 45 -53h4q27 0 75 23.5t77 23.5h10q14 16 43 31q37 20 47 29q18 25 59 65q23 8 66 25q18 16 53 49q16 6 47 22q12 12 25 37q12 33 18 41q20 16 51 53q4 6 7.5 20.5t7.5 20.5l16 15q10 18 43 129l12 12q2 8 2 25q0 29 -23.5 79t-23.5 78q0 18 8.5 52t18.5 40q8 0 23 7 q2 2 32 30q18 17 41 17t62 -36t39 -59q0 -61 -27 -133q-27 -61 -51 -125q0 -18 -13 -53l-24 -18q-2 -27 -16 -76q-10 -20 -37 -43q-35 -29 -43 -41q-6 -20 -27 -53q-10 -2 -33 -13q-27 -25 -82 -65q-10 -6 -32.5 -14.5t-32.5 -14.5q-8 -14 -31 -39q-39 -20 -110 -82 q-37 -10 -91 -28q-20 -18 -67 -49q-20 -2 -66 -11q-23 -8 -55.5 -35.5t-49 -36t-50.5 -12.5q-27 -4 -52 -24l-18 -2q-25 0 -25 18l31 93q31 94 31 114q0 33 -25 68q-35 49 -38 61t-15 35q-8 12 -47 35q-45 25 -53 30q-10 16 -37 43q-18 12 -132 31t-145 19q-41 0 -140 -30 t-140 -30q-33 0 -82 -31.5t-80 -29.5q-2 -8 -2 24z" />
<glyph unicode="&#xb7;" horiz-adv-x="1392" d="M-721 -125q6 20 43 41q51 31 54 34t40 46q25 29 47 33q6 2 19 2q-4 0 59 -19q43 -12 144 -12q131 0 196 20q25 16 74 41q33 6 98 25q16 12 51 33q35 10 101 41q31 27 92 73q20 6 57 25q45 27 107 80q94 80 100 86q55 35 156 113l2 6q-12 0 -33.5 22.5t-36.5 22.5 q-12 0 -59 -19q-18 -8 -37 -8q-14 0 -39 8.5t-39 8.5t-29 -5q-20 -14 -63 -38q-14 -6 -45 -2t-47 -5l-17 -8l2 -6q-23 -20 -33 -50t-18 -37t-47 -24q-23 -12 -35 -43l-18 -8l4 -6q-68 0 -80 6q-6 23 -64.5 31t-76.5 53q-12 33 -12 64q0 121 149 182q47 18 86 18q14 0 57 -4 q35 -6 66 -2q10 2 43 13q27 8 43 6q20 -10 61 -25q23 -4 67 5t64 5q20 -10 60 -26q25 4 74 0q23 -18 73 -43q12 -4 49 -8q14 16 46 49q27 16 73 55q20 35 66 100q37 33 102 107q6 14 19 41q20 18 55 57q23 37 72 107q31 23 77 71q8 12 31 95q8 31 27.5 59.5t25.5 42.5 q10 39 37 100h6q6 2 63.5 47t62.5 52.5t14 21.5q33 14 82 35q12 -8 34 -25q-14 -51 -53 -145q-14 -16 -37 -51q-23 -61 -82 -183q-16 -14 -43 -49q0 -10 -5 -33.5t-42 -79t-45 -81.5q-2 -16 -10 -49q-4 -18 -21 -39q-20 -29 -24 -37q-14 -37 -47 -113q-8 -18 -51 -86 q-98 -158 -119 -246q-12 -51 -8 -61q-70 -262 -86 -297q-4 -8 -21 -49q-14 -53 -80 -98l-114 -66l-13 -16h-6h-29q0 6 -4 37q-4 20 0 36q16 27 45 82q29 82 109 238q31 39 78 117l43 129q-23 2 -55.5 4t-34.5 5t-13 15q-25 23 -102 31q-14 -16 -45 -45l-264 -191 q-27 -27 -86 -71q-43 -14 -123 -60q-16 -20 -57 -55q-43 -16 -130 -59q-16 -18 -55 -50q-20 -4 -61 -14q-55 -39 -144 -78h-8q-8 2 -10 2q-14 0 -47 -19.5t-43 -21.5q-20 -2 -62 -6q-45 -27 -137 -67q-37 -10 -100 -11q-178 0 -160 70zM870 614q47 -10 88 -34q55 -33 76 -41 l6 6q41 59 99 184q2 10 2 19q0 6 -29 45q-12 0 -45 -9q-18 -8 -63 -61q-51 -59 -68 -72q-23 -10 -66 -37z" />
<glyph unicode="&#xb8;" />
<glyph unicode="&#xb9;" />
<glyph unicode="&#xba;" horiz-adv-x="630" d="M-74 600q0 27 35 51q49 35 180 35q49 0 92 -6q20 -2 80 -21q47 -14 78 -14q25 0 49 6q16 23 45 23q16 0 25 8q14 20 16 23q41 35 123 34q84 0 101 -22q2 -18 10 -55q-80 -66 -119 -68q-10 0 -26.5 3t-24.5 3q-20 0 -29 -12q-14 -16 -18 -18.5t-58 -2.5q-14 0 -30 -6 q-8 -12 -15 -18q-2 -12 -36.5 -37t-55.5 -25q-14 1 -12 17l2 -2q-6 14 -12.5 26.5t-28.5 12.5q-14 0 -41 -9.5t-39 -9.5q-10 0 -27.5 14.5t-25.5 14.5q-10 0 -28.5 -5t-26.5 -5l-48 -3q-59 -2 -97 17.5t-38 50.5zM84 877q0 -12 31 141q8 8 22 26q2 16 4 46q12 14 31 40 q2 18 10 52q12 16 33 53q2 16 10 45q16 14 45 43q31 47 92 117q18 10 50 37q37 59 39 63q28 35 71 35l2 2q12 0 37 -5t39 -5q31 0 39 -49l8 -74l10 -17q2 -6 3.5 -18t1.5 -18q0 -27 -10.5 -72t-10.5 -81t-8 -54q-16 -25 -31 -47q-6 -20 -24 -60q-10 -8 -29 -26 q-2 -20 -19 -58q-20 -16 -53 -55q-129 -190 -237 -190q-35 0 -95.5 49t-60.5 80zM203 940q0 -18 28.5 -51t44.5 -33q74 0 95 39q10 29 22 57q12 6 31 19q31 23 39 78q10 76 16 88q10 23 35 51q10 12 21 88l-5 10l-2 -4v53q-5 29 -36 29q-57 0 -76 -27q-18 -35 -35 -67 q-31 -29 -88 -96l-10 -7q-6 -39 -23 -104q-16 -31 -33 -64q-25 -47 -24 -59z" />
<glyph unicode="&#xbb;" horiz-adv-x="1724" d="M-53 268q0 27 48 82.5t73.5 64.5t91.5 29q37 14 112.5 56.5t118.5 56.5q27 0 90 25q18 12 54 30q18 10 79.5 22.5t106.5 39.5q70 41 70 49q0 2 -16.5 6t-24 15.5t-72.5 33.5q-57 20 -84 27q-10 2 -53 18q-35 12 -56 13q-31 0 -99.5 16t-80.5 33q-4 6 6.5 26.5t7.5 26.5 l29 16q8 4 23 0l20 -6q51 2 144 -8q16 -8 53 -22q29 0 78 -13q16 -14 51 -39l22 -2q23 -14 61 -54t64 -54q20 -10 99 -13q63 -1 86 -32h-2q6 -12 16 -39h-4q-10 -10 -35 -29q-12 -2 -41 -12t-68 -27q-80 -37 -137 -53q-37 -6 -108 -25q-31 -18 -95 -49q-45 -12 -133 -41 q-12 -4 -45 -28q-57 -18 -161 -56q-80 -41 -242 -98q-14 -4 -25 -4q-23 0 -22 18zM559 268q0 27 48 82.5t74 64.5t91 29q37 14 113 56.5t119 56.5q27 0 90 25q18 12 53 30q18 10 79.5 22.5t106.5 39.5q70 41 70 49q0 2 -16.5 6t-23.5 15.5t-73 33.5q-57 20 -84 27 q-10 2 -53 18q-35 12 -55 13q-31 0 -99.5 16t-80.5 33q-4 6 6 26.5t8 26.5l29 16q8 4 22 0q20 -6 21 -6q51 2 143 -8q16 -8 53 -22q29 0 78 -13q16 -14 51 -39l23 -2q23 -14 60.5 -54t64.5 -54q20 -10 98 -13q63 -1 86 -32h-2q6 -12 16 -39h-4q-10 -10 -35 -29 q-12 -2 -40.5 -12t-67.5 -27q-80 -37 -137 -53q-37 -6 -109 -25q-31 -18 -94 -49q-45 -12 -133 -41q-12 -4 -45 -28q-57 -18 -162 -56q-80 -41 -242 -98q-14 -4 -24 -4q-23 0 -23 18z" />
<glyph unicode="&#xbc;" />
<glyph unicode="&#xbd;" />
<glyph unicode="&#xbe;" horiz-adv-x="851" d="M2 -299q0 -8 62.5 83t80.5 167q4 18 0 49t-2 45q4 20 30 53t30 52q-2 23 2 67q8 18 20 57v5q6 29 19 112q-8 0 16.5 55.5t58.5 85.5q6 4 5 17q-4 16 -2 20q0 4 28 41l4 11q0 18 2 53l4 16q29 29 40.5 67t19.5 77q6 29 32.5 81t30.5 87.5t17 101.5q51 158 108 235 q2 10 13 31q6 6 26.5 12.5t22.5 21.5t6 48q10 47 49 76l68 51q10 18 32 51q41 27 121 76l25 -6q-29 -49 -86.5 -100.5t-65.5 -71t-24 -62.5q-18 -20 -43 -65q2 -16 -2 -47l-5 -13q-27 -25 -28 -32q-4 -20 -8 -39q-10 -14 -31 -43q-53 -98 -88 -248q0 -41 -12 -119 q-10 -20 -27 -63q2 -18 2 -56q-4 -16 -22.5 -38.5t-22.5 -32.5q-47 -104 -53 -191q2 -31 -4 -92l-5 -10h-6q-8 -16 -24 -47q-8 -63 -23 -101q-16 -51 -35 -100l4 -88q-16 -20 -34.5 -71.5t-32.5 -71.5l-14 -4q-47 -47 -58 -70q-4 -8 -22 -84q-2 -8 -8 -23l-15 -6 q-31 -31 -59 -61q-4 -2 -96 -19q-23 55 -21 70zM881 1923q8 10 90 43h16q8 -2 27.5 -12t36.5 -10q16 0 47.5 7t48.5 7q35 0 58.5 -24.5t15.5 -59.5h-2q-6 -31 -44 -48.5t-71 -33.5q-14 -35 -107 -70l-10 13q0 12 2 18q4 18 28.5 60t39.5 45l-2 22q-45 4 -131 21 q-49 12 -43 22z" />
<glyph unicode="&#xbf;" horiz-adv-x="1234" d="M150 240q-2 25 9 61.5t11 56.5v7l-8 14q-4 27 0 47q4 27 4 31q0 10 -5 33.5t-5 35.5q0 16 10 47t10 58q0 6 16 50l15 44l22 23q8 10 7 40l-7 43q0 6 40 88t48.5 89.5t26.5 23.5q8 31 33 90q33 27 84 97q6 20 24 57q43 51 84 74q14 0 43 22q8 10 11 19q20 33 61 55l31 -6 v-29q0 -23 -39 -47q-27 -18 -55 -35q-18 -16 -67.5 -90t-64.5 -104q-2 -25 -28 -74q-8 -6 -10 -12q-20 -47 -68 -138q-12 -6 -27 -43q0 -23 -2 -45t-18 -41q-10 -10 -10 -24.5t-7 -24.5q-18 -18 -16 -41q0 -14 4 -39.5t4 -38.5q0 -20 -10 -61t-10 -76q0 -20 -6 -58t-6 -57 q0 -2 6 -51q4 -18 10 -63q0 -12 12 -29q14 -23 17 -29q4 -18 17 -56t62 -73q43 -27 86 -51q4 -2 11 -8l6 -6q12 -12 55 -12q35 0 86 -23q18 -10 35 -8q16 0 127 55q16 20 70 49q10 2 30 4l-2 2q14 8 57.5 42t45.5 38q4 23 14 66q8 23 53 86q10 14 8 24v11q-2 6 -2 8 q0 18 19 37l10 8q23 23 21 43q0 16 -17.5 45t-17.5 49v78q6 18 4 25q-12 18 -10 49q0 8 -5 12q-16 20 -16 37q-6 8 -32.5 15t-37 19.5t-28.5 28.5q-16 6 -60 7q-29 0 -45 -9q-33 -16 -37 -18q-27 -8 -67 -31q-6 -6 -33 -69l-8 -11l-2 -10q0 -47 35 -51q16 0 48 21.5t52 21.5 q8 0 53 -17q0 -29 21 -49l6 -12q16 -20 16 -37q0 -2 -6 -33q-6 -14 -6 -41l-2 -12q-20 -20 -37 -47q-25 -39 -96 -39q-154 0 -154 144q0 18 -8 54t-8 54q0 20 18.5 48t18.5 38q0 27 59 80q55 47 84 59q16 2 45 15q16 16 35 18q16 0 46 -7t44 -7q37 -2 49 -23q6 -14 35 -43 q16 -4 49 -20q49 -43 49 -129q0 -10 17.5 -41t17.5 -62q0 -10 -2 -43q-2 -27 0 -41q0 -2 -8 -8l-4 -6q0 6 6 8l-2 2v-6l4 4q6 -49 6 -47q0 -20 -19.5 -40.5t-19.5 -63.5q0 -20 -19.5 -42t-32.5 -44.5t-42 -71.5q-14 -20 -45 -37q-39 -18 -49 -29q-27 -31 -27 -30 q-10 -10 -35.5 -19.5t-59.5 -46.5t-78 -42t-89 -7q-14 0 -47 -16q-12 -6 -29 -6q-12 0 -35.5 6t-35.5 6q-8 0 -24.5 -3t-25.5 -3q-12 0 -25 9t-20 11q-35 6 -67 12q-39 8 -54.5 39t-46.5 45q-37 23 -45 84q-2 18 -14 33l-8 8q-16 35 -59 99zM725 1518q-6 49 2 59t25 39 q4 10 -2 47q-4 25 30 59l8 4q27 27 117 78q6 2 17 2q55 0 67 -32q14 -39 8 -52q6 -20 0 -59l-10 -6q-8 -14 -49 -62q-12 -23 -41 -63q-25 -27 -78 -49q-14 -6 -28 -6q-36 -1 -56 36z" />
<glyph unicode="&#xc0;" horiz-adv-x="1392" d="M-721 -125q6 20 43 41q51 31 54 34t40 46q25 29 47 33q6 2 19 2q-4 0 59 -19q43 -12 144 -12q131 0 196 20q25 16 74 41q33 6 98 25q16 12 51 33q35 10 101 41q31 27 92 73q20 6 57 25q45 27 107 80q94 80 100 86q55 35 156 113l2 6q-12 0 -33.5 22.5t-36.5 22.5 q-12 0 -59 -19q-18 -8 -37 -8q-14 0 -39 8.5t-39 8.5t-29 -5q-20 -14 -63 -38q-14 -6 -45 -2t-47 -5l-17 -8l2 -6q-23 -20 -33 -50t-18 -37t-47 -24q-23 -12 -35 -43l-18 -8l4 -6q-68 0 -80 6q-6 23 -64.5 31t-76.5 53q-12 33 -12 64q0 121 149 182q47 18 86 18q14 0 57 -4 q35 -6 66 -2q10 2 43 13q27 8 43 6q20 -10 61 -25q23 -4 67 5t64 5q20 -10 60 -26q25 4 74 0q23 -18 73 -43q12 -4 49 -8q14 16 46 49q27 16 73 55q20 35 66 100q37 33 102 107q6 14 19 41q20 18 55 57q23 37 72 107q31 23 77 73q8 14 31 93q8 31 27.5 59.5t25.5 42.5 q10 39 37 100h6q6 2 63.5 47t62.5 52.5t14 21.5q33 14 82 35q12 -8 34 -25q-14 -51 -53 -145q-14 -16 -37 -51q-23 -61 -82 -183q-16 -14 -43 -49q0 -10 -5 -33.5t-42 -79t-45 -81.5q-2 -16 -10 -49q-4 -18 -21 -39q-20 -29 -24 -37q-14 -37 -47 -113q-8 -18 -51 -86 q-98 -158 -119 -246q-12 -51 -8 -61q-70 -262 -86 -297q-4 -8 -21 -49q-14 -53 -80 -98l-114 -66l-13 -16h-6h-29q0 6 -4 37q-4 20 0 36q16 27 45 82q29 82 109 238q31 39 78 117l43 129q-23 2 -55.5 4t-34.5 5t-13 15q-25 23 -102 31q-14 -16 -45 -45l-264 -191 q-27 -27 -86 -71q-43 -14 -123 -60q-16 -20 -57 -55q-43 -16 -130 -59q-16 -18 -55 -50q-20 -4 -61 -14q-55 -39 -144 -78h-8q-8 2 -10 2q-14 0 -47 -19.5t-43 -21.5q-20 -2 -62 -6q-45 -27 -137 -67q-37 -10 -100 -11q-178 0 -160 70zM870 614q47 -10 88 -34q55 -33 76 -41 l6 6q41 59 99 184q2 10 2 19q0 6 -29 45q-12 0 -45 -9q-18 -8 -63 -61q-51 -59 -68 -72q-23 -10 -66 -37zM1294 2087q18 -27 23 -37q4 -8 0 -47q-4 -27 18 -49q12 -6 29 -21q16 -27 53 -69q39 -29 96 -52q10 0 31 -2q12 -4 37 -27.5t64 -35.5l16 10l-6 19q-2 12 -43 52.5 t-64 106.5v2l-43 43l2 39q-10 18 -32 58q-14 23 -29 47q-20 23 -74 45q-12 6 -24 6q-33 0 -50 -37l-4 -2q-4 -39 0 -49z" />
<glyph unicode="&#xc1;" horiz-adv-x="1392" d="M-721 -125q6 20 43 41q51 31 54 34t40 46q25 29 47 33q6 2 19 2q-4 0 59 -19q43 -12 144 -12q131 0 196 20q25 16 74 41q33 6 98 25q16 12 51 33q35 10 101 41q31 27 92 73q20 6 57 25q45 27 107 80q94 80 100 86q55 35 156 113l2 6q-12 0 -33.5 22.5t-36.5 22.5 q-12 0 -59 -19q-18 -8 -37 -8q-14 0 -39 8.5t-39 8.5t-29 -5q-20 -14 -63 -38q-14 -6 -45 -2t-47 -5l-17 -8l2 -6q-23 -20 -33 -50t-18 -37t-47 -24q-23 -12 -35 -43l-18 -8l4 -6q-68 0 -80 6q-6 23 -64.5 31t-76.5 53q-12 33 -12 64q0 121 149 182q47 18 86 18q14 0 57 -4 q35 -6 66 -2q10 2 43 13q27 8 43 6q20 -10 61 -25q23 -4 67 5t64 5q20 -10 60 -26q25 4 74 0q23 -18 73 -43q12 -4 49 -8q14 16 46 49q27 16 73 55q20 35 66 100q37 33 102 107q6 14 19 41q20 18 55 57q23 37 72 107q31 23 77 73q8 14 31 93q8 31 27.5 59.5t25.5 42.5 q10 39 37 100h6q6 2 63.5 47t62.5 52.5t14 21.5q33 14 82 35q12 -8 34 -25q-14 -51 -53 -145q-14 -16 -37 -51q-23 -61 -82 -183q-16 -14 -43 -49q0 -10 -5 -33.5t-42 -79t-45 -81.5q-2 -16 -10 -49q-4 -18 -21 -39q-20 -29 -24 -37q-14 -37 -47 -113q-8 -18 -51 -86 q-98 -158 -119 -246q-12 -51 -8 -61q-70 -262 -86 -297q-4 -8 -21 -49q-14 -53 -80 -98l-114 -66l-13 -16h-6h-29q0 6 -4 37q-4 20 0 36q16 27 45 82q29 82 109 238q31 39 78 117l43 129q-23 2 -55.5 4t-34.5 5t-13 15q-25 23 -102 31q-14 -16 -45 -45l-264 -191 q-27 -27 -86 -71q-43 -14 -123 -60q-16 -20 -57 -55q-43 -16 -130 -59q-16 -18 -55 -50q-20 -4 -61 -14q-55 -39 -144 -78h-8q-8 2 -10 2q-14 0 -47 -19.5t-43 -21.5q-20 -2 -62 -6q-45 -27 -137 -67q-37 -10 -100 -11q-178 0 -160 70zM870 614q47 -10 88 -34q55 -33 76 -41 l6 6q41 59 99 184q2 10 2 19q0 6 -29 45q-12 0 -45 -9q-18 -8 -63 -61q-51 -59 -68 -72q-23 -10 -66 -37zM1397 1704l6 20q4 10 43.5 52t64.5 108q18 16 41 43v39q10 20 33 59q14 23 30.5 46.5t70.5 46.5q12 6 24 6q35 0 49 -39v2l6 -2q4 -39 0 -49q-18 -27 -22 -37 q-4 -8 0 -47q2 -29 -21 -51q-10 -6 -28 -19q-16 -27 -54 -72q-55 -39 -96 -49q-10 2 -25.5 -2t-40 -27.5t-63.5 -35.5z" />
<glyph unicode="&#xc2;" horiz-adv-x="1392" d="M-721 -125q6 20 43 41q51 31 54 34t40 46q25 29 47 33q6 2 19 2q-4 0 59 -19q43 -12 144 -12q131 0 196 20q25 16 74 41q33 6 98 25q16 12 51 33q35 10 101 41q31 27 92 73q20 6 57 25q45 27 107 80q94 80 100 86q55 35 156 113l2 6q-12 0 -33.5 22.5t-36.5 22.5 q-12 0 -59 -19q-18 -8 -37 -8q-14 0 -39 8.5t-39 8.5t-29 -5q-20 -14 -63 -38q-14 -6 -45 -2t-47 -5l-17 -8l2 -6q-23 -20 -33 -50t-18 -37t-47 -24q-23 -12 -35 -43l-18 -8l4 -6q-68 0 -80 6q-6 23 -64.5 31t-76.5 53q-12 33 -12 64q0 121 149 182q47 18 86 18q14 0 57 -4 q35 -6 66 -2q10 2 43 13q27 8 43 6q20 -10 61 -25q23 -4 67 5t64 5q20 -10 60 -26q25 4 74 0q23 -18 73 -43q12 -4 49 -8q14 16 46 49q27 16 73 55q20 35 66 100q37 33 102 107q6 14 19 41q20 18 55 57q23 37 72 107q31 23 77 71q8 12 31 95q8 31 27.5 59.5t25.5 42.5 q10 39 37 100h6q6 2 63.5 47t62.5 52.5t14 21.5q33 14 82 35q12 -8 34 -25q-14 -51 -53 -145q-14 -16 -37 -51q-23 -61 -82 -183q-16 -14 -43 -49q0 -10 -5 -33.5t-42 -79t-45 -81.5q-2 -16 -10 -49q-4 -18 -21 -39q-20 -29 -24 -37q-14 -37 -47 -113q-8 -18 -51 -86 q-98 -158 -119 -246q-12 -51 -8 -61q-70 -262 -86 -297q-4 -8 -21 -49q-14 -53 -80 -98l-114 -66l-13 -16h-6h-29q0 6 -4 37q-4 20 0 36q16 27 45 82q29 82 109 238q31 39 78 117l43 129q-23 2 -55.5 4t-34.5 5t-13 15q-25 23 -102 31q-14 -16 -45 -45l-264 -191 q-27 -27 -86 -71q-43 -14 -123 -60q-16 -20 -57 -55q-43 -16 -130 -59q-16 -18 -55 -50q-20 -4 -61 -14q-55 -39 -144 -78h-8q-8 2 -10 2q-14 0 -47 -19.5t-43 -21.5q-20 -2 -62 -6q-45 -27 -137 -67q-37 -10 -100 -11q-178 0 -160 70zM870 614q47 -10 88 -34q55 -33 76 -41 l6 6q41 59 99 184q2 10 2 19q0 6 -29 45q-12 0 -45 -9q-18 -8 -63 -61q-51 -59 -68 -72q-23 -10 -66 -37z" />
<glyph unicode="&#xc3;" horiz-adv-x="1392" d="M-721 -125q6 20 43 41q51 31 54 34t40 46q25 29 47 33q6 2 19 2q-4 0 59 -19q43 -12 144 -12q131 0 196 20q25 16 74 41q33 6 98 25q16 12 51 33q35 10 101 41q31 27 92 73q20 6 57 25q45 27 107 80q94 80 100 86q55 35 156 113l2 6q-12 0 -33.5 22.5t-36.5 22.5 q-12 0 -59 -19q-18 -8 -37 -8q-14 0 -39 8.5t-39 8.5t-29 -5q-20 -14 -63 -38q-14 -6 -45 -2t-47 -5l-17 -8l2 -6q-23 -20 -33 -50t-18 -37t-47 -24q-23 -12 -35 -43l-18 -8l4 -6q-68 0 -80 6q-6 23 -64.5 31t-76.5 53q-12 33 -12 64q0 121 149 182q47 18 86 18q14 0 57 -4 q35 -6 66 -2q10 2 43 13q27 8 43 6q20 -10 61 -25q23 -4 67 5t64 5q20 -10 60 -26q25 4 74 0q23 -18 73 -43q12 -4 49 -8q14 16 46 49q27 16 73 55q20 35 66 100q37 33 102 107q6 14 19 41q20 18 55 57q23 37 72 107q31 23 77 73q8 14 31 93q8 31 27.5 59.5t25.5 42.5 q10 39 37 100h6q6 2 63.5 47t62.5 52.5t14 21.5q33 14 82 35q12 -8 34 -25q-14 -51 -53 -145q-14 -16 -37 -51q-23 -61 -82 -183q-16 -14 -43 -49q0 -10 -5 -33.5t-42 -79t-45 -81.5q-2 -16 -10 -49q-4 -18 -21 -39q-20 -29 -24 -37q-14 -37 -47 -113q-8 -18 -51 -86 q-98 -158 -119 -246q-12 -51 -8 -61q-70 -262 -86 -297q-4 -8 -21 -49q-14 -53 -80 -98l-114 -66l-13 -16h-6h-29q0 6 -4 37q-4 20 0 36q16 27 45 82q29 82 109 238q31 39 78 117l43 129q-23 2 -55.5 4t-34.5 5t-13 15q-25 23 -102 31q-14 -16 -45 -45l-264 -191 q-27 -27 -86 -71q-43 -14 -123 -60q-16 -20 -57 -55q-43 -16 -130 -59q-16 -18 -55 -50q-20 -4 -61 -14q-55 -39 -144 -78h-8q-8 2 -10 2q-14 0 -47 -19.5t-43 -21.5q-20 -2 -62 -6q-45 -27 -137 -67q-37 -10 -100 -11q-178 0 -160 70zM870 614q47 -10 88 -34q55 -33 76 -41 l6 6q41 59 99 184q2 10 2 19q0 6 -29 45q-12 0 -45 -9q-18 -8 -63 -61q-51 -59 -68 -72q-23 -10 -66 -37zM1036 1812q4 117 109 248l14 -6q-8 -78 -8 -117q0 -47 2 -61q2 -6 39 -27q31 -16 70 -16q70 0 233 76q43 23 129 65q12 6 35 15q25 0 74 6q80 25 88 24q18 0 33.5 -11 t37.5 -93q6 -20 11 -60l18 -47l-55 -69q-25 -12 -41 -13q-20 0 -21 25q2 55 -21.5 102.5t-51.5 47.5q-4 0 -35 -11q-8 -4 -17 -4q-10 0 -27.5 7.5t-27.5 7.5q-18 0 -53 -27q-43 -35 -54.5 -40t-22.5 -2t-24 -3q-18 -14 -53 -35q-39 -8 -100 -41q-12 -12 -37 -31 q-31 -14 -59 -8q-2 0 -15 12q-4 6 -26 -4q-61 -29 -60 -28q-6 0 -13 7t-15 9q-10 -2 -27 0q-31 18 -29 102z" />
<glyph unicode="&#xc4;" horiz-adv-x="1392" d="M-721 -125q6 20 43 41q51 31 54 34t40 46q25 29 47 33q6 2 19 2q-4 0 59 -19q43 -12 144 -12q131 0 196 20q25 16 74 41q33 6 98 25q16 12 51 33q35 10 101 41q31 27 92 73q20 6 57 25q45 27 107 80q94 80 100 86q55 35 156 113l2 6q-12 0 -33.5 22.5t-36.5 22.5 q-12 0 -59 -19q-18 -8 -37 -8q-14 0 -39 8.5t-39 8.5t-29 -5q-20 -14 -63 -38q-14 -6 -45 -2t-47 -5l-17 -8l2 -6q-23 -20 -33 -50t-18 -37t-47 -24q-23 -12 -35 -43l-18 -8l4 -6q-68 0 -80 6q-6 23 -64.5 31t-76.5 53q-12 33 -12 64q0 121 149 182q47 18 86 18q14 0 57 -4 q35 -6 66 -2q10 2 43 13q27 8 43 6q20 -10 61 -25q23 -4 67 5t64 5q20 -10 60 -26q25 4 74 0q23 -18 73 -43q12 -4 49 -8q14 16 46 49q27 16 73 55q20 35 66 100q37 33 102 107q6 14 19 41q20 18 55 57q23 37 72 107q31 23 77 73q8 14 31 93q8 31 27.5 59.5t25.5 42.5 q10 39 37 100h6q6 2 63.5 47t62.5 52.5t14 21.5q33 14 82 35q12 -8 34 -25q-14 -51 -53 -145q-14 -16 -37 -51q-23 -61 -82 -183q-16 -14 -43 -49q0 -10 -5 -33.5t-42 -79t-45 -81.5q-2 -16 -10 -49q-4 -18 -21 -39q-20 -29 -24 -37q-14 -37 -47 -113q-8 -18 -51 -86 q-98 -158 -119 -246q-12 -51 -8 -61q-70 -262 -86 -297q-4 -8 -21 -49q-14 -53 -80 -98l-114 -66l-13 -16h-6h-29q0 6 -4 37q-4 20 0 36q16 27 45 82q29 82 109 238q31 39 78 117l43 129q-23 2 -55.5 4t-34.5 5t-13 15q-25 23 -102 31q-14 -16 -45 -45l-264 -191 q-27 -27 -86 -71q-43 -14 -123 -60q-16 -20 -57 -55q-43 -16 -130 -59q-16 -18 -55 -50q-20 -4 -61 -14q-55 -39 -144 -78h-8q-8 2 -10 2q-14 0 -47 -19.5t-43 -21.5q-20 -2 -62 -6q-45 -27 -137 -67q-37 -10 -100 -11q-178 0 -160 70zM870 614q47 -10 88 -34q55 -33 76 -41 l6 6q41 59 99 184q2 10 2 19q0 6 -29 45q-12 0 -45 -9q-18 -8 -63 -61q-51 -59 -68 -72q-23 -10 -66 -37zM1169 1792q-6 -16 9 -45q4 -10 29.5 -20.5t39.5 -4.5q72 29 88 43q6 10 15.5 20.5t27.5 22.5q23 23 21 50q-6 39 -2 47q6 14 22 39q8 8 4 49l-6 2v-4q-14 39 -51 39 q-11 -1 -25 -7q-53 -20 -69.5 -43.5t-30.5 -46.5q-23 -25 -63 -80l-9 -6q2 -20 0 -55zM1882 1792q-6 -16 8 -45q8 -27 60 -27q6 0 12 2q72 29 88 43q6 10 15.5 20.5t27.5 22.5q23 23 21 50q-6 39 -3 47q4 12 23 39q6 8 2 49l-6 2v-4q-14 39 -49 39q-13 -1 -25 -7 q-53 -20 -70.5 -43.5t-31.5 -46.5q-23 -25 -62 -80l-8 -6q2 -20 -2 -55z" />
<glyph unicode="&#xc5;" horiz-adv-x="1392" d="M-721 -125q6 20 43 41q51 31 54 34t40 46q25 29 47 33q6 2 19 2q-4 0 59 -19q43 -12 144 -12q131 0 196 20q25 16 74 41q33 6 98 25q16 12 51 33q35 10 101 41q31 27 92 73q20 6 57 25q45 27 107 80q94 80 100 86q55 35 156 113l2 6q-12 0 -33.5 22.5t-36.5 22.5 q-12 0 -59 -19q-18 -8 -37 -8q-14 0 -39 8.5t-39 8.5t-29 -5q-20 -14 -63 -38q-14 -6 -45 -2t-47 -5l-17 -8l2 -6q-23 -20 -33 -50t-18 -37t-47 -24q-23 -12 -35 -43l-18 -8l4 -6q-68 0 -80 6q-6 23 -64.5 31t-76.5 53q-12 33 -12 64q0 121 149 182q47 18 86 18q14 0 57 -4 q35 -6 66 -2q10 2 43 13q27 8 43 6q20 -10 61 -25q23 -4 67 5t64 5q20 -10 60 -26q25 4 74 0q23 -18 73 -43q12 -4 49 -8q14 16 46 49q27 16 73 55q20 35 66 100q37 33 102 107q6 14 19 41q20 18 55 57q23 37 72 107q31 23 77 73q8 14 31 93q8 31 27.5 59.5t25.5 42.5 q10 39 37 100h6q6 2 63.5 47t62.5 52.5t14 21.5q33 14 82 35q12 -8 34 -25q-14 -51 -53 -145q-14 -16 -37 -51q-23 -61 -82 -183q-16 -14 -43 -49q0 -10 -5 -33.5t-42 -79t-45 -81.5q-2 -16 -10 -49q-4 -18 -21 -39q-20 -29 -24 -37q-14 -37 -47 -113q-8 -18 -51 -86 q-98 -158 -119 -246q-12 -51 -8 -61q-70 -262 -86 -297q-4 -8 -21 -49q-14 -53 -80 -98l-114 -66l-13 -16h-6h-29q0 6 -4 37q-4 20 0 36q16 27 45 82q29 82 109 238q31 39 78 117l43 129q-23 2 -55.5 4t-34.5 5t-13 15q-25 23 -102 31q-14 -16 -45 -45l-264 -191 q-27 -27 -86 -71q-43 -14 -123 -60q-16 -20 -57 -55q-43 -16 -130 -59q-16 -18 -55 -50q-20 -4 -61 -14q-55 -39 -144 -78h-8q-8 2 -10 2q-14 0 -47 -19.5t-43 -21.5q-20 -2 -62 -6q-45 -27 -137 -67q-37 -10 -100 -11q-178 0 -160 70zM870 614q47 -10 88 -34q55 -33 76 -41 l6 6q41 59 99 184q2 10 2 19q0 6 -29 45q-12 0 -45 -9q-18 -8 -63 -61q-51 -59 -68 -72q-23 -10 -66 -37zM1618 1808q0 4 11 36t13.5 36t8.5 8t8 7t2 10.5t5 12.5t20 19q2 8 6 23q4 4 12 14.5t10 16.5t11.5 16t31.5 25q25 23 70 57q14 4 37 18q14 16 28 33q23 19 54 19l2 -2 q8 0 27.5 -2.5t29.5 -2.5q23 0 31 -24q2 -16 4 -35l8 -8q2 -6 2 -21q0 -12 -8 -34.5t-8 -38.5q0 -23 -27 -49q-4 -10 -20 -33q-4 -4 -11 -7l-8 -4q-2 -12 -14 -32q-14 -8 -39 -29q-98 -94 -182 -92q-25 0 -70 24.5t-45 38.5zM1706 1839q0 -10 21.5 -26.5t35.5 -18.5 q55 0 72 21q6 14 14 30q8 2 27.5 11.5t26.5 35.5q8 35 12 41q39 53 39 90q0 27 -29 27q-43 0 -57.5 -14.5t-26.5 -30.5q-23 -14 -65 -51l-9 -4q-4 -18 -16 -52q-20 -25 -45 -59z" />
<glyph unicode="&#xc6;" horiz-adv-x="5074" d="M-41 -655h14q-8 20 -10 30l29 23q4 12 3 37.5t3 40.5l10 8v55v12l12 9q4 33 21 102q10 14 29 43q2 20 8 64q8 20 80.5 119.5t91.5 117.5q12 6 37 23q14 14 36.5 50t36.5 50q27 14 56 37l8 24q14 2 39 15q6 18 24 45q18 6 54 24q12 20 43 54q16 4 47 16q14 16 45 45 q25 10 72 33q41 18 120 74q78 49 123 69q59 14 172 53q20 16 62 41q12 4 37.5 3.5t37.5 3.5q47 20 144 53q35 0 104 8q309 55 557 55q145 0 189 31q25 16 47 59t22 72q0 14 13 23q20 12 22 14q10 12 17 37q6 33 8 41q20 16 49 59q0 27 12 78q16 10 39 39q0 20 10 61 q20 18 54 62q16 41 51 123q16 16 39 53q8 14 10 46t8 47t23 26q10 8 10 43q0 14 28.5 39.5t35 39t9.5 51.5t11 54t31 31q16 10 16 47q0 16 24.5 38.5t24.5 61.5q0 12 26.5 40t26.5 73q0 25 37 62.5t37 88.5q0 35 36 56.5t36 77.5q0 12 12 20t25 16q16 18 33.5 66.5t37 67 t40 35t20.5 51.5q0 27 37 69q47 55 53 66q18 51 74 139q25 12 69 45q12 29 49 76q29 6 72 33q2 18 14 53q12 23 53.5 55.5t53.5 50.5q4 20 22 54q14 20 50 38q43 23 55 33q18 31 61 84q39 23 111 76q14 29 53 76q47 27 117 86q4 6 6 17t7 18.5t30 15.5q18 6 29 41 q20 4 57 25q16 12 36.5 44.5t35.5 45.5q25 20 78 41.5t73 35.5q12 14 41 37q16 4 47 17l2 16q33 8 97 29q29 20 88 55q23 10 70.5 17.5t65 16.5t52.5 28q37 4 109 16q37 14 110 37q115 20 338 20q168 0 299 -20q43 -10 133 -23q25 0 78 -22q68 -29 76 -31q27 -2 73 -18 q20 -8 50 -31q35 -29 47 -37q25 -10 55 -31l96 -160q4 -6 4 -24q0 -102 -92 -174q-39 -31 -178 -101q-23 -18 -76 -47q-2 -2 -174 -24.5t-176 -22.5l-12 39q57 10 170 31q20 10 61 22q166 31 168 31q47 18 131 109q49 53 49 73q0 18 -14 60q-27 76 -43 92q-37 25 -72 51 q-27 35 -94 92q-12 6 -151.5 48t-151.5 42h-80q-23 0 -66.5 11.5t-64.5 11.5q-39 0 -112.5 -6t-108.5 -6q-10 0 -34.5 5t-39.5 3l-20 -2q-18 -8 -56 -23q-29 0 -88 -8q-23 -12 -73 -29q-57 -12 -115 -24q-68 -16 -111 -39q-14 -14 -47 -39q-37 -10 -102 -37q-16 -18 -53 -47 q-37 -12 -107 -45q-20 -14 -52 -51t-52 -51q-18 -4 -54 -21q-16 -27 -57 -69q-23 -12 -45.5 -24.5t-26.5 -37.5q-12 -4 -31.5 -15.5t-42 -49t-40.5 -52.5q-23 -6 -58 -30q-2 -10 -12 -29q-18 -8 -51 -31q-16 -29 -57 -78q-25 -12 -68 -43q-23 -20 -54.5 -70t-50.5 -69 q-27 -16 -75 -53q-20 -41 -74 -117q-43 -25 -115 -84q-4 -20 -18 -61l-21 -11q-10 -4 -16 -30q-10 -33 -12 -35q-18 -16 -54 -55q-2 -20 -18 -56q-14 -8 -35 -28q-10 -33 -45 -92q-16 -12 -45 -48q-8 -14 -15 -45.5t-14 -46.5q-29 -35 -75 -114q-4 -27 -19 -78 q-12 -27 -90 -121q-63 -76 -63 -127q0 -18 -19 -35q-20 -23 -22 -35t-9 -43q-6 -18 -33.5 -45.5t-33.5 -46.5q0 -35 -17 -94q-31 -8 -32 -29q-4 -31 -9.5 -38t-31.5 -23q-8 -6 -8 -47q0 -20 -19 -45q-25 -33 -29 -39q-6 -29 -24 -84q-23 -33 -64 -101q-6 -33 -26 -98 q-16 -37 -71.5 -102.5t-70.5 -106.5q-2 -14 -8 -47q-29 -47 -69 -151l34 -33q16 -4 50 -4q39 0 59 6q49 86 145 123q20 -35 25 -45v-49q0 -51 90 -66q66 -4 133 -10q14 -4 90 -25q18 31 70 82q27 25 72 90.5t65 87.5q35 20 90 68q4 10 15 24q215 166 260 193q27 8 78 33 q23 20 71 53q16 2 47 12q18 14 56 39q39 14 112 41q-2 6 3 14.5t5 12.5q0 6 -24.5 26.5t-24.5 55.5q0 43 66 139q14 20 43 37q45 29 47 31q20 23 70 61q33 18 64.5 45t48 33t52.5 20q14 14 43 35q68 53 173 70q54 8 122 8t215 -39l2 -33q-76 -37 -141 -102h2l-4 -2l-18 -2 l-2 2l2 2q-4 2 -9 20q0 10 17 54l-14 12q-25 0 -76 2h-78q-98 0 -145 -14q-29 -8 -64 -37q-43 -35 -57 -43q-176 -100 -176 -224q0 -47 77 -79q63 -27 119 -27q18 0 49 9t45 11h86q20 0 58.5 5.5t56.5 5.5q47 0 45 -21q0 -2 -3 -10t-3 -10q-47 -14 -94 -29q-39 -12 -101 -12 q-14 0 -31.5 -9.5t-25.5 -11.5l-86 2q-129 4 -213 -24q-23 -10 -45 -19q-12 -6 -53 -6q-14 0 -29 -10q-23 -16 -22 -16q-35 -6 -101 -31q-10 -12 -35 -31q-33 -10 -94 -37q-33 -23 -98 -67q-18 -6 -55 -25q-86 -63 -217 -192q-31 -45 -97 -129q-47 -51 -135 -170 q61 -20 184 -56l19 -55l-51 2l-25 -2l6 -12h-49l-14 -2l6 -17h-33q-51 0 -98 33q-4 -10 -4 -33q-2 -10 -25 -59q-18 -39 -18 -105q0 -16 6 -49t6 -49q6 -166 55 -246q18 -16 51 -49q0 -8 54 -55q27 -35 92 -88q16 -4 51 -12q119 -39 162 -46.5t166 -7.5q27 0 78 -4t75 -4 q39 0 103.5 15.5t101.5 15.5q23 0 180 45q20 14 68 37q14 0 45 6q6 2 19.5 13t23.5 11h29l-11 -24q-25 -6 -122 -53q-82 -39 -123 -39q-8 0 -28.5 -12.5t-25.5 -14.5q-37 -14 -102 -27q-74 -14 -102 -22q-18 -10 -60 -25q-33 -6 -175 -16t-181 -10q-20 0 -52 10t-48 12 q-41 -4 -117 11q-57 14 -162 67q-8 14 -29 45q-12 4 -32 17q-12 18 -41 55q-45 45 -88 92q-27 37 -27 125v6l-8 10q-2 8 -2 49q0 20 -13.5 59.5t-13.5 59.5q0 33 57 168q55 129 78 160q-92 20 -172 20q-82 0 -102.5 -15t-18.5 -89q0 -49 -34 -78v-49q0 -10 -8.5 -26.5 t-8.5 -65.5q0 -12 -11 -37t-11 -39t8 -77.5t12 -74.5q10 -29 36 -44t28 -27q0 -4 8 -15q-39 -20 -64 -22q41 2 -67 4q-27 0 -47.5 -21.5t-32.5 -21.5h-23l-22 14q0 12 -3 37t-3 37q0 16 13 42t13 44q0 14 -5 46t-5 48q0 35 35 96.5t35 98.5q0 10 -4 26.5t-4 24.5l18 16 q-2 18 -2 54q0 12 9 34.5t9 34.5q0 10 -7 28.5t-9 23.5q-35 12 -74 26.5t-69 14.5q-45 0 -70 -27q-39 -45 -50 -49t-34 -17q2 -6 4 -22q0 -25 -24.5 -45.5t-22.5 -55.5q-8 -16 -40 -36.5t-42 -32.5q-6 -18 -27 -55q-18 -10 -55 -35q-12 -25 -49 -64q-8 0 -21.5 -7 t-22.5 -27.5t-17 -26.5q-25 -6 -66 -29q-10 -8 -18.5 -31.5t-16.5 -31.5q-37 -39 -117 -74q-123 -55 -127 -57q-29 -20 -57 -41q-20 -12 -82 -13q-168 2 -334 86l-12 37q14 6 37 25q6 6 27 53q14 33 49 33q29 0 63 -23q49 -29 58 -33q102 -41 239 -40q41 0 98.5 17t86.5 40 q14 18 45 43q20 2 59 16q14 10 22.5 39t16.5 39q18 8 51 29q12 20 41 61q25 16 68 53q4 20 24 54q12 4 35 18q14 12 27.5 45t23.5 45q2 2 37 29q25 16 25 35q0 18 -14.5 32.5t-16.5 20.5q-117 0 -373 -10q-315 -12 -360 -29q-12 -8 -39 -22q-33 0 -96 -9q-31 -6 -76 -28 q-59 -29 -72 -33q-39 -8 -113 -31q-35 -25 -108 -59q-8 -2 -25.5 -3t-25.5 -5q-12 -18 -43 -50q-16 0 -45 -6q-14 -4 -36 -25.5t-32 -27.5q-27 -8 -74 -31q-25 -31 -84 -86q-23 -8 -59 -30q-4 -16 -20 -47q-12 -14 -48 -31t-49 -29q-35 -31 -123 -143.5t-104 -147.5 q-27 -57 -45 -147q-16 -78 -33 -154q16 -25 21 -84h-15q0 -10 10.5 -29.5t8.5 -29.5q0 -4 -7.5 -13.5t-7.5 -19.5l6 -31q4 -49 25 -143q23 -63 72 -125q8 -25 22 -67q6 -14 35 -44t29 -49q0 -31 -35 -58.5t-66 -27.5q-14 6 -32 6q-39 43 -86 117q-2 27 -15 82q-2 4 -49 103 q-20 43 -20 127q0 25 -14.5 67.5t-12.5 65.5zM3035 1696q0 16 43 98t60.5 100.5t48.5 55.5q8 35 35 98q20 18 47 63v23q0 18 22 41q33 31 35 35q10 31 39 84q33 29 92 94q8 23 29 68q27 18 71 61q6 23 25 61q31 27 76 93q2 18 14 47q4 4 15.5 8t15.5 8q14 23 49 62 q23 10 61 36q8 8 20.5 30t20.5 30q20 10 60 33q20 27 65 75q37 16 101 62q4 4 9 15t9 15q25 6 70 23q33 29 104 78q27 6 76 24q4 2 29 21q10 8 38 8q12 0 29 18.5t19 20.5q35 10 102 41q4 2 22.5 19.5t24.5 17.5l23 -2q16 0 52 22.5t48 26.5q33 2 94 14q8 8 33 23 q10 4 34.5 4t51.5 10q35 14 47 17q-10 -2 72 -3q16 0 44 12.5t42 12.5q31 0 40 -14.5t13 -16.5q-51 -27 -154 -41q-123 -16 -161 -28q-59 -27 -179 -74q-53 -12 -139 -47q-8 -12 -25.5 -29.5t-52.5 -30.5q-45 -12 -55 -18q-18 -18 -61 -47q-16 0 -54 -6q-37 -12 -137 -84 q-27 -27 -82 -78q-41 -20 -121 -70q-25 -18 -53 -59q-37 -49 -51 -64q-27 -18 -76 -61q-10 -25 -41 -70q-27 -27 -76 -84q0 -2 -8 -23.5t-14 -21.5h-14q-14 -20 -39 -76.5t-47 -78.5q-16 -8 -43 -29q-12 -12 -24.5 -43t-20.5 -43q-121 -156 -228 -321q-8 -27 -37 -72 q-8 -2 -24 -12q-4 -23 -25 -64q-16 -12 -43 -45q-6 -31 -37 -76q-12 0 -35 -10q0 4 -7 16.5t-7 16.5zM4583 27l2 2l-2 18l5 10q57 -2 245 228q16 31 56 94q12 10 28 35q14 35 15 80q0 63 -23 124q5 13 21 13q23 0 30.5 -23.5t14.5 -46.5q16 -14 16 -33q0 -74 -33 -135 q-14 -27 -76 -108q-18 -31 -61 -92q-20 -23 -172 -136q-8 -10 -19.5 -21t-21.5 -9h-25zM5382 3529q66 12 129 26q78 15 131 15q47 0 60 -13q-6 -27 -142 -43q-82 -6 -166 -14z" />
<glyph unicode="&#xc7;" horiz-adv-x="1392" d="M68 184q-2 25 12 70t14 68v10l-12 18l-2 12q-2 14 4 42t6 40q0 14 -8 43t-8 43t13 54.5t13 77.5q0 6 18.5 55t27 58t24.5 34q6 20 4 51l-4 49q0 4 48 105.5t54 109.5q14 8 37 31q12 16 21.5 56t20.5 57.5t47 49.5t48 50q10 31 41 90q39 53 99 90q14 2 39 13 q12 8 34.5 43.5t65.5 62.5l25 -6v-25q0 -23 -48 -53q-35 -23 -67 -43q-25 -20 -88.5 -113.5t-77.5 -128.5q-4 -25 -18 -71q-10 -12 -29 -37q-25 -59 -84 -172q-12 -10 -31 -35q0 -35 -10 -104q-12 -12 -31 -39q0 -14 -6 -41q-27 -27 -27 -62q0 -16 5.5 -49t5.5 -51 q0 -20 -11.5 -71.5t-11.5 -96.5q0 -25 -8 -73t-8 -72q0 -23 8 -66t8 -78q0 -20 15 -39q23 -29 24 -35q4 -25 21.5 -73.5t80.5 -93.5q4 -2 113 -66q12 -12 43 -31q35 0 107 -8q6 -2 45 -22q27 -12 49 -13q10 0 79.5 32t86.5 42q20 20 67 53q23 2 66 13l-2 6q12 6 66.5 50 t61.5 55t9 40t6 39q8 23 43 72q16 23 35 47q2 8 -2 47q0 16 31.5 47t31.5 61q0 25 -21.5 60t-21.5 57q2 68 0 98q8 23 7 35q-16 27 -19 60q0 14 -12 29.5t-10 35.5q-10 16 -37 23q-37 10 -43 14q-14 20 -54 49q-20 8 -77 8q-37 0 -58 -10q-41 -20 -49 -24q-76 -27 -88 -39.5 t-43 -91.5l-12 -11v-22q0 -74 57 -72q23 0 60.5 24.5t62.5 24.5q-10 0 53 -14q0 -27 27 -61.5t27 -53.5q0 -8 -8.5 -36.5t-8.5 -53.5v-10q-29 -37 -55 -74q-25 -29 -98 -29q-180 0 -183 168q0 20 -8 66.5t-8 71.5q0 20 21.5 55t21.5 51q0 27 70 90q66 57 100 72q16 2 49 10 q4 2 21 19q8 8 28 8q18 0 54 -7.5t57 -7.5q35 0 51 -24q23 -39 33 -45q25 -10 71 -37q59 -51 58 -150q0 -18 22.5 -56t22.5 -73q0 -125 -2 -108q-4 -2 -4 -6h2l8 -2q-2 0 -8 2h-4q8 -74 8 -58q0 -20 -23.5 -44.5t-23.5 -84.5q0 -20 -25 -53q-20 -23 -41 -47q-14 -31 -51 -90 q-14 -20 -47 -39q-43 -25 -51 -31q-16 -20 -56 -55q-23 -6 -65 -29q-82 -57 -82 -86q0 -20 22 -49q10 -6 25 -20q2 -23 8 -64q18 -33 43 -104q-4 -27 -8 -78l16 -25q2 -10 -2 -28.5t-4 -24.5q0 -25 2 -90q4 -55 0 -88q-2 -49 -18 -92q-8 -20 -57.5 -41t-69.5 -13h-2 q-20 8 -31 31l-16 39q-8 4 -23 14q-14 18 4 95q10 27 50 65.5t51 65.5l6 24l-6 17q10 111 4 137l-13 16q4 14 5 45q-14 20 -33 68q-8 35 -17 70q-8 25 -32 24q-25 0 -86 -26q-33 -14 -80 -15q-14 0 -44 7.5t-46 7.5q-10 0 -31 -3.5t-33 -3.5t-27.5 10.5t-21.5 12.5 q-41 4 -119 31q-14 8 -26.5 32.5t-20.5 32.5q-29 14 -74 53q-10 14 -16 43q-6 39 -8 48q-12 16 -31.5 49.5t-62.5 105.5zM848 1763v4q23 25 65 60q35 6 101 31q10 12 39.5 36.5t98.5 45t83 30.5l16 2q31 4 84 -2q66 -10 84 -10q8 0 25 -2l18 -12q16 -2 43 0q35 2 45 2 q84 0 192.5 -102.5t125.5 -184.5q0 4 -2 -78q-2 -63 4 -78q2 -4 45 -53h4q27 0 75 23.5t77 23.5h10q14 16 43 31q37 20 47 29q18 25 59 65q23 8 66 25q18 16 53 49q16 6 47 22q12 12 25 37q12 33 18 41q20 16 51 53q4 6 7.5 20.5t7.5 20.5l16 15q10 18 43 129l12 12 q2 8 2 25q0 29 -23.5 79t-23.5 78q0 18 8.5 52t18.5 40q8 0 22 7q2 2 33 30q18 17 41 17t62 -36t39 -59q0 -61 -27 -133q-27 -61 -51 -125q0 -18 -13 -53l-24 -18q-2 -27 -17 -76q-10 -20 -36 -43q-35 -29 -43 -41q-6 -20 -27 -53q-10 -2 -33 -13q-27 -25 -82 -65 q-23 -8 -65 -31q-8 -12 -31 -37q-39 -20 -111 -82q-37 -10 -90 -28q-20 -18 -67 -49q-20 -2 -66 -11q-23 -8 -55.5 -35.5t-49 -36t-50.5 -12.5q-27 -4 -52 -24l-18 -2q-25 0 -25 18l31 93q31 94 31 114q0 33 -25 68q-35 49 -38 61t-15 35q-8 12 -47 35q-45 25 -53 30 q-10 16 -37 43q-18 12 -132 31t-145 19q-41 0 -140 -30t-140 -30q-33 0 -82 -31.5t-80 -29.5q-2 -8 -2 24z" />
<glyph unicode="&#xc8;" horiz-adv-x="2344" d="M98 311q0 -23 8 -51q12 -39 15 -51q0 -20 2 -64l10 -12q-4 -18 -4 -57q6 -51 43 -94q39 -35 76 -70q10 -20 41 -57q12 -4 33 -17q6 -16 30 -45q68 -49 113 -49q25 0 29 -2q10 -10 18 -14q23 -10 74 -11.5t71 -9.5q37 -14 72 -14q45 0 115 8q98 8 117 10q41 0 124 8 q20 8 60 25q68 14 205 51q6 2 25.5 13.5t25.5 11.5q31 0 41 6q27 14 35 16q16 2 49 13q39 23 123 57l10 25h-29q-12 0 -22 -11q-16 -12 -23 -14q-14 0 -43 -6q-23 -16 -67 -39h-7q-31 0 -88 -21.5t-86 -21.5h-57q-20 -10 -59 -25q-29 -6 -91 -6q-23 0 -73.5 3t-79.5 3 q-90 -2 -96 -2q-61 2 -230 58q-18 2 -53 12q-20 10 -49 44t-41 44q-10 2 -29 12q-6 14 -22 41q-20 14 -54 49q-47 80 -53 248q0 16 -7 49t-7 52q0 29 6 88q4 20 18.5 40.5t15.5 32t7 35.5q41 96 145 234q16 12 45 43q29 45 97 129q12 8 35 26q6 12 26.5 37t63.5 55 q61 43 69 51.5t25 22.5q18 8 53 25q33 25 96 65q33 10 95 39q12 10 36 31q33 10 99 31q8 2 26 16q12 10 27 10q8 0 22.5 -2t20.5 -2q16 10 53 27q78 25 215 24q80 0 87 2t23.5 9.5t33.5 7.5q41 -2 57 0q23 0 41 12q29 18 37 21q20 4 57 10q4 6 10 20q4 20 -49 21 q-16 0 -55 -4t-59 -4q-72 2 -86 0q-12 -2 -39 -12.5t-52 -10.5q-43 0 -110 25q-74 27 -84 57q-6 20 -2 45q8 45 52 104.5t89 85.5q12 4 35 13q35 27 67.5 51.5t83 33.5t113.5 9h152q2 -8 16 -12q-2 -8 -7 -24.5t-7 -22.5q-6 -20 6 -27l-2 -4q0 -2 2 0q12 0 18 2h2 q57 57 88 82q18 8 54 22l-2 31q-31 12 -101 31q-48 8 -114 8q-78 0 -125 -6q-80 -10 -170 -68q-14 -14 -45 -37q-16 -6 -52 -20q-25 -25 -79 -68l-35 -14q-20 -20 -66 -59q-35 -18 -90 -68q-6 -14 -22 -43q-14 -16 -25.5 -31.5t-17.5 -46.5q-8 -47 19.5 -71.5t25.5 -30.5 q0 -2 -3.5 -8.5t-3.5 -10.5v-6q-39 -14 -112 -45q-18 -12 -56 -35q-16 -2 -47 -12q-23 -20 -71 -55q-27 -8 -78 -33q-16 -14 -51 -37.5t-103 -66.5q-25 -29 -82 -74q-10 -2 -26 -10q-2 -8 -11 -25q-33 -20 -92 -70q-8 -14 -24 -41l-80 -86q-8 -18 -33 -51q-12 -6 -35 -24 q-14 -25 -43 -74q-27 -25 -75 -76q-33 -43 -60 -111q-20 -57 -41 -114q-14 -23 -35 -80q-2 -14 -2 -27zM1602 2478q18 -27 22 -37q4 -8 0 -47q-2 -29 21 -51q12 -6 28 -19q16 -27 53 -71q55 -39 97 -49q10 2 28 -2q12 -4 37 -28t64 -36l16 8l-6 21q-4 10 -43 52t-64 105v3 q-16 16 -40 43v38q-10 20 -33 60q-14 23 -30.5 46t-70.5 46q-12 6 -24 6q-35 0 -49 -39l-2 2l-4 -2q-4 -39 0 -49zM1860 27h24q10 0 25.5 15t17.5 17q61 41 172 136q18 31 60 92q16 16 45 51q45 70 61 154q6 33 0 53q-6 6 -13 23.5t-15 41t-31 23.5h-2q-16 0 -17 -12 q0 -2 11 -43q10 -47 10 -84q0 -33 -13 -78q-12 -12 -32 -37q-16 -31 -54 -92q-16 -12 -45 -41q-2 -8 -10 -25q-20 -16 -57 -51q-12 -20 -43 -57q-55 -55 -90 -54q-4 -4 -4 -10q2 6 2 -18z" />
<glyph unicode="&#xc9;" horiz-adv-x="2344" d="M96 311q0 -23 8 -51q12 -39 15 -51q0 -20 2 -64l10 -12q-4 -18 -4 -57q6 -51 43 -94q39 -35 76 -70q10 -20 41 -57q12 -4 32 -17q6 -16 31 -45q68 -49 113 -49q25 0 29 -2q10 -10 18 -14q23 -10 74 -11.5t71 -9.5q37 -14 72 -14q45 0 115 8q98 8 116 10q41 0 125 8 q20 8 60 25q68 14 205 51q6 2 25.5 13.5t25.5 11.5q31 0 41 6q27 14 35 16q16 2 49 13q39 23 123 57l10 25h-29q-12 0 -22 -11q-16 -12 -23 -14q-14 0 -43 -6q-23 -16 -67 -39h-7q-31 0 -88 -21.5t-86 -21.5h-57q-20 -10 -59 -25q-29 -6 -91 -6q-23 0 -73.5 3t-79.5 3 q-90 -2 -96 -2q-61 2 -230 58q-18 2 -53 12q-20 10 -49 44t-41 44q-10 2 -29 12q-6 14 -22 41q-20 14 -54 49q-47 80 -53 248q0 16 -7 49t-7 52q0 29 6 88q4 20 18.5 40.5t15.5 32t7 35.5q41 96 145 234q16 12 45 43q29 45 97 129q12 8 34 26q6 12 27 37t64 55 q61 43 69 51.5t25 22.5q18 8 53 25q33 25 96 65q33 10 94 39q12 10 37 31q33 10 99 31q8 2 26 16q12 10 27 10q8 0 22.5 -2t20.5 -2q16 10 53 27q78 25 215 24q80 0 87 2t23.5 9.5t33.5 7.5q41 -2 57 0q23 0 41 12q29 18 37 21q20 4 57 10q4 6 10 20q4 20 -49 21 q-16 0 -55 -4t-60 -4q-72 2 -86 0q-12 -2 -38.5 -12.5t-51.5 -10.5q-43 0 -110 25q-74 27 -84 57q-6 20 -2 45q8 45 52 104.5t89 85.5q12 4 35 13q35 27 67.5 51.5t83 33.5t113.5 9h152q2 -8 16 -12q-2 -8 -7 -24.5t-7 -22.5q-6 -20 6 -27l-2 -4q0 -2 2 0q12 0 18 2h2 q57 57 88 82q18 8 54 22l-2 31q-31 12 -101 31q-48 8 -114 8q-78 0 -125 -6q-80 -10 -170 -68q-14 -14 -45 -37q-16 -6 -52 -20q-25 -25 -80 -68q-10 -4 -34 -14q-20 -20 -66 -59q-35 -18 -90 -68q-6 -14 -23 -43q-14 -16 -25 -31.5t-18 -46.5q-8 -47 20 -71.5t26 -30.5 q0 -2 -3.5 -8.5t-3.5 -10.5v-6q-39 -14 -112 -45q-18 -12 -56 -35q-16 -2 -47 -12q-23 -20 -71 -55q-27 -8 -78 -33q-16 -14 -51 -37.5t-103 -66.5q-25 -29 -82 -74q-10 -2 -26 -10q-2 -8 -11 -25q-33 -20 -92 -70q-8 -14 -24 -41l-80 -86q-8 -18 -33 -51q-12 -6 -35 -24 q-14 -25 -43 -74q-27 -25 -76 -76q-33 -43 -59 -111q-20 -57 -41 -114q-14 -23 -35 -80q-2 -14 -2 -27zM1858 27h24q10 0 25.5 15t17.5 17q61 41 172 136q18 31 60 92q16 16 45 51q45 70 61 154q6 33 0 53q-6 6 -13 23.5t-15 41t-31 23.5h-2q-16 0 -17 -12q0 -2 10 -43 q10 -47 11 -84q0 -33 -13 -78q-12 -12 -32 -37q-16 -31 -54 -92q-16 -12 -45 -41q-2 -8 -10 -25q-20 -16 -57 -51q-12 -20 -43 -57q-55 -55 -90 -54q-4 -4 -4 -10q2 6 2 -18zM1937 2165l7 20q4 10 43.5 52.5t64.5 105.5l-2 2q18 16 43 43l-2 39q10 20 33 59q14 23 30.5 46.5 t71.5 45.5q12 6 25 7q35 0 49 -39v2l6 -2q4 -39 0 -49q-18 -27 -22 -37q-4 -8 0 -47q2 -29 -21 -52q-10 -6 -29 -18q-16 -27 -53 -72q-55 -39 -96 -49q-10 2 -25.5 -2t-40 -27.5t-63.5 -35.5z" />
<glyph unicode="&#xca;" horiz-adv-x="2344" d="M98 309q0 -23 8 -51q12 -39 15 -51q0 -20 2 -64l10 -12q-4 -18 -4 -57q6 -51 43 -94q39 -35 76 -70q10 -20 41 -57q12 -4 33 -17q6 -16 30 -45q68 -49 113 -49q25 0 29 -2q10 -10 18 -14q23 -10 74 -11.5t71 -9.5q37 -14 72 -14q45 0 115 8q98 8 117 10q41 0 124 8 q20 8 60 25q68 14 205 51q6 2 25.5 13.5t25.5 11.5q31 0 41 6q27 14 35 16q16 2 49 13q39 23 123 57l10 24h-29q-12 0 -22 -10q-16 -12 -23 -14q-14 0 -43 -6q-23 -16 -67 -39h-7q-31 0 -88 -21.5t-86 -21.5h-57q-20 -10 -59 -25q-29 -6 -91 -6q-23 0 -73.5 3t-79.5 3 q-90 -2 -96 -2q-61 2 -230 58q-18 2 -53 12q-20 10 -49 44t-41 44q-10 2 -29 12q-6 14 -22 41q-20 14 -54 49q-47 80 -53 248q0 16 -7 49t-7 51q0 29 6 89q4 20 18.5 40.5t15.5 31.5t7 36q41 96 145 234q16 12 45 43q29 45 97 129q12 8 35 26q6 12 26.5 37t63.5 55 q61 43 69 51.5t25 22.5q18 8 53 25q33 25 96 65q33 10 95 39q12 10 36 31q33 10 99 31q8 2 26 16q12 10 27 10q8 0 22.5 -2t20.5 -2q16 10 53 27q78 25 215 24q80 0 87 2t23.5 9.5t33.5 7.5q41 -2 57 0q23 0 41 12q29 18 37 20q20 4 57 11q4 6 10 20q4 20 -49 21 q-16 0 -55 -4.5t-59 -4.5q-72 2 -86 0q-12 -2 -39 -12t-52 -10q-43 0 -110 25q-74 27 -84 57q-6 20 -2 45q8 45 52 104.5t89 85.5q12 4 35 13q35 27 67.5 51t83 33.5t113.5 9.5h152q2 -8 16 -12q-2 -8 -7 -24.5t-7 -23.5q-6 -20 6 -26l-2 -4q0 -2 2 0q12 0 18 2h2 q57 57 88 82q18 8 54 22l-2 31q-31 12 -101 31q-48 8 -114 8q-78 0 -125 -6q-80 -10 -170 -68q-14 -14 -45 -37q-16 -6 -52 -20q-25 -25 -79 -68l-35 -14q-20 -20 -66 -59q-35 -18 -90 -68q-6 -14 -22 -43q-14 -16 -25.5 -31.5t-17.5 -46.5q-8 -47 19.5 -71.5t25.5 -30.5 q0 -2 -3.5 -8.5t-3.5 -10.5v-6q-39 -14 -112 -45q-18 -12 -56 -35q-16 -2 -47 -12q-23 -20 -71 -55q-27 -8 -78 -33q-16 -14 -51 -38t-103 -67q-25 -29 -82 -73q-10 -2 -26 -11q-2 -8 -11 -24q-33 -20 -92 -70q-8 -14 -24 -41l-80 -86q-8 -18 -33 -51q-12 -6 -35 -24 q-14 -25 -43 -74q-27 -25 -75 -76q-33 -43 -60 -111q-20 -57 -41 -114q-14 -23 -35 -80q-2 -14 -2 -27zM1559 2083q-2 0 10 20q4 18 26 60q12 10 33 26q6 12 27 37q8 6 25.5 16.5t23.5 14.5l4 10q49 27 137 82q14 10 27 43q12 27 47 43q14 6 41 16q10 0 25 -6q2 -4 4 -14 q10 -8 24 -18q25 -23 37 -39q0 -12 10 -37q14 -6 37 -21q6 -14 23 -45q8 -4 24 -10q10 -4 21.5 -23.5t15.5 -23.5q31 -20 68 -68q8 -29 -74 -28q-74 0 -86 10q-4 10 -16 29q-35 18 -88 61q4 10 -13 29q-8 4 -24 10q-8 4 -12.5 25.5t-26.5 31.5q-31 14 -39 15 q-4 0 -11.5 -8.5t-19.5 -14.5q-39 -20 -92 -82q-20 -18 -45 -49q-4 -12 -33 -45t-45 -43q-20 -2 -53 -8q-2 4 -12 4zM1860 25h24q10 0 25.5 15t17.5 17q61 41 172 136q18 31 60 92q16 16 45 51q45 70 61 153q6 33 0 54q-6 6 -13 23.5t-15 41t-31 23.5h-2q-16 0 -17 -13 q0 -2 11 -43q10 -47 10 -83q0 -33 -13 -78q-12 -12 -32 -37q-16 -31 -54 -92q-16 -12 -45 -41q-2 -8 -10 -25q-20 -16 -57 -51q-12 -20 -43 -57q-55 -55 -90 -54q-4 -4 -4 -10q2 6 2 -18z" />
</font>
</defs>
</svg>
