<?xml version="1.0" standalone="no"?>
<!DOCTYPE svg PUBLIC "-//W3C//DTD SVG 1.1//EN" "http://www.w3.org/Graphics/SVG/1.1/DTD/svg11.dtd" >
<svg xmlns="http://www.w3.org/2000/svg">
<metadata></metadata>
<defs>
<font id="berkeley_oldstyleitalic" horiz-adv-x="1127" >
<font-face units-per-em="2048" ascent="1638" descent="-410" />
<missing-glyph horiz-adv-x="361" />
<glyph unicode="&#xd;" horiz-adv-x="361" />
<glyph unicode=" "  horiz-adv-x="361" />
<glyph unicode="&#x09;" horiz-adv-x="361" />
<glyph unicode="&#xa0;" horiz-adv-x="361" />
<glyph unicode="!" horiz-adv-x="436" d="M69 67q0 38 24 66t66 28q17 0 37 -4t40 -31.5t20 -58.5q-4 -40 -34.5 -67t-70.5 -27q-38 4 -60 30t-22 64zM188 335l84 664q13 109 24.5 245t19.5 226l57 -6q48 1 71 -30q6 -8 8 -38.5t2 -42.5q0 -59 -8 -132t-23 -141l-168 -743z" />
<glyph unicode="&#x22;" horiz-adv-x="484" d="M153 1053l15 367q0 105 88 105q36 0 51 -18t15 -49q0 -23 -6 -40l-92 -365h-71zM352 1053l17 367q0 105 87 105q36 0 50.5 -18t14.5 -49q0 -23 -6 -40l-92 -365h-71z" />
<glyph unicode="#" horiz-adv-x="1360" d="M103 500l73 128h237l152 371h-190l-57 -6l-54 -9l77 126h271l163 389h86l-164 -387h350l159 387h82l-149 -387h151q4 0 52 10l40 5l-63 -126h-232l-153 -375h180q23 4 48 9l48 16l-71 -138h-251l-161 -385h-84l159 393h-345l-160 -389h-85l161 391l-136 1 q-33 0 -57.5 -6.5t-43.5 -10.5zM498 626h350l153 375h-344z" />
<glyph unicode="$" horiz-adv-x="1006" d="M69 189q0 31 18 42.5t51 11.5q67 0 130 -90q29 -40 25 -57q46 -21 94 -27l44 -2l92 666l-43 27q-140 84 -199 151q-84 94 -84 218q0 157 124.5 264.5t289.5 107.5h19l23 151h61l-21 -149l21 -4l32 -6q78 -10 167 -69q73 -50 73 -109q0 -23 -18.5 -37.5t-41.5 -14.5 q-63 0 -114 67q-44 57 -37 75q-17 10 -40 15l-27 6l-23 2l-78 -571l69 -40q128 -77 189 -157q75 -98 75 -227q0 -155 -126.5 -283.5t-304.5 -147.5l-19 -2l-21 -145h-63l19 139l-65 6q-100 0 -195.5 65t-95.5 124zM325 1166q0 -77 58 -146q48 -57 138 -115l21 -15l76 547 l-21 -1q-113 0 -192.5 -76t-79.5 -194zM498 73l28 2q111 11 197.5 102t86.5 217q0 105 -58 176q-44 56 -147 115l-19 12z" />
<glyph unicode="%" horiz-adv-x="1565" d="M142 1013q0 205 155 361.5t344 156.5q100 0 153 -86q46 -73 46 -186q0 -178 -134 -346q-145 -182 -325 -182q-138 0 -199 115q-40 75 -40 167zM268 1024q0 -96 38 -157q48 -75 136 -75q124 0 207 140q76 130 76 291q0 111 -47.5 175t-114.5 64q-124 0 -209.5 -136.5 t-85.5 -301.5zM325 -59l18 34q84 170 139 278q71 138 130 243q75 132 161 262q80 122 224 312q103 136 216 277q50 63 102 127l25 34h86l-35 -44q-153 -180 -214 -256q-109 -136 -201 -268q-101 -145 -224 -356q-115 -197 -183 -333t-102 -220l-25 -56zM825 235 q0 205 143.5 364t327.5 159q100 0 155 -86q50 -79 50 -188q0 -184 -123 -350q-136 -184 -316 -184q-115 0 -176 73t-61 212zM942 251q0 -94 40 -157q48 -75 134 -75q124 0 203 140q71 126 71 291q0 113 -43.5 176t-110.5 63q-124 0 -209 -137t-85 -301z" />
<glyph unicode="&#x26;" horiz-adv-x="1866" d="M82 456q0 191 129.5 350t274.5 207q-15 34 -21 53q-21 63 -21 107q0 155 129 248t309 93q77 0 175 -29q33 -10 82 -28l-17 -152q-4 -31 -29 -28q-21 0 -27 29.5t-53 58.5q-56 34 -136 34q-132 0 -228 -75.5t-96 -203.5q0 -29 15 -71q34 8 56 11q71 13 101 14 q80 0 140.5 -28t60.5 -87q0 -52 -53 -82q-44 -25 -100 -25q-71 0 -162 51q-31 17 -81 54q-285 -124 -285 -436q0 -205 139.5 -339t365.5 -134q207 0 360 107q170 119 170 302l-1 31l-154 71q-86 38 -91 40q-48 19 -81 15q-86 -8 -124 -78q-11 -23 -21 -69h-65q19 84 44 126 q78 128 241 129q57 0 321 -108q122 -50 230 -49q48 0 100 32q63 40 68 102v38q-27 25 -40 40q-42 52 -42 100q0 27 12.5 48.5t43.5 16.5q48 -6 74 -73q21 -53 21 -103q0 -134 -96.5 -231t-230.5 -97q-34 0 -59 4t-60 17l-5 -32q-48 -232 -241 -356q-182 -117 -450 -117 q-255 0 -423.5 139t-168.5 363zM612 986q13 -23 54.5 -44t85.5 -21q33 0 55 10.5t18 29.5q0 29 -28 39.5t-68 10.5q-48 0 -67 -3t-50 -22z" />
<glyph unicode="'" horiz-adv-x="287" d="M142 1053l15 367q0 54 24 79.5t66 25.5q34 0 48.5 -19t14.5 -49v-20q-4 -13 -4 -19l-94 -365h-70z" />
<glyph unicode="(" horiz-adv-x="811" d="M96 620q0 61 5 113q31 268 194 517q184 278 467 417l38 17l12 -55l-41 -21q-237 -132 -363 -339q-113 -186 -165 -484q-17 -96 -17 -220q0 -222 63 -402q78 -222 243 -341l38 -25l-38 -55l-31 13q-212 119 -319 394q-86 220 -86 471z" />
<glyph unicode=")" horiz-adv-x="800" d="M31 -186l42 23q237 132 363 339q113 186 163 482q8 42 13.5 104.5t5.5 121.5q0 222 -63 398q-78 218 -243 339l-40 27l42 55l27 -15q212 -119 321 -396q86 -220 86 -471q1 -59 -5 -109q-29 -270 -194 -519q-184 -278 -467 -415l-38 -19z" />
<glyph unicode="*" horiz-adv-x="955" d="M122 1104q98 10 196 52q63 25 132 71q-38 21 -70 34.5t-72 27t-77.5 24t-81.5 15.5q17 54 48 102q13 23 25 38t31 36q23 -40 52.5 -76.5t67.5 -66.5q27 -21 55.5 -40t61.5 -37q10 46 12.5 87.5t2.5 73.5q0 101 -30 203q27 0 50.5 -1t69.5 -8.5t48 -7.5q23 -10 35 -14 q-31 -46 -53 -93.5t-35 -101.5q-21 -63 -29 -143q75 33 147 90q34 29 64 62t57 73q40 -38 61 -88q13 -25 20 -51t9 -39q-92 -10 -186 -46q-54 -19 -92 -40q-33 -21 -51 -32q31 -19 59.5 -33.5t67.5 -31t66 -24t99 -20.5q-17 -48 -47 -92q-17 -23 -28 -35.5t-36 -31.5 q-52 84 -122 141q-27 23 -51 38.5t-56 32.5q-6 -31 -8 -69t-2 -80q0 -94 31 -186q-19 -2 -50 -2q-33 0 -51 3t-41 8t-52 14q44 75 69 155q31 82 41 173q-71 -36 -133 -87q-42 -34 -69.5 -64.5t-60.5 -76.5q-44 36 -69 80q-10 21 -16.5 42t-8.5 42z" />
<glyph unicode="+" horiz-adv-x="1234" d="M96 484l15 117h471l59 479h117l-59 -479h476l-11 -119h-477l-59 -484h-119l61 486h-474z" />
<glyph unicode="," horiz-adv-x="356" d="M10 -276l28 16q67 33 107 72q57 56 71 125q6 23 -0.5 42t-22.5 23q-25 -2 -36 -2q-8 0 -19 4q-57 19 -58 74q0 33 23 52t58 19q69 0 103.5 -46t34.5 -113q0 -86 -61.5 -166t-159.5 -126l-47 -20z" />
<glyph unicode="-" horiz-adv-x="765" d="M86 614l73 125h436q23 0 33 2q15 4 32 7q15 0 31 4q6 2 29 8l-77 -130h-409l-75 -4z" />
<glyph unicode="." horiz-adv-x="352" d="M75 78q0 40 26.5 67t66.5 27t69 -27t29 -67t-27 -68.5t-67 -28.5q-38 0 -67.5 27.5t-29.5 69.5z" />
<glyph unicode="/" horiz-adv-x="1050" d="M-23 -289l597 1135q100 191 192 360q153 279 195 360h86l-425 -789q-80 -149 -190 -359.5t-176 -337.5q-107 -207 -191 -369h-88z" />
<glyph unicode="0" horiz-adv-x="1110" d="M73 473q0 381 178 698q193 345 459 345q199 0 287 -180q69 -140 69 -375q0 -360 -195 -674q-205 -329 -463 -329q-155 0 -240 115q-96 130 -95 400zM211 567q0 -243 78 -381q71 -122 178 -123q207 0 339 293q113 251 113 523q0 205 -63 352q-77 178 -215 178 q-224 0 -339 -284q-92 -228 -91 -558z" />
<glyph unicode="1" horiz-adv-x="819" d="M77 -6l1 73l259 -2l170 1227q6 29 6 55q0 29 -12 44q-17 25 -42 20l-199 -56l-23 67q48 15 98 31q75 23 163 42l176 34l-2 -113q0 -44 -12 -101q-17 -82 -19 -103l-126 -915q-4 -31 -8 -67.5t-4 -62.5q0 -73 25 -90q13 -10 29.5 -11t35.5 -1h152l-8 -73q-71 0 -173.5 7 t-142.5 7q-92 0 -132 -2q-203 -10 -212 -10z" />
<glyph unicode="2" horiz-adv-x="1169" d="M67 19q0 13 13 27l429 423q184 178 278 325q117 182 116 339q0 136 -59 218q-71 98 -210 98q-69 0 -109.5 -12.5t-90.5 -50.5v-37q0 -69 -24 -116q-31 -57 -88 -65q-19 0 -33.5 20t-14.5 37q0 124 144.5 220t310.5 96q176 0 264 -105q78 -94 79 -255q0 -136 -69 -268 q-56 -107 -176 -239q-48 -52 -234 -236l-308 -300h119q220 0 391.5 6.5t200 20t61.5 55.5q13 19 23 19q25 0 24 -30q1 -9 -3 -20l-58 -181l-540 3q-94 0 -200 -3.5t-194 -5.5q-33 0 -34 2q-8 6 -8 15z" />
<glyph unicode="3" horiz-adv-x="1068" d="M54 136q0 19 23 34.5t49 15.5q61 0 111 -58.5t42 -89.5q10 -4 26.5 -5.5t63.5 -1.5q182 0 319 140.5t137 335.5q0 163 -109 243q-92 67 -232 67h-36l8 62l30 1q100 0 190 77q109 92 109 234q0 92 -46 156q-56 78 -163 79q-77 0 -150.5 -31.5t-151.5 -92.5l-27 -22l-35 52 l18 12q117 92 189 126q96 46 216 57q13 2 25 2h14q122 0 193 -80q63 -73 63 -190q0 -115 -59 -202q-46 -67 -157 -154l-31 -23q59 -11 94 -24q209 -89 209 -345q0 -224 -190.5 -385.5t-426.5 -161.5q-103 0 -199 42q-117 52 -116 130z" />
<glyph unicode="4" horiz-adv-x="1165" d="M86 565q0 40 123 199q109 142 224 266q11 13 128.5 127t234.5 221q128 117 146 117q10 0 18 -12.5t7 -25.5l-110 -789h100q75 0 104.5 20t33.5 20q15 -2 19 -13q4 -12 -2 -25l-59 -123h-209l-82 -589l-142 -63q-13 -6 -17 0q-4 4 -4 21q0 19 7.5 50.5t9.5 44.5 q17 69 35 140l61 400h-612q-13 0 -14 14zM235 668l494 -2l83 632q-105 -86 -169.5 -148.5t-152.5 -158.5q-78 -86 -133.5 -156.5t-121.5 -166.5z" />
<glyph unicode="5" horiz-adv-x="1092" d="M75 100q0 25 25.5 38t56.5 13q59 0 105 -55q36 -44 37 -67q25 -4 44 -8t26 -4q230 0 364 161q122 147 123 366q0 205 -118 314.5t-336 109.5q-33 2 -52 2q-4 0 -46 -3q-13 0 -13 19q0 31 30.5 111t61.5 157l92 254q82 -19 134 -28q167 -31 281 -31q161 0 180 42 q11 25 29 27q6 2 9 -6q8 -11 8 -34q0 -10 -2 -16l-57 -137q-50 -10 -93 -14t-93 -4q-94 0 -232 37q-44 11 -130 40q-19 -46 -30 -81q-17 -50 -27 -80q-15 -44 -27 -82q-4 -11 -23 -86q25 4 65 3h65q212 0 345.5 -127t133.5 -347q0 -253 -193.5 -442.5t-432.5 -189.5 q-109 0 -209.5 42t-100.5 106z" />
<glyph unicode="6" horiz-adv-x="1056" d="M98 505q0 496 281 774q255 251 653 250h40v-67h-44q-186 0 -358 -90q-155 -82 -244 -209.5t-129 -274.5q-11 -48 -21 -122l38 32q84 71 161.5 103.5t177.5 42.5q11 2 36 2q136 0 221 -104.5t85 -278.5q0 -226 -147 -408q-153 -189 -366 -189q-191 0 -287.5 136.5 t-96.5 402.5zM247 515q0 -197 50 -316q67 -161 216 -161q155 0 251 157q84 140 84 333q0 142 -46 217q-63 103 -216 103q-78 0 -148 -35q-57 -29 -134 -97l-46 -38q-4 -29 -7.5 -76t-3.5 -87z" />
<glyph unicode="7" horiz-adv-x="1006" d="M163 1380v117q107 -33 173 -46.5t156 -13.5q151 0 262 15.5t262 55.5q21 8 21 -9q0 -10 -11 -27q-161 -220 -299 -511q-121 -255 -206 -521q-75 -228 -102 -407q-8 -46 -7 -87l-140 -53q-11 -4 -25.5 3.5t-14.5 34.5q0 17 2 31q0 6 3 15q67 224 132 391.5t167 383.5 q82 172 172 337q84 153 146 247l25 36q-11 -8 -205 -43t-282 -35h-25q-13 4 -19 4q-61 8 -120 17q-65 15 -65 65z" />
<glyph unicode="8" horiz-adv-x="1062" d="M78 337q0 136 80.5 241t220.5 163l71 28l-56 43q-159 111 -159 289q0 182 136 305t326 123q167 0 268 -109q93 -99 93 -241q0 -186 -172 -306q-57 -40 -174 -84l50 -27q111 -63 173 -155t62 -205q0 -201 -170 -329q-149 -113 -329 -113q-184 0 -302 106t-118 271z M216 379q0 -153 75 -247q82 -103 237 -103q101 0 203 80q128 102 128 255q0 100 -59 172q-44 54 -145 117l-132 76l-73 -23q-107 -38 -170.5 -130t-63.5 -197zM354 1162q0 -94 60.5 -172.5t163.5 -128.5l65 -32l73 27q92 31 145 111q48 71 65 172q4 27 4 40 q0 111 -77.5 192.5t-194.5 81.5q-128 0 -212 -75q-92 -82 -92 -216z" />
<glyph unicode="9" horiz-adv-x="1050" d="M50 29h44q188 0 360 90q157 82 241 203q71 101 111 220q23 71 40 183l-38 -32q-86 -75 -165.5 -111.5t-177.5 -36.5q-15 -2 -25 -1q-140 0 -226 105t-86 279q0 228 146 408q153 189 367 189q191 0 287 -137.5t96 -401.5q0 -494 -281 -772q-256 -253 -653 -252h-40v67z M274 963q0 -140 48 -217q63 -103 216 -103q73 0 139 33.5t142 96.5l44 40q2 10 8 64.5t6 98.5q0 199 -50 316q-67 159 -218 159q-157 0 -251 -155q-84 -138 -84 -333z" />
<glyph unicode=":" horiz-adv-x="378" d="M46 90q0 38 27 65t65 27q40 0 69.5 -26t29.5 -64t-26.5 -67t-65.5 -29q-40 0 -69.5 28t-29.5 66zM153 921q0 36 29 61t65 25q38 0 66 -26t28 -62q0 -38 -26 -66t-64 -28t-68 27.5t-30 68.5z" />
<glyph unicode=";" horiz-adv-x="444" d="M8 -272l26 16q63 33 108 72q59 57 72 125q6 23 -0.5 42t-24.5 23h-53q-57 21 -58 76q0 71 81 71q67 0 101.5 -48t34.5 -113q0 -84 -61.5 -165.5t-156.5 -125.5l-48 -21zM182 886q0 38 26.5 63t65.5 25q38 0 66.5 -25t28.5 -65q0 -38 -26.5 -65t-64.5 -27t-67 27t-29 67z " />
<glyph unicode="&#x3c;" horiz-adv-x="1242" d="M103 492l12 120l1108 508l-11 -132l-948 -443l871 -417l-11 -122z" />
<glyph unicode="=" horiz-adv-x="993" d="M82 421l71 123h660q33 4 67 9l58 12l-79 -131h-629l-77 -3zM109 614l73 125h658q25 0 35 2q15 4 32 7q10 0 21 2q24 8 37 10l-79 -130h-630l-74 -4z" />
<glyph unicode="&#x3e;" horiz-adv-x="1226" d="M61 6l14 122l949 417l-859 443l15 132l1007 -508l-12 -120z" />
<glyph unicode="?" horiz-adv-x="807" d="M82 86q0 42 30 72t70 24q78 -10 78 -96q0 -38 -27.5 -62t-67.5 -24q-34 0 -58.5 26t-24.5 60zM130 1305q0 10 8 31l44 111q50 25 92 35.5t93 10.5q165 0 278 -86q123 -94 123 -251q0 -130 -77 -228q-46 -59 -190 -168l-120 -96l-54 -44l-48 -48l77 -124q21 -4 21 -15 q0 -15 -14.5 -25t-21.5 -16l-98 -59q-4 8 -20 38.5t-24 47.5q-17 34 -30.5 66t-26.5 70l210 167q174 142 221 221t47 179q0 105 -67 178q-77 82 -214 82q-57 0 -95.5 -14.5t-69.5 -54.5q-17 -19 -21 -21q-10 -4 -17 2q-6 4 -6 11z" />
<glyph unicode="@" horiz-adv-x="1690" d="M124 536q0 387 286.5 671t678.5 284q232 0 394 -113q182 -127 182 -343q0 -270 -222 -505q-214 -228 -438 -228q-80 0 -103 54q-13 31 -14 115l-82 -73q-52 -48 -107.5 -69t-122.5 -21q-88 0 -139.5 67t-51.5 161q0 211 212 390q197 167 389 167q63 0 96.5 -31.5 t33.5 -119.5l78 132h173l-320 -603q-10 -21 -16.5 -38.5t-6.5 -36.5q0 -36 34 -36q142 0 311 210q178 222 178 443q0 188 -154 287q-130 84 -327 84q-323 0 -580 -259q-247 -249 -247 -539q0 -214 128 -352q138 -147 376 -148q191 0 354 77q117 56 205 141q33 38 65 77h134 q-44 -52 -87 -103q-117 -119 -262 -192q-205 -103 -438 -103q-270 0 -430 156t-160 397zM547 477q0 -56 29 -81t71 -25q115 0 268 209t153 358q0 56 -24 79.5t-58 23.5q-113 0 -276 -210.5t-163 -353.5z" />
<glyph unicode="A" horiz-adv-x="1536" d="M71 0l7 75h121l747 1420l128 34q8 2 14 2t11 -2q13 -6 13 -19q0 -17 -34.5 -34.5t-30.5 -36.5l232 -1140q15 -84 29.5 -143.5t27.5 -69t27.5 -10.5t29.5 -1l77 2l-12 -77q-40 0 -105 5.5t-109 5.5q-48 0 -124.5 -5.5t-124.5 -5.5l16 75h153l-94 486h-523l-116 -238 q-29 -57 -57 -116.5t-28 -112.5q0 -21 25 -21q21 2 33 2h117l-6 -75q-44 0 -111 5.5t-109 5.5q-59 0 -138 -5.5t-86 -5.5zM586 653h467l-127 635z" />
<glyph unicode="B" horiz-adv-x="1188" d="M56 0l3 75h140l163 1198q6 34 5 63q0 31 -9.5 50t-22.5 23.5t-36 4.5h-102v75l270 -4h40h33h27h21h68t73 2h23q199 0 305.5 -81.5t106.5 -230.5q0 -163 -157 -293q-52 -42 -159 -97q109 -36 192.5 -135t83.5 -233q0 -224 -198 -333q-153 -84 -390 -84h-40h-33h-27h-23 h-68t-73 2h-23zM367 130q0 -31 23 -47t83 -16q212 0 327 63q153 84 153 287q0 142 -82 232q-103 113 -329 136q-13 2 -23 2h-23q-29 0 -46 -2l-81 -634q-2 -15 -2 -21zM465 856q54 0 69 -1t86 -10.5t157 -31.5q78 27 155 133q65 90 65 193q0 130 -70 203.5t-182 73.5h-205z " />
<glyph unicode="C" horiz-adv-x="1378" d="M122 545q0 385 249 674q270 314 684 314q113 0 192.5 -13.5t182.5 -55.5l-25 -161q-4 -33 -31 -28q-31 4 -25 28q2 8 2 15q-1 52 -79 92q-90 46 -219 45q-350 0 -565 -282q-191 -251 -191 -585q0 -281 151 -427q130 -124 335 -125q117 0 260 69q165 80 201 190 q2 10 15.5 15.5t20.5 -0.5q8 -6 8 -15q0 -8 -4 -23l-32 -186q-84 -46 -231.5 -86t-264.5 -40q-101 0 -211 30q-176 50 -281 161q-142 149 -142 394z" />
<glyph unicode="D" horiz-adv-x="1580" d="M73 0l13 75h148l156 1184q2 23 6 49t4 38q0 25 -10 40q-18 28 -60 28h-3h-122l2 75q67 0 170 -2t167 -2q67 0 173 2t171 2q362 0 540 -197q145 -160 145 -415q0 -369 -289 -626q-279 -249 -660 -249l-316 4zM400 168q0 -46 17 -72q6 -11 27 -15t52 -4q19 0 65 1.5t67 1.5 q369 0 576 226q189 207 189 540q0 264 -149 410q-162 158 -478 158h-4h-49t-47 2q-48 0 -96 -7l-162 -1156q-4 -23 -6 -42.5t-2 -42.5z" />
<glyph unicode="E" horiz-adv-x="1286" d="M78 0l4 75h146l162 1205q4 34 4 45q0 21 -5.5 55t-55.5 34h-124l11 75q46 0 270 -11q111 -6 293 -6q178 0 267 4.5t202 12.5l-8 -161q0 -33 -29 -32q-27 0 -26 27q0 71 -198 88q-82 7 -179 7h-25h-63.5t-59.5 2q-42 0 -97 -6l-79 -545h274q67 0 138.5 11.5t86 23 t18.5 15.5q8 10 9 21l20 101h67l-60 -432h-69l10 111q2 25 -8 48q-6 6 -52.5 15t-83.5 9h-358l-72 -532q-6 -44 -6 -86q0 -44 7.5 -63t23 -24t44.5 -5h212q174 0 285 25q145 33 188 107q6 11 17 12q15 0 23 -15q2 -4 -2 -27l-55 -184q-111 0 -291 2t-293 2z" />
<glyph unicode="F" horiz-adv-x="1219" d="M82 0l8 75h145l167 1248q1 10 1 18q0 28 -14 49q-13 25 -35 24h-142l12 75q132 0 312 -4.5t226 -4.5q122 0 189 1q265 8 307 8l-6 -174q-4 -29 -29 -29q-13 0 -22.5 11.5t-9.5 23.5q6 52 -115 76.5t-259 24.5l-245 -6l-76 -547h256q73 0 147.5 11.5t96.5 25t24 34.5 l15 101h67l-57 -440h-69l12 98v32q0 31 -10 37q-23 13 -49.5 18.5t-61.5 5.5h-383l-69 -495q-4 -25 -5.5 -50t-1.5 -56q0 -33 3.5 -61.5t12.5 -41.5t47 -13h161l-8 -75l-291 6q-69 0 -156 -3t-95 -3z" />
<glyph unicode="G" horiz-adv-x="1546" d="M109 590q0 387 278 658q287 279 717 279q184 0 351 -49l-27 -186q-4 -23 -29 -19q-17 0 -17 25q0 56 -97.5 101.5t-212.5 45.5q-390 0 -611 -289q-180 -235 -180 -538q0 -293 169 -451q138 -130 318 -131q105 0 222.5 38.5t169.5 76.5l34 289q6 40 6 86q0 40 -9 50 q-15 15 -33.5 20t-49.5 5h-109l10 67h509l-8 -71h-141l-54 -406q13 -40 13 -44q0 -40 -218 -113.5t-373 -73.5q-239 0 -404 122q-224 167 -224 508z" />
<glyph unicode="H" horiz-adv-x="1577" d="M84 0l12 75h136l145 1100q4 34 8.5 72.5t4.5 57.5q0 25 -7.5 67t-64.5 42h-127l16 75q46 0 120.5 -9.5t122.5 -9.5t128 9.5t132 9.5l-9 -75h-138l-73 -537h746l44 375q0 4 3 30.5t3 42.5q0 46 -17 70q-8 13 -25 18q-8 2 -32 1h-113l17 75q46 0 118.5 -9.5t116.5 -9.5 q46 0 98 6q121 13 159 13l-8 -75h-134l-155 -1171q-4 -21 -6 -39t-2 -39q0 -31 12.5 -60.5t53.5 -29.5h130l-8 -75q-48 0 -137 7.5t-123 7.5q-48 0 -135 -7.5t-120 -7.5l14 75h135l98 704h-744l-75 -559q-2 -19 -3 -33.5t-1 -21.5q0 -50 19 -70t50 -20h124l-5 -75 q-50 0 -145 4t-108 4q-46 0 -124.5 -4t-126.5 -4z" />
<glyph unicode="I" horiz-adv-x="658" d="M80 0l4 75h128l157 1205q2 17 2 25q0 17 -3.5 39.5t-7.5 47t-46 24.5h-136l13 73q56 0 96 -4q138 -13 157 -13q56 0 94 4q134 13 149 13l-13 -75l-136 2l-149 -1242q-4 -25 -0.5 -47t9.5 -31q10 -10 19 -16q13 -8 29 -7h140l-10 -73q-56 0 -165 4t-124 4q-40 0 -119.5 -4 t-87.5 -4z" />
<glyph unicode="J" horiz-adv-x="641" d="M-314 -366q-1 7 -1 14q0 20 13 35q19 20 57 20q48 0 95 -40t47 -63q33 -10 36 -12q6 2 10 2q144 17 204 180q29 78 62 328l160 1163v44v29q-4 19 -3 31q-10 49 -50 49h-2h-140l6 75q48 0 170 -13q69 -8 107 -8q40 0 118.5 10.5t109.5 10.5l-11 -75h-129l-183 -1378 q-31 -211 -96 -321q-115 -193 -350 -194q-84 0 -152 29t-78 84z" />
<glyph unicode="K" horiz-adv-x="1512" d="M65 0l12 75h149l164 1215q6 34 6 54q0 19 -8.5 44.5t-39.5 25.5h-147l4 75q57 0 103 -4q136 -11 163 -11q56 0 97 4q128 11 155 11l-17 -75h-143l-100 -702l199 140q176 126 383 316q195 180 201 214q4 33 -23 32h-147l2 75q50 0 128 -7.5t130 -7.5q38 0 107 7.5t96 7.5 l-21 -75h-109q-11 -15 -19 -27.5t-18 -19.5q-77 -61 -130 -106q-46 -36 -105 -92l-358 -323l178 -264q40 -59 134 -211.5t119 -188.5q59 -84 87.5 -94.5t63.5 -10.5l80 -2l-11 -75q-36 0 -58 2q-80 8 -92 8q-34 0 -82 -5t-57 -5q-54 94 -106 176q-165 264 -174 280 q-36 61 -72 116q-78 113 -129 186l-208 -140l-44 -365q-2 -13 -2 -29.5v-26.5q0 -86 10.5 -105t39.5 -19q19 2 28 2h123l-6 -75q-56 0 -148.5 2t-153.5 2q-44 0 -117 -2t-117 -2z" />
<glyph unicode="L" horiz-adv-x="1238" d="M78 -2l8 77h136l168 1196q2 11 2 21v19q0 23 -4.5 63t-39.5 40h-139l2 75l260 -6l249 6l-8 -75h-144l-170 -1242q-4 -29 2 -52.5t18.5 -33t25.5 -11.5h29h260q121 0 241.5 37t141.5 79q15 25 21 31q15 15 29 8q11 -8 11 -23q0 -14 -8 -37l-55 -170q-172 0 -395 3t-248 3 q-78 0 -224.5 -4t-168.5 -4z" />
<glyph unicode="M" horiz-adv-x="1875" d="M69 0l9 75h144l193 1104q10 67 10 111v38q-4 15 -6 32.5t-26 35.5t-52 18h-129l10 75q56 -6 100 -10.5t78 -4.5q36 0 86 6.5t75 8.5l392 -1233l697 1233h249l-10 -75h-124l-144 -1236v-44t6 -31q10 -6 25 -17t27 -11h114l-1 -75q-52 0 -134.5 9.5t-133.5 9.5 q-40 0 -109 -9.5t-113 -9.5l15 75h140l135 1150l-700 -1236l-391 1211l-122 -706q-13 -84 -23 -176t-10 -157t14.5 -72t33.5 -14h151l-7 -75q-61 0 -148.5 6.5t-121.5 6.5q-44 0 -108 -6.5t-91 -6.5z" />
<glyph unicode="N" horiz-adv-x="1580" d="M86 0l10 75h116l167 1070q10 48 13.5 74.5t3.5 53.5q0 54 -27 94q-32 47 -80 47h-2h-107l9 75q29 0 75 -5.5t75 -5.5q25 0 65 5.5t65 5.5l781 -1206l124 925q8 52 8 92q0 11 -2 26.5t-4 32.5t-17 36t-38 19h-142l12 75q48 0 126 -5.5t130 -5.5q34 0 92 5.5t94 5.5l-4 -75 h-140l-187 -1418q-4 -27 -22 -29q-8 0 -15 4q-10 6 -21 25l-773 1227l-119 -794q-10 -56 -13.5 -128.5t-3.5 -124.5q0 -44 2 -52q10 -49 45 -49h1h157l-4 -75q-65 0 -102 2q-142 8 -162 8q-46 0 -106.5 -5t-79.5 -5z" />
<glyph unicode="O" horiz-adv-x="1523" d="M107 574q0 364 232 651q242 300 574 300h2q262 0 415 -158q161 -169 161 -481q0 -337 -232 -624q-247 -306 -581 -306q-302 0 -452 207q-119 165 -119 411zM276 607q0 -272 110 -425t290 -153q287 0 465 242t178 625q0 234 -92 377q-111 172 -327 172q-299 0 -475 -281 q-149 -239 -149 -557z" />
<glyph unicode="P" horiz-adv-x="1205" d="M80 0l6 77l126 -2l161 1198q0 11 2 26.5t2 21.5q0 23 -5 58t-41 35h-138l10 75h251q56 0 166.5 4t125.5 4q228 0 356 -106q121 -99 121 -266q0 -224 -207 -357q-176 -115 -398 -115q-63 0 -107 2.5t-69 8.5l-55 -390q-6 -40 -6 -90q0 -73 6 -84q15 -25 47 -25h152l-6 -75 l-301 6zM456 737q34 -10 53 -12t54 -2h76q145 0 268 100q140 113 140 281q0 157 -77 234q-90 92 -300 92q-69 0 -123 -14z" />
<glyph unicode="Q" horiz-adv-x="1450" d="M124 6q13 73 58.5 119.5t118.5 46.5q56 0 97.5 -18t97.5 -56l42 -29h73q331 0 511 254q158 223 158 557q0 238 -111 399q-121 174 -319 174q-212 0 -390.5 -204t-178.5 -457q0 -186 69 -273.5t205 -87.5q73 0 125.5 25.5t111.5 83.5l33 30l42 -42l-31 -34 q-71 -78 -162.5 -118.5t-179.5 -40.5q-161 0 -264.5 109t-103.5 289q0 322 232.5 560t535.5 238q243 0 397 -175t154 -451q0 -343 -201 -594.5t-532 -304.5l-67 -12l132 -115q111 -96 239.5 -160t210.5 -64q71 0 138 41l32 21l35 -50l-42 -31q-65 -44 -139 -67t-135 -23 q-84 0 -195 62q-88 50 -205 147l-178 155q-78 65 -149 111q-84 54 -123 54q-50 0 -71 -31q-13 -19 -25 -38h-46z" />
<glyph unicode="R" horiz-adv-x="1404" d="M77 0l7 75h132l161 1198q6 31 6 42q2 15 2 36q0 17 -4 40t-44 23h-126l9 75q59 0 119.5 -1t121.5 -1h42h33h29h23h73.5t77.5 2h23q195 0 308 -80q124 -90 124 -264q0 -178 -122 -301q-149 -151 -274 -151l50 -96q78 -151 197 -308q107 -144 165 -189q10 -8 24 -16.5 t35 -8.5h65l-2 -75h-264q-34 38 -67 78q-17 25 -38 57t-37 60l-271 460h-201l-56 -381q-4 -23 -6 -57.5t-2 -92.5v-17v-4q10 -29 52 -28h146l-4 -75q-57 0 -151 4t-152 4q-38 0 -101 -4t-103 -4zM459 731q38 -6 54 -6h38t40 2q167 0 286 77q157 102 157 297q0 153 -67 225 q-86 94 -293 94h-46h-35.5t-41.5 -6z" />
<glyph unicode="S" horiz-adv-x="1064" d="M84 203v7q0 24 25 24q23 4 33 -37q17 -56 127 -107.5t219 -51.5q149 0 266 87t117 212q2 29 2 36q0 80 -48 150q-40 57 -123 116l-195 142q-109 80 -153 136q-63 80 -63 187q0 182 159 299q149 109 363 109q88 0 146.5 -10.5t127.5 -44.5l-7 -144q0 -13 -8 -24.5 t-19 -11.5q-29 4 -29 25q-6 54 -89 88t-179 34q-145 0 -242 -69t-97 -189q0 -69 48 -131q36 -48 117 -103l164 -117q78 -27 188 -162q86 -107 86 -211q0 -23 -2 -34q-27 -228 -220 -351q-167 -105 -404 -105q-73 0 -153 18.5t-143 46.5z" />
<glyph unicode="T" horiz-adv-x="1337" d="M191 1328q0 8 4 19l56 142q117 0 262 -3t299 -3q274 0 414.5 3t161.5 3v-147q0 -11 -10 -19t-25 -8q-10 0 -25 28.5t-88.5 49.5t-150.5 21h-209l-149 -1077q-10 -82 -13.5 -127t-3.5 -68q0 -21 4 -37q13 -31 50 -30h170l-14 -75l-289 6l-302 -6l8 75h199l185 1339h-128 q-124 0 -224.5 -19t-119.5 -61q-11 -25 -18 -31q-13 -13 -28 -7q-15 8 -16 32z" />
<glyph unicode="U" horiz-adv-x="1596" d="M193 1414l8 75q48 0 122.5 -5.5t122.5 -5.5t122.5 5.5t120.5 5.5l-10 -75h-147l-107 -773q-10 -75 -19.5 -148.5t-9.5 -121.5q0 -151 61 -227q77 -98 259 -98q226 0 383 178q140 161 185 413l69 395q33 178 33 294q0 40 -8 64t-36 24h-146l6 75q57 0 136.5 -4.5 t100.5 -4.5q48 0 115 4.5t88 4.5l-6 -75h-128l-120 -673q-69 -383 -228 -574q-168 -203 -448 -203q-230 0 -352.5 93.5t-122.5 279.5q0 19 3 46t5 42l117 848q6 33 5 57q0 31 -3.5 51t-17 26.5t-32.5 6.5h-121z" />
<glyph unicode="V" horiz-adv-x="1508" d="M184 1414l4 75q46 0 120.5 -5.5t120.5 -5.5q40 0 105 5.5t105 5.5l-9 -73h-153l262 -1171l163 300q128 237 262 527q126 274 126 314q0 18 -24 24q-20 4 -51 4h-114l9 75q54 -6 118 -10.5t123 -4.5q50 0 105.5 4.5t103.5 10.5l-13 -75h-121q4 -8 -79.5 -172t-161.5 -321 q-42 -84 -137 -261.5t-189 -351.5q-52 -94 -101 -187l-69 -131q-14 -29 -27 -29q-2 0 -5 1q-13 2 -18 27l-300 1345q-4 19 -9 37.5t-24 30.5t-50 12h-72z" />
<glyph unicode="W" horiz-adv-x="2199" d="M189 1414l6 75q54 0 132.5 -6.5t110.5 -6.5q50 0 96 4q106 9 146 9h7l-9 -73l-173 -2l289 -1163l364 744l-75 331q-6 31 -10.5 44.5t-19.5 24.5q-21 19 -52 19h-82l9 75q48 -6 105.5 -10.5t111.5 -4.5q59 0 127 4.5t127 10.5l-11 -75h-165l251 -1150l375 739 q100 205 113 233q54 116 54 147q0 3 -1 5q-6 17 -27.5 21.5t-60.5 4.5h-91l9 75q42 0 109 -5.5t111 -5.5q36 0 94 5.5t94 5.5l-8 -73l-94 -2l-731 -1424q-11 -27 -23 -27q-3 0 -6 1q-13 2 -17 26l-189 889l-437 -873q-4 -8 -9.5 -20.5t-20.5 -14.5q-23 -8 -29 22t-10 51 l-317 1282q-8 31 -15.5 44.5t-28.5 24.5q-25 19 -52 19h-77z" />
<glyph unicode="X" horiz-adv-x="1596" d="M101 0l4 75h106q34 48 63 84q19 25 71 88q78 100 116 149q124 159 230 262l147 148l-289 566q-8 23 -28 32.5t-35 9.5h-99l2 75q48 0 125 -6.5t116 -6.5q54 0 134 6.5t113 6.5l-14 -75h-161l247 -497l148 153q92 96 187.5 196.5t95.5 124.5q-2 11 -15.5 17t-26.5 6h-125 l12 75q36 0 147 -9q44 -4 94 -4q27 0 97 6.5t110 6.5l-15 -75h-110q-94 -101 -114 -120q-34 -31 -67 -59l-266 -268l-115 -113l317 -659q15 -34 34.5 -67.5t45.5 -43t49 -9.5h76l-7 -75q-54 0 -96 4q-124 11 -151 11q-40 0 -124.5 -7.5t-116.5 -7.5l3 75h169l-312 654 l-104 -107q-147 -161 -271 -327q-120 -160 -120 -201q0 -7 3 -10q10 -11 25 -11q15 2 25 2h141l-4 -75q-52 4 -116.5 7.5t-126.5 3.5q-54 0 -113 -3.5t-111 -7.5z" />
<glyph unicode="Y" horiz-adv-x="1435" d="M226 1416l4 73q48 0 140.5 -4t108.5 -4q48 0 140.5 4t105.5 4l-11 -75h-165l286 -637l156 195q78 100 169 238q101 157 101 193q0 8 -13 10q-11 2 -25 1h-121v75q48 0 120 -6.5t103 -6.5q34 0 68 4q88 9 115 9l-5 -75h-108q-42 -65 -109 -158q-44 -63 -113 -157 q-165 -228 -327 -423l-50 -408q-4 -29 -7.5 -68t-3.5 -43q0 -44 19 -63t59 -19h121l-4 -75q-69 0 -167.5 6.5t-138.5 6.5q-57 0 -141.5 -6.5t-119.5 -6.5l4 75h194l88 639l-272 597q-11 27 -24.5 55.5t-40.5 40.5q-10 4 -14 6q-10 4 -15 3h-107z" />
<glyph unicode="Z" horiz-adv-x="1358" d="M75 -2q0 15 17 40q132 167 264 335l387 452q69 80 139 163q109 130 201 279l44 73l-99 -4q-80 0 -303 31q-111 15 -189 15t-136.5 -33.5t-58.5 -98.5v-27h-65v35q0 113 99.5 188.5t214.5 75.5q96 0 340 -50q122 -25 216 -25q90 0 133 27q27 17 40 63h74l-72 -117 l-100 -138l-938 -1140l169 2q59 0 121 -1t126 -1q235 0 352 13q165 19 193 69q10 15 17 21q15 11 27 8q29 -13 21 -37l-86 -216q-136 0 -357 2t-363 2h-118.5t-116.5 2q-38 0 -85 -2t-76 -14q-13 -5 -19 -5h-2q-11 0 -11 13z" />
<glyph unicode="[" horiz-adv-x="616" d="M128 -222l29 165l36 222l148 1064l28 264q0 48 8 101.5t15 105.5h333l-11 -71h-203l-237 -1667q-4 -23 -6 -36.5t-2 -30.5q0 -33 13.5 -39.5t36.5 -6.5l157 -2l2 -69h-347z" />
<glyph unicode="\" horiz-adv-x="1282" d="M172 1566h84l391 -720l593 -1135h-86q-96 186 -189 369q-73 142 -173 332q-88 168 -195 365z" />
<glyph unicode="]" horiz-adv-x="660" d="M157 -241l11 73h203l236 1669q4 23 5.5 36t1.5 31q0 33 -12 39.5t-35 6.5h-157v67h346q-15 -69 -18 -87.5t-13 -77.5l-34 -220l-151 -1066l-25 -263l-25 -208h-333z" />
<glyph unicode="^" horiz-adv-x="645" d="M176 1298q54 23 80.5 38t76.5 52q73 54 124 115q46 -77 115 -142q27 -25 46.5 -40.5t53.5 -40.5l-46 -38q-25 6 -46 14.5t-46 22t-43 27t-49 49.5q-52 -38 -108 -66t-120 -45z" />
<glyph unicode="_" horiz-adv-x="1450" d="M-27 -369l4 74h1527v-74h-1531z" />
<glyph unicode="`" horiz-adv-x="488" d="M189 1457l94 38q40 -33 67 -58.5t56 -58.5q67 -73 113 -142l-44 -40l-48 48q-46 46 -79 75q-38 36 -80 72.5t-79 65.5z" />
<glyph unicode="a" horiz-adv-x="1133" d="M92 245q0 297 200 537t451 240q38 0 68.5 -1t95.5 -14q2 23 7 48t23 30.5t22 5.5q8 0 27 -8l-16 -70q-17 -75 -24 -108q-15 -65 -22 -111l-59 -449q-9 -66 -9 -129v-13q0 -88 15 -107q10 -11 48 9q23 11 38 23l84 60l25 -46q-40 -33 -65 -50q-73 -54 -128 -82 q-33 -19 -68.5 -30t-79.5 -18l-2 162l10 215l-82 -136q-63 -101 -161 -172t-176 -71q-128 0 -186 118q-36 75 -36 167zM235 299q0 -80 33.5 -148.5t102.5 -68.5q126 0 232 146q82 115 140 295q42 134 51 225l23 196q-38 8 -56 11.5t-39 3.5q-245 0 -381 -251 q-105 -193 -106 -409z" />
<glyph unicode="b" horiz-adv-x="1125" d="M207 1533q59 31 106 49t108 33q29 6 67 14.5t92 8.5l-6 -84q0 -48 -7 -101l-106 -802l65 97q80 122 165 194q100 84 191 84q82 0 144 -59q88 -84 88 -266q0 -291 -195 -512q-202 -229 -491 -229h-3q-61 0 -128 13q4 -11 4 -21q0 -29 -23 -40q-15 -11 -31 -12q-15 0 -25 8 l19 65q10 38 14.5 70t8.5 57l113 847q19 140 32.5 331.5t13.5 237.5q0 23 -25 23h-11q-8 -4 -10 -4l-140 -46zM381 34q31 -4 55.5 -7.5t53.5 -3.5q212 0 352 216q125 191 125 425q0 105 -27 165q-36 82 -119 82q-140 0 -268 -216q-105 -176 -126 -324z" />
<glyph unicode="c" horiz-adv-x="874" d="M92 318q0 270 172 491t400 221q82 0 132 -35q37 -26 37 -47q0 -58 -73 -58q-52 0 -100 34q-15 11 -38 37q-13 0 -27 2q-191 -54 -281 -249q-69 -151 -69 -358q0 -174 77 -251q53 -53 136 -53h3q44 0 128.5 32.5t143.5 83.5l31 27l30 -42l-32 -31q-92 -82 -159 -114 q-82 -40 -188 -41q-182 0 -264 123q-59 88 -59 228z" />
<glyph unicode="d" horiz-adv-x="1161" d="M100 239q0 299 203.5 541t454.5 242q63 0 65 -6q2 -4 12 -5l47 348q8 44 8 107q0 59 -14.5 64t-19.5 5q-6 0 -25 -4l-136 -44l-27 50q63 29 105 45t109 32q38 8 76.5 14.5t82.5 6.5l-4 -77l-7 -84l-150 -1158q-5 -38 -5 -80v-14q0 -100 17 -122q8 -10 32.5 -2.5 t47.5 23.5l94 67l29 -46q-46 -34 -73 -54q-82 -57 -136 -86q-38 -23 -78 -32.5t-67 -15.5l-2 163l9 214l-84 -134q-59 -100 -158.5 -169.5t-176.5 -69.5q-128 0 -189 117q-40 77 -40 164zM243 287q0 -115 42 -168q36 -46 102 -46q145 0 256 187q128 216 159 477l25 203 q-34 8 -52.5 10.5t-43.5 2.5q-245 0 -381 -245q-107 -193 -107 -421z" />
<glyph unicode="e" horiz-adv-x="995" d="M132 329q0 21 1 39.5t9 77.5q36 234 197.5 407t353.5 173q75 0 109 -35q27 -27 34 -109q2 -8 2 -19q0 -4 -3 -19q31 8 55 29q6 4 15.5 20t22.5 18q4 0 10 -9q0 -2 2 -4v-54l-272 -187q-56 -36 -241 -152q-138 -84 -140 -86l-2 -27q0 -140 38 -224q52 -112 159 -112h2h19 q69 6 147.5 40t145.5 93l29 23l34 -38l-32 -27q-113 -98 -176 -136q-98 -57 -192 -57q-151 0 -239 97.5t-88 277.5zM293 492l417 264q2 15 4 43t2 36q0 54 -15 80q-22 39 -68 39q-6 0 -13 -1q-184 -15 -274 -239q-29 -75 -53 -222z" />
<glyph unicode="f" horiz-adv-x="597" d="M-345 -452q6 23 18.5 37.5t39.5 14.5q50 0 86 -26t42 -49q44 4 56 8q98 25 157 117q50 77 76 208q13 67 37 245l112 827h-153l8 61h153l25 159q31 211 141 352.5t246 141.5q75 0 125 -21q47 -19 47 -60v-7q0 -48 -58 -48q-36 0 -74 26t-42 45q-31 -8 -46 -11 q-86 -19 -136 -134q-34 -80 -59 -238l-33 -205h184l-8 -63h-184l-105 -827q-34 -260 -130 -423q-128 -216 -348 -216q-77 0 -130 21q-48 19 -48 55q0 5 1 10z" />
<glyph unicode="g" horiz-adv-x="884" d="M-75 -335q0 98 78.5 180t195.5 117l132 40q-52 29 -76 48q-78 63 -79 128q0 31 6.5 47t45.5 68l28 34q-46 25 -89 52q-77 69 -77 205q0 165 125.5 301.5t295.5 136.5q80 0 126 -21q103 -48 138 -48q46 0 71 21q10 8 42 52q3 3 6 3t8 -5q8 -7 8 -17q0 -4 -1 -8 q-8 -40 -13 -80q-11 -44 -60 -44h-84q10 -38 13 -72.5t3 -59.5q0 -163 -116 -297t-254 -134h-48q-19 0 -30 2l-37 -40q-8 -8 -9.5 -21.5t-3.5 -24.5q-1 -3 -1 -7q0 -37 58 -79q54 -40 132 -69l140 -56q144 -57 199 -111q63 -61 63 -162q0 -155 -174 -245q-153 -78 -356 -79 q-172 0 -283 59q-122 65 -123 186zM46 -310q0 -103 103 -159q90 -48 226 -48q144 0 245 58q119 66 119 183q0 63 -48 109q-38 36 -113 66l-140 51l-61 -2q-98 0 -199 -59q-132 -77 -132 -199zM226 634q0 -136 38 -198.5t134 -62.5q103 0 171 109.5t68 260.5q0 122 -44 176 q-36 44 -105 49q-115 0 -193 -114q-69 -101 -69 -220z" />
<glyph unicode="h" horiz-adv-x="1230" d="M207 1562l76 29q67 29 136 39t128 10q19 0 20 -25q0 -15 -4 -38l-134 -980l88 144q73 124 159 199q100 86 189 86q78 0 121 -75q34 -61 34 -159v-40q-4 -17 -4 -23l-69 -528q-2 -13 -2.5 -29.5t-0.5 -24.5q0 -29 9.5 -41t18.5 -12q13 0 41 13l126 63l27 -46l-144 -84 q-56 -34 -130 -56q-50 -15 -72 -15q-10 0 -14 4q-8 8 -12 34t-4 58v67q6 31 8 42l77 528q2 17 3 32.5t1 38.5q0 61 -16 92q-21 40 -71 40q-126 0 -260 -242t-163 -495l-21 -170h-128l67 507q40 318 83 652q40 312 40 351q0 50 -48 50q-13 0 -31 -6l-105 -44z" />
<glyph unicode="i" horiz-adv-x="736" d="M122 882q61 36 133 70t113.5 43.5t68 15t57.5 5.5v-57q0 -59 -7.5 -119.5t-13.5 -102.5l-61 -458q-6 -46 -7 -61t-1 -50q0 -82 17 -91q10 -6 25 -1.5t36 14.5l123 78l34 -44l-103 -74q-58 -42 -140 -72q-64 -24 -100 -24q-9 0 -17 2q-13 2 -21.5 50t-8.5 118q0 27 1 43.5 t6 54.5l81 532q6 40 6 44q2 19 2 46q0 46 -11 56.5t-20 10.5q-13 0 -40 -15l-115 -61zM358 1298q0 50 36 91q32 37 71 37h8q27 0 44 -13.5t17 -53.5q0 -52 -35.5 -91t-79.5 -39q-25 0 -41 20t-20 49z" />
<glyph unicode="j" horiz-adv-x="524" d="M-260 -480q0 57 57 57q46 0 86 -23t48 -44q44 4 48 6q130 38 191 208q38 105 67 343l77 624q9 75 9 143v14q0 42 -7 50q-10 10 -21 9q-8 0 -21.5 -5.5t-18.5 -7.5l-108 -48l-19 50q33 25 114 64t119.5 47.5t65.5 14.5t57 6v-58q0 -52 -2 -88t-15 -136l-78 -620 q-34 -270 -133 -448q-132 -239 -354 -239q-6 -2 -15 -2q-59 0 -103 22t-44 61zM360 1309q0 50 36 91q32 37 71 37h8q25 0 43 -14.5t18 -52.5q0 -52 -35.5 -91t-79.5 -39q-27 0 -44 21t-17 48z" />
<glyph unicode="k" horiz-adv-x="1188" d="M186 1548l103 44q155 54 258 54l2 -90q0 -34 -2 -65t-7 -71l-98 -775l73 109q78 119 164 190q100 82 186 82h27q78 0 118.5 -53.5t40.5 -128.5q0 -128 -73 -228.5t-203 -154.5l-36 -15l122 -247q19 -40 43 -70.5t43 -30.5q10 0 25.5 9.5t30.5 20.5l80 58l31 -44l-84 -73 q-54 -45 -114 -83q-43 -27 -60 -28q-7 0 -10 4q-10 11 -36 51q-56 86 -85 152l-130 298l83 21q107 31 172 114t65 191q0 59 -13 90q-21 45 -69 45h-2q-15 0 -23 -1q-144 -31 -263 -228q-126 -212 -168 -527l-23 -170h-128l67 507q10 78 46 396t44 397q17 167 17 183 q0 73 -33 73q-8 0 -30 -7l-126 -44z" />
<glyph unicode="l" horiz-adv-x="683" d="M188 1524l67 24q46 17 90 34.5t88 26t67.5 10.5t62.5 2q2 -8 2 -23q0 -17 -2 -36l-12 -109l-161 -1200q-4 -25 -5.5 -51t-1.5 -49q0 -77 19 -90q13 -8 29.5 -1t37.5 16l111 64l25 -54l-92 -59q-63 -40 -149 -71q-59 -21 -84 -21q-11 0 -16 4q-15 15 -22.5 52.5t-7.5 81.5 q0 61 9 132l151 1125q4 23 6 52t2 55v31q-4 19 -4 25q-6 23 -38 23q-13 0 -34.5 -5t-49.5 -16l-67 -27z" />
<glyph unicode="m" horiz-adv-x="1755" d="M140 903l71 37q73 40 138.5 67t106.5 27q19 0 19 -27q-2 -25 -2 -37l-40 -371l84 144q67 119 163.5 200t188.5 81q78 0 113 -78q29 -63 29 -169q0 -69 -10.5 -134t-14.5 -69l61 98q94 153 170 235q103 113 190 113q82 0 126 -67q38 -57 38 -145q0 -17 -3 -48l-69 -561 q-4 -33 -6 -48t-3 -27q0 -27 9 -37t21 -10q19 0 46 15l105 61l17 -50l-113 -76q-40 -31 -97.5 -52t-93.5 -21q-13 0 -19 6q-11 10 -15 48t-4 55q0 27 0.5 44t6.5 61l73 529q6 34 6 42q2 19 2 46q0 52 -17.5 81.5t-61.5 29.5q-128 0 -261 -236.5t-160 -491.5l-21 -168h-128 l67 500q8 54 14.5 126.5t6.5 119.5q0 82 -14.5 127.5t-52.5 45.5q-130 0 -268 -244t-169 -503l-17 -176h-136l73 507q15 111 25.5 209t10.5 145q0 19 -2 23q-8 38 -26 39q-4 0 -16 -4l-124 -65z" />
<glyph unicode="n" horiz-adv-x="1230" d="M144 907l70 37q82 44 134 65q69 28 110 28h3q19 0 19 -28q0 -15 -3 -35l-41 -371l85 143q71 124 162 203q101 88 194 88q82 0 124 -69q36 -59 36 -151q0 -13 -1.5 -29.5t-1.5 -23.5l-79 -561q-4 -27 -6 -54q0 -27 9.5 -40t23.5 -13q15 0 38 13l126 63l25 -46l-141 -84 q-56 -34 -130 -56q-50 -15 -72 -15q-11 0 -15 4q-13 13 -13 69q0 23 4 63t8 65l70 529q6 40 7 54t1 43q0 59 -17 93.5t-63 34.5q-126 0 -267 -246.5t-170 -503.5l-17 -176h-128l67 507q17 128 27 240q8 81 8 116q0 13 -1 19q-10 40 -27 41q-4 0 -15 -4l-124 -65z" />
<glyph unicode="o" horiz-adv-x="979" d="M54 327q0 264 169 482.5t395 218.5q113 0 186 -63q103 -90 103 -295q0 -276 -157 -488q-167 -226 -404 -226q-122 0 -201 86q-92 100 -91 285zM212 345q0 -136 35 -219q46 -109 151 -109q168 0 272 207q90 182 90 417q0 130 -42 211q-56 103 -169 103q-165 0 -258 -212 q-78 -176 -79 -398z" />
<glyph unicode="p" horiz-adv-x="1112" d="M38 -603l12 75h97l165 1200q4 34 7.5 82t3.5 77q0 46 -9 57q-6 10 -32.5 1t-55.5 -24l-73 -40l-17 50q31 21 52 32q63 40 110.5 64t88 35.5t99.5 23.5l-17 -165l-27 -210l90 134q65 101 160 171t169 70q100 0 160 -80.5t60 -216.5q0 -293 -199 -530t-449 -237 q-63 0 -66 3q-2 4 -11 6l-48 -346q-6 -38 -6 -79q0 -56 14 -63q34 -17 53 -17h175l-4 -71l-243 2q-48 0 -128.5 -2t-130.5 -2zM358 38q40 -10 53.5 -11.5t38.5 -1.5q247 0 386 251q111 198 111 426q0 73 -38 134q-44 69 -109 69q-144 0 -255 -185q-117 -197 -156 -467z" />
<glyph unicode="q" horiz-adv-x="1054" d="M103 278q0 291 196 511q202 229 492 229h3q40 0 65 -2.5t73 -16.5q-4 8 -4 23q0 21 17.5 36.5t34.5 15.5t27 -8l-16 -67q-13 -48 -19.5 -76.5t-12.5 -70.5l-121 -823q-15 -113 -32 -306.5t-16 -212.5q6 -23 29 -23h12q8 4 9 4l115 46l12 -61q-82 -38 -171 -66 q-50 -15 -84 -22.5t-88 -17.5q8 29 12.5 50t6.5 44t3 50t5 57l92 714l-52 -78q-75 -113 -163 -180q-98 -75 -193 -75q-82 0 -144 59q-88 84 -88 267zM253 314q0 -105 26 -167q34 -80 117 -80q142 0 270 214q103 172 126 324l46 335q-46 7 -92 7h-11q-212 0 -354 -212 q-128 -191 -128 -421z" />
<glyph unicode="r" horiz-adv-x="981" d="M180 894l67 32q23 11 51.5 26.5t76.5 35.5q27 11 69 25q57 19 90 26q4 -19 6 -36t2 -38q0 -31 -3 -74t-3 -47l-35 -251l89 152q71 124 156 201q98 88 190 88q33 0 57.5 -21t24.5 -48q0 -36 -33.5 -55.5t-79.5 -25.5q-33 0 -51.5 5t-41.5 22q-38 -33 -64 -56.5t-49 -52.5 q-88 -107 -155 -266q-75 -174 -102 -360l-23 -176h-136l73 507q12 89 26 215q11 98 11 133q0 9 -1 14q-10 38 -36 38q-11 0 -38 -11l-109 -50z" />
<glyph unicode="s" horiz-adv-x="740" d="M124 157q61 0 106 -56q38 -48 34 -67q4 -2 36.5 -7.5t65.5 -5.5q78 0 132.5 47t54.5 120q0 65 -42 126q-33 46 -105 111l-94 78q-69 57 -100 106q-38 61 -38 137q0 101 101.5 193.5t239.5 92.5q103 0 145.5 -23t55.5 -69q1 -6 1 -12q-1 -20 -15 -36q-20 -21 -47 -21 q-40 0 -91 42t-51 55q-75 -10 -111 -22q-113 -46 -113 -156q0 -56 38 -99q15 -15 52 -48l130 -115q98 -90 121 -120q52 -69 51 -159q0 -147 -126 -226q-98 -61 -226 -61q-84 0 -161 34q-97 44 -97 110q0 51 53 51z" />
<glyph unicode="t" horiz-adv-x="692" d="M130 928l6 67h71l34 6q25 11 38 40q2 2 20 60l65 193l72 13l-46 -312h224l-9 -69h-230l-69 -560q-4 -36 -10.5 -90t-6.5 -77q0 -65 17 -99.5t67 -34.5q36 0 75.5 17.5t81.5 49.5l61 42l29 -50l-52 -40q-69 -56 -148 -90t-127 -34q-80 0 -112 59t-32 167q0 44 4 82t25 184 l69 476h-117z" />
<glyph unicode="u" horiz-adv-x="1246" d="M111 861l126 77q34 19 65 34.5t61.5 26t63 21t55.5 14.5l2 -79q0 -36 -4.5 -69.5t-8.5 -68.5l-65 -547q-2 -19 -3 -34.5t-1 -26.5q0 -63 20 -102.5t72 -39.5q109 10 235.5 233.5t152.5 451.5l29 238h128l-61 -506q-8 -71 -8 -172q0 -84 1 -115.5t7 -75t31 -43.5 q11 0 27.5 8t29.5 15l82 52l25 -55l-80 -50q-23 -13 -61.5 -32.5t-63.5 -28.5q-50 -19 -65 -24t-61 -15l-2 251l4 199l-73 -142q-61 -122 -160.5 -208t-189.5 -86q-88 0 -125.5 74.5t-37.5 185.5q0 38 2 61t8 67l61 435q2 25 6 51q0 38 -20 44t-28 6q-25 0 -53 -19l-98 -55z " />
<glyph unicode="v" horiz-adv-x="1025" d="M134 888l75 52q34 23 53 32.5t50 22.5q48 25 96 39q38 -105 59 -171q31 -92 50 -176q40 -180 56.5 -272.5t29.5 -238.5q6 0 75 113q88 142 141 274q77 186 77 327q0 42 -42 54q-17 4 -29.5 12.5t-9.5 21.5q8 17 21 17h182q-8 -52 -13 -103q-31 -144 -117 -329 q-121 -260 -339 -580q-13 -19 -30 -19q-21 0 -25 28q-34 312 -100 596q-73 312 -121 312h-3q-23 -6 -40.5 -14.5t-30.5 -14.5l-46 -23z" />
<glyph unicode="w" horiz-adv-x="1542" d="M138 880l78 60q17 11 50 28q50 27 52 27l103 46q31 -98 54 -185.5t36 -175t25.5 -258.5t12.5 -248q2 0 85 142q100 172 168 319q98 211 121 341q6 23 21 23q21 0 28 -21q36 -90 83 -299q34 -153 67 -340q13 -82 26 -163q8 0 71 94q84 124 134 254q73 189 73 378 q0 29 -34.5 40t-40.5 15q-8 8 -5 21q2 11 15 19q4 2 13 2h176l-7 -29q-19 -78 -37 -157q-56 -203 -136 -375q-117 -249 -283 -444q-21 -25 -40 -25q-15 0 -15 21q0 191 -33 372q-23 122 -61 247q-29 90 -31 90q-19 -44 -36 -88q-54 -113 -132 -245q-105 -176 -259 -374 q-15 -17 -34 -17q-21 0 -21 27q0 283 -45 596q-43 302 -93 302h-4q-31 -8 -40 -12q-23 -13 -36 -19l-48 -29z" />
<glyph unicode="x" horiz-adv-x="1211" d="M75 27q-2 31 25.5 51t67.5 20q27 0 58.5 -12.5t39.5 -22.5q78 56 140 119q46 46 71.5 81.5t66.5 98.5l59 92l-59 137q-57 130 -98 207q-56 107 -77 107h-2q-6 -2 -40 -25q-19 -13 -36 -24l-29 -21l-32 42l36 32q52 45 117 85q62 38 89 38h3q10 -2 49 -81q17 -34 73 -147 l96 -213l48 75q128 209 162 249q101 119 222 119q79 -1 85 -66q0 -33 -31 -53.5t-67 -20.5q-21 -2 -49 7.5t-35 15.5q-19 -13 -29 -21q-34 -27 -48 -44q-92 -115 -97 -121q-46 -59 -83 -130l-48 -88l69 -151q48 -103 90 -176q56 -94 81 -100q8 -2 41 22t66 53l42 38l36 -36 q-29 -34 -56.5 -61t-61.5 -56q-48 -34 -81.5 -54.5t-81.5 -37.5q-38 36 -42 40q-15 17 -33.5 50t-35.5 69t-38 82l-81 184l-84 -123q-84 -124 -180 -202q-107 -88 -203 -88q-46 0 -70.5 14t-24.5 47z" />
<glyph unicode="y" horiz-adv-x="1133" d="M-23 -471q6 31 31 50t55 19q34 0 85 -22t57 -33q61 21 159 103q88 75 147 168q84 132 107 194q1 0 1 4q0 22 -37 193q-50 234 -103 400q-75 235 -142 312q-8 8 -29 -2q-54 -34 -74 -46l-45 -27l-28 44l44 35q65 46 132 82l117 65q63 -136 86 -193q40 -100 69 -201 q65 -230 85 -317t33 -183q2 0 62 121q77 157 122 281q69 189 82 324q0 57 -44 70q-13 4 -27.5 12.5t-10.5 20.5q8 19 23 19h180q-8 -44 -15 -88q-27 -122 -62 -233q-50 -157 -130 -328q-103 -220 -157 -316q-144 -260 -279 -405q-188 -201 -362 -201q-61 0 -94 15 q-39 18 -39 53q0 5 1 10z" />
<glyph unicode="z" horiz-adv-x="1171" d="M88 2q15 25 30.5 50.5t38.5 50.5q61 71 153 155q122 113 161 152l128 130q40 40 79.5 80t73.5 84q50 65 65.5 89t38.5 66h-54q-38 0 -205 69q-78 33 -143 33q-59 0 -88 -29q-10 -10 -18 -29q11 -6 29.5 -37t18.5 -68q0 -34 -18 -58t-49 -24q-34 0 -51.5 34.5t-17.5 82.5 q0 103 76.5 170t195.5 67q50 0 167.5 -36.5t238.5 -72.5q57 6 80 50q13 27 27 53h79q-57 -90 -75 -115q-34 -52 -86 -113q-38 -46 -77 -91q-61 -71 -130 -140l-170 -165q-27 -25 -52 -50q-42 -40 -82 -84l-117 -132l40 -9q71 -15 205 -88q107 -59 220 -117q99 -51 153 -51 q7 0 14 1q27 2 50.5 7t56.5 14l17 -44q-40 -23 -67 -34q-88 -36 -180 -37q-111 0 -232 79q-264 172 -340 172q-48 0 -79 -31l-30 -38z" />
<glyph unicode="{" horiz-adv-x="646" d="M155 626l29 11q27 11 51.5 23t45.5 39q21 21 31 41t15 52l6 25l61 477q6 42 25 84t52 75q40 40 83 54.5t103 14.5h80l-40 -14q-27 -10 -48 -26t-44 -42.5t-33.5 -60t-18.5 -76.5l-55 -432l-4 -35q-6 -44 -21.5 -79t-39 -60t-44 -37.5t-56.5 -25.5l-31 -10l33 -17 q25 -10 34 -16q25 -15 43 -44q29 -48 24 -91l-53 -517q-2 -13 -3 -30.5t-1 -23.5q0 -57 34 -103q27 -40 75 -56l38 -11h-63q-59 0 -110.5 17t-90.5 59q-17 19 -25.5 56.5t-8.5 83.5q0 38 4.5 85t10.5 87l36 347l4 29q4 29 -2.5 46t-25.5 43q-11 15 -34.5 27t-38.5 19z" />
<glyph unicode="|" horiz-adv-x="449" d="M188 -593v2120h157l1 -2120h-158z" />
<glyph unicode="}" horiz-adv-x="637" d="M82 -285l39 11q31 10 48 20.5t38 35.5q34 33 45.5 66t19.5 91l53 517q4 31 20 57q10 15 27 35t38 34.5t49 24.5l37 17l-29 10q-33 11 -50 23.5t-35 36.5t-27 65t-5 77l4 35l33 432q2 10 2 35q0 33 -5 55.5t-18 49.5q-17 23 -34.5 38.5t-42.5 26.5l-38 14h78 q61 0 101.5 -14.5t72.5 -54.5q25 -33 33 -69.5t8 -89.5l-39 -477v-25q0 -57 27 -93q15 -23 36 -37q8 -6 50 -25l25 -11l-29 -12q-21 -10 -44 -20t-36 -26q-46 -42 -50 -89v-29l-38 -347q-10 -80 -19 -160q-21 -111 -66 -151.5t-103.5 -58.5t-113.5 -18h-62z" />
<glyph unicode="~" horiz-adv-x="667" d="M167 1357q27 61 57 94q40 40 94 40q33 0 80 -23q111 -54 157 -54t75 33q10 10 21 34l50 -17q-27 -69 -60 -103q-42 -44 -105 -44q-59 0 -159 50q-50 25 -80 24q-25 0 -44 -17q-23 -27 -35 -40z" />
<glyph unicode="&#xa1;" horiz-adv-x="428" d="M73 -387q0 59 7.5 132t22.5 142l169 743l67 2l-84 -665q-13 -109 -25 -235q-17 -188 -21 -235l-58 5q-48 0 -69 31q-6 8 -7.5 38.5t-1.5 41.5zM270 896q0 42 29.5 69.5t71.5 27.5q40 -4 64.5 -29.5t20.5 -63.5q-6 -44 -25 -65q-25 -29 -67 -29q-15 0 -34.5 3.5 t-39.5 29.5t-20 57z" />
<glyph unicode="&#xa2;" horiz-adv-x="786" d="M109 848q0 157 88 333q107 214 285 302l18 10l40 285h57l-36 -270l32 4q17 2 27 2q61 0 110 -22t49 -62q0 -17 -22 -28t-49 -14q-40 0 -79 24t-51 45l-10 -2l-17 -4l-113 -819h29q44 0 90 23q69 36 80 44q23 13 54 42l17 17l31 -40l-27 -23q-8 -8 -34.5 -30t-47.5 -37 q-46 -29 -60 -37q-48 -27 -107 -34l-36 -4l-44 -297h-58l41 288l-27 1q-105 0 -167.5 85.5t-62.5 217.5zM239 900q0 -77 19 -140q31 -101 102 -119l19 -6l109 783l-17 -7q-101 -42 -163 -194q-69 -168 -69 -317z" />
<glyph unicode="&#xa3;" horiz-adv-x="1293" d="M98 40l51 29q48 25 90 53q13 10 50 39q52 40 101 132q59 107 73 208l37 293h-182l2 62h187l25 137q36 222 151 374q128 168 305 168q96 0 166.5 -35.5t70.5 -94.5q0 -29 -19 -39.5t-42 -10.5q-40 0 -86 59q-13 19 -37 60l-48 6q-122 0 -208 -119q-73 -101 -98 -257 l-38 -248h237l-7 -66h-238l-29 -220q-11 -84 -30 -141.5t-59 -112.5q-57 -73 -75 -94q-38 -44 -84 -80q59 19 108 27.5t106 8.5q82 0 256.5 -53.5t218.5 -53.5q50 0 72.5 17t30.5 56q6 38 -11 55q-23 13 -25 15q2 2 21 11t28 7q44 0 62.5 -21.5t18.5 -57.5q-2 -13 -2 -19 q-11 -92 -98 -136q-67 -34 -157 -34q-96 0 -279.5 65t-261.5 65q-73 0 -140 -17.5t-140 -57.5l-48 -27z" />
<glyph unicode="&#xa5;" horiz-adv-x="1420" d="M189 1416l4 77l247 -4l249 4l-11 -75h-165l285 -641l155 195q75 92 169 238q101 157 101 191q2 15 -38 15h-121v79l222 -4l186 8l-8 -83h-105q-65 -100 -109 -160q-71 -98 -113 -157q-71 -100 -136 -182q-40 -52 -144 -178h205q25 0 35 2q15 4 32 7q11 0 23 2q23 8 35 10 l-77 -130h-306l-12 -86h243q33 4 67 9l58 12l-79 -131h-302l-19 -166q-4 -31 -8 -71t-4 -46q0 -46 18.5 -65t58.5 -19h121l-4 -75q-57 0 -151 2t-154 2l-262 -6l4 75h195l52 369h-174l-77 -3l-71 -10l71 123h264l12 86h-171l-76 -4l-73 -12l73 125h249l-263 572 q-13 27 -26.5 55.5t-40.5 40.5q-8 4 -11 6q-8 4 -15 3h-108z" />
<glyph unicode="&#xa7;" horiz-adv-x="1087" d="M128 -46l60 320h63l-14 -111q-8 -69 65 -129q63 -52 107.5 -57.5t64.5 -5.5h41q151 0 243 63q101 71 115 213q0 86 -92 143q-67 42 -306 127l-75 27q-153 54 -201 135q-25 42 -25 131q0 80 60 160q40 54 111 113l24 21l-19 14q-33 27 -52.5 79.5t-19.5 109.5 q0 170 137 312q145 149 347 150q54 0 96 -5t78 -13l121 -40l21 -8l-4 -13l-27 -149l-23 -128l-2 -22h-63l2 175l-6 7q-17 21 -42 37.5t-61 29.5q-71 27 -144 27q-103 0 -183.5 -54.5t-112.5 -163.5q-6 -23 -6 -42q0 -71 72.5 -127.5t204.5 -96.5l33 -10l30 -9 q54 -17 93.5 -29.5t98.5 -37.5q86 -38 124.5 -99.5t38.5 -134.5q0 -13 -2 -29t-2 -24q-13 -71 -62 -136q-34 -46 -80 -84l-48 -41l10 -5q48 -34 75.5 -78.5t27.5 -105.5v-21q-4 -15 -4 -23q-25 -163 -201 -310.5t-354 -147.5q-92 0 -179 26t-140 60zM320 869q0 -86 168 -163 q42 -19 327 -116l46 -16l21 25q21 29 37.5 59.5t22.5 57.5q8 23 7 57q0 56 -30 98q-38 54 -123 80l-369 123l-37 -35q-71 -69 -70 -170z" />
<glyph unicode="&#xa8;" horiz-adv-x="597" d="M165 1390q0 38 26.5 64.5t64.5 26.5q36 0 62.5 -26t26.5 -62q0 -38 -24 -64t-63 -26q-38 0 -65.5 24t-27.5 63zM446 1393q0 34 27 61t65 27q36 0 61 -25t25 -63q0 -36 -25 -63t-61 -27q-38 0 -65 25t-27 65z" />
<glyph unicode="&#xa9;" horiz-adv-x="1709" d="M121 672q0 331 216 574q241 272 626 272q331 0 517 -205q168 -186 168 -467q0 -331 -216 -574q-241 -272 -628 -272q-331 0 -517 205q-167 184 -166 467zM203 681q0 -253 147 -415q167 -184 463 -184q345 0 559 241q193 218 194 515q0 253 -148 416q-166 183 -463 183 q-345 0 -559 -241q-193 -218 -193 -515zM436 699q0 209 132 342q111 113 268 140q46 8 104 8q40 0 76.5 -4t53.5 -8q57 -11 92.5 -20t60.5 -16l17 -6l-44 -180h-36l6 75l2 13q2 25 -43 51t-85.5 33.5t-63.5 10.5t-46 3q-36 0 -65 -8q-153 -33 -231 -157q-67 -107 -67 -264 q0 -140 89.5 -235.5t222.5 -95.5q69 0 125 10.5t131 46.5l31 16l5 -12l-25 -52l-30 -15q-38 -17 -116.5 -36t-134.5 -19q-197 0 -313 102t-116 277z" />
<glyph unicode="&#xaa;" horiz-adv-x="742" d="M126 1037q0 178 120 322.5t271 144.5q38 0 53.5 -1.5t45.5 -7.5q2 15 4 29.5t15 18.5q15 6 27 -2l-7 -42q-11 -44 -16 -63q-10 -36 -13 -67l-35 -270q-4 -34 -5.5 -49.5t-1.5 -42.5q0 -48 9 -58q6 -6 20.5 0t31.5 19l52 35l15 -27q-23 -19 -38 -29q-48 -34 -79 -49 q-21 -13 -39 -18t-49 -11l-2 98l6 128l-50 -82q-38 -61 -95.5 -103.5t-105.5 -42.5q-61 0 -93 42q-40 52 -41 128zM149 689l44 75h263l38 5l36 8l-46 -78h-245l-46 -2zM212 1070q0 -50 20.5 -90t62.5 -40q109 0 189 174q63 138 63 226l16 117q-38 10 -58 9q-147 0 -229 -149 q-63 -115 -64 -247z" />
<glyph unicode="&#xab;" horiz-adv-x="1232" d="M115 490l23 220l476 327l-21 -214l-338 -226l285 -220l-25 -228zM670 490l23 220l476 327l-21 -214l-338 -226l285 -220l-25 -228z" />
<glyph unicode="&#xac;" horiz-adv-x="1736" d="M126 532l12 117h1520l-67 -649h-127l56 532h-1394z" />
<glyph unicode="&#xad;" horiz-adv-x="765" d="M86 614l73 125h436q23 0 33 2q15 4 32 7q15 0 31 4q6 2 29 8l-77 -130h-409l-75 -4z" />
<glyph unicode="&#xae;" horiz-adv-x="1707" d="M121 672q0 331 216 574q241 272 626 272q331 0 517 -205q168 -186 168 -467q0 -331 -216 -574q-241 -272 -628 -272q-331 0 -517 205q-167 184 -166 467zM203 681q0 -253 147 -415q167 -184 463 -184q345 0 559 241q193 218 194 515q0 253 -148 416q-166 183 -463 183 q-345 0 -559 -241q-193 -218 -193 -515zM488 345l6 34l34 2q13 0 30.5 3t34 19t18.5 43l67 624q2 6 1 11v10q0 17 -13 33q-6 8 -35.5 12.5t-42.5 4.5h-14l4 34h19l151 -6l222 6l21 2q77 0 131 -23q69 -31 88 -96q6 -23 5 -47q0 -59 -34.5 -111t-97.5 -92q-29 -19 -61 -29.5 t-55 -12.5l-10 -4l230 -352l28 -25l31 -10h8l-4 -32h-12l-69 3l-65 -3l-15 -2l-289 428l8 21l40 -1q88 0 163 49q82 56 82 134q0 65 -27 104.5t-77.5 46t-67.5 6.5q-33 0 -60.5 -2.5t-45.5 -8.5l-19 -6l-71 -666q-2 -29 12 -48q8 -10 22 -13.5t43 -3.5l27 -4l-4 -32h-17 q-2 0 -57.5 3.5t-90.5 3.5q-31 0 -70 -3t-81 -4h-21z" />
<glyph unicode="&#xb0;" horiz-adv-x="453" d="M142 1192q8 63 54.5 104.5t113.5 41.5q52 0 88 -38.5t36 -89.5q1 -12 -1 -18q-8 -61 -56 -101t-113 -40q-56 0 -93 43t-29 98zM203 1189q-4 -31 17 -56t54 -25q36 0 63.5 24.5t31.5 58.5q4 33 -15 59.5t-50 26.5q-40 0 -70.5 -25t-30.5 -63z" />
<glyph unicode="&#xb1;" horiz-adv-x="1031" d="M67 -2l10 80h846l-10 -80h-846zM147 624l14 103h367l39 374h99l-38 -374h369l-9 -103h-376l-38 -371h-95l38 371h-370z" />
<glyph unicode="&#xb4;" horiz-adv-x="547" d="M151 1225l150 130q59 52 103 82q56 40 86 44q23 4 38 -17l44 -55q-34 -17 -78 -40q-59 -33 -125 -73q-94 -57 -181 -125z" />
<glyph unicode="&#xb5;" horiz-adv-x="1347" d="M31 -360q0 80 40 159q50 96 55.5 124.5t9.5 43t4 31.5l116 1108h186l-78 -761q-2 -10 -2 -31q0 -86 47.5 -146.5t130.5 -60.5q90 0 185 69q103 75 115 165l81 765h183l-91 -861q-2 -10 -2 -29q0 -61 25.5 -107t73.5 -46q11 0 17 2q78 13 108 96l24 59h39l-19 -69 q-27 -82 -111.5 -137.5t-158.5 -55.5q-13 2 -19 2q-69 8 -120 72t-51 146l-63 -56q-78 -71 -158.5 -113.5t-140.5 -42.5q-57 0 -122 30q-77 36 -117 98l-9 -77q-2 -11 -2 -23v-21q0 -50 13 -111q31 -138 31 -207q0 -54 -37.5 -98.5t-89.5 -44.5q-46 0 -69.5 37.5t-23.5 90.5 z" />
<glyph unicode="&#xb6;" horiz-adv-x="1385" d="M216 1166q0 80 37 153q52 111 187 166q109 44 239 44l33 -2q98 -6 210.5 -10.5t162.5 -4.5q69 0 153.5 2t172.5 6l28 2l-7 -65h-23q-25 0 -65.5 -5t-67 -13.5t-45 -37.5t-25.5 -80l-2 -21l-149 -1407l-2 -29q0 -44 24.5 -58.5t60 -21t64.5 -6.5h40l-6 -59h-36 q-67 2 -180 4.5t-205 2.5q-90 0 -196 -2t-215 -5h-35l8 61l50 4q48 0 76.5 3.5t53.5 28.5q42 38 42 86l90 871h-25q-34 0 -101 19q-92 27 -180 77q-73 40 -120 122.5t-47 174.5zM452 1127q0 -98 63 -172.5t164 -93.5l20 -4l63 584l-37 2q-67 0 -137 -48q-107 -73 -132 -220 q-4 -31 -4 -48zM752 -197h134l172 1638h-135z" />
<glyph unicode="&#xb7;" horiz-adv-x="352" d="M122 737q0 40 27 67t67 27t69 -27t29 -67t-27 -69t-67 -29q-38 0 -68 28t-30 70z" />
<glyph unicode="&#xba;" horiz-adv-x="664" d="M86 693l44 75h262l39 5q15 0 36 6l-46 -78h-245l-46 -2zM101 1083q0 159 101.5 290t237.5 131q67 0 111 -38q63 -55 63 -176q0 -168 -93 -295q-100 -134 -243 -134q-75 0 -121 50q-56 59 -56 172zM197 1095q0 -82 24 -139.5t87 -57.5q103 0 165 124q53 109 53 251 q0 78 -25 126q-33 61 -101 61q-100 0 -155 -126q-48 -107 -48 -239z" />
<glyph unicode="&#xbb;" horiz-adv-x="1196" d="M96 149l23 228l331 220l-291 226l23 214l409 -327l-23 -220zM653 149l23 228l329 220l-291 226l25 214l407 -327l-22 -220z" />
<glyph unicode="&#xbf;" horiz-adv-x="807" d="M88 -165q0 130 77 228q46 59 189 169l121 93l53 44l46 50l-74 123q-21 4 -21 15q0 17 9 25q6 4 27 15l97 60q10 -15 23.5 -39.5t21.5 -45.5q34 -71 55 -138l-209 -166q-144 -115 -189 -172q-80 -100 -80 -228q0 -105 67 -176q77 -82 216 -82q57 0 94.5 14t69.5 54 q24 29 39 18q11 -6 -2 -41l-44 -111q-50 -25 -92 -35t-94 -10q-165 0 -277 86q-122 94 -123 250zM595 905q0 36 29 61t67 25q34 0 58 -26t24 -60q0 -40 -30.5 -70.5t-70.5 -24.5q-34 4 -55.5 30.5t-21.5 64.5z" />
<glyph unicode="&#xc0;" horiz-adv-x="1559" d="M71 0l7 75h121l747 1420l128 34q15 4 25 0q13 -6 13 -19q0 -17 -34.5 -34.5t-30.5 -36.5l232 -1140q15 -84 29.5 -143.5t27.5 -69t27.5 -10.5t29.5 -1l77 2l-12 -77q-40 0 -105 5.5t-109 5.5q-48 0 -124.5 -5.5t-124.5 -5.5l16 75h153l-94 486h-523l-116 -238 q-29 -57 -57 -116.5t-28 -112.5q0 -21 25 -21q21 2 33 2h117l-6 -75q-44 0 -111 5.5t-109 5.5q-59 0 -138 -5.5t-86 -5.5zM586 653h467l-127 635zM939 1893l94 38q40 -33 67 -58.5t56 -58.5q67 -73 113 -142l-44 -40l-48 48q-46 46 -79 75q-38 36 -80 72.5t-79 65.5z" />
<glyph unicode="&#xc1;" horiz-adv-x="1580" d="M71 0l7 75h121l747 1420l128 34q15 4 25 0q13 -6 13 -19q0 -17 -34.5 -34.5t-30.5 -36.5l232 -1140q15 -84 29.5 -143.5t27.5 -69t27.5 -10.5t29.5 -1l77 2l-12 -77q-40 0 -105 5.5t-109 5.5q-48 0 -124.5 -5.5t-124.5 -5.5l16 75h153l-94 486h-523l-116 -238 q-29 -57 -57 -116.5t-28 -112.5q0 -21 25 -21q21 2 33 2h117l-6 -75q-44 0 -111 5.5t-109 5.5q-59 0 -138 -5.5t-86 -5.5zM586 653h467l-127 635zM874 1694l150 130q59 52 103 82q56 40 86 44q23 4 38 -17l44 -55q-34 -17 -78 -40q-59 -33 -125 -73q-94 -57 -181 -125z" />
<glyph unicode="&#xc2;" horiz-adv-x="1508" d="M71 0l7 75h121l747 1420l128 34q15 4 25 0q13 -6 13 -19q0 -17 -34.5 -34.5t-30.5 -36.5l232 -1140q15 -84 29.5 -143.5t27.5 -69t27.5 -10.5t29.5 -1l77 2l-12 -77q-40 0 -105 5.5t-109 5.5q-48 0 -124.5 -5.5t-124.5 -5.5l16 75h153l-94 486h-523l-116 -238 q-29 -57 -57 -116.5t-28 -112.5q0 -21 25 -21q21 2 33 2h117l-6 -75q-44 0 -111 5.5t-109 5.5q-59 0 -138 -5.5t-86 -5.5zM586 653h467l-127 635zM779 1687q54 23 80.5 38t76.5 52q73 54 124 115q46 -77 115 -142q27 -25 46.5 -40.5t53.5 -40.5l-46 -38q-25 6 -46 14.5 t-46 22t-43 27t-49 49.5q-52 -38 -108 -66t-120 -45z" />
<glyph unicode="&#xc3;" horiz-adv-x="1552" d="M71 0l7 75h121l747 1420l128 34q15 4 25 0q13 -6 13 -19q0 -17 -34.5 -34.5t-30.5 -36.5l232 -1140q15 -84 29.5 -143.5t27.5 -69t27.5 -10.5t29.5 -1l77 2l-12 -77q-40 0 -105 5.5t-109 5.5q-48 0 -124.5 -5.5t-124.5 -5.5l16 75h153l-94 486h-523l-116 -238 q-29 -57 -57 -116.5t-28 -112.5q0 -21 25 -21q21 2 33 2h117l-6 -75q-44 0 -111 5.5t-109 5.5q-59 0 -138 -5.5t-86 -5.5zM586 653h467l-127 635zM822 1667q27 61 57 94q40 40 94 40q33 0 80 -23q111 -54 157 -54t75 33q10 10 21 34l50 -17q-27 -69 -60 -103 q-42 -44 -105 -44q-59 0 -159 50q-50 25 -80 24q-25 0 -44 -17q-23 -27 -35 -40z" />
<glyph unicode="&#xc4;" horiz-adv-x="1546" d="M71 0l7 75h121l747 1420l128 34q15 4 25 0q13 -6 13 -19q0 -17 -34.5 -34.5t-30.5 -36.5l232 -1140q15 -84 29.5 -143.5t27.5 -69t27.5 -10.5t29.5 -1l77 2l-12 -77q-40 0 -105 5.5t-109 5.5q-48 0 -124.5 -5.5t-124.5 -5.5l16 75h153l-94 486h-523l-116 -238 q-29 -57 -57 -116.5t-28 -112.5q0 -21 25 -21q21 2 33 2h117l-6 -75q-44 0 -111 5.5t-109 5.5q-59 0 -138 -5.5t-86 -5.5zM586 653h467l-127 635zM862 1721q0 38 26.5 64.5t64.5 26.5q36 0 62.5 -26t26.5 -62q0 -38 -24 -64t-63 -26q-38 0 -65.5 24t-27.5 63zM1143 1724 q0 34 27 61t65 27q36 0 61 -25t25 -63q0 -36 -25 -63t-61 -27q-38 0 -65 25t-27 65z" />
<glyph unicode="&#xc5;" horiz-adv-x="1559" d="M71 0l7 75h121l747 1420l128 34q15 4 25 0q13 -6 13 -19q0 -17 -34.5 -34.5t-30.5 -36.5l232 -1140q15 -84 29.5 -143.5t27.5 -69t27.5 -10.5t29.5 -1l77 2l-12 -77q-40 0 -105 5.5t-109 5.5q-48 0 -124.5 -5.5t-124.5 -5.5l16 75h153l-94 486h-523l-116 -238 q-29 -57 -57 -116.5t-28 -112.5q0 -21 25 -21q21 2 33 2h117l-6 -75q-44 0 -111 5.5t-109 5.5q-59 0 -138 -5.5t-86 -5.5zM586 653h467l-127 635zM950 1776q8 63 54.5 104.5t113.5 41.5q52 0 88 -38.5t36 -89.5q1 -12 -1 -18q-8 -61 -56 -101t-113 -40q-56 0 -93 43t-29 98z M1011 1773q-4 -31 17 -56t54 -25q36 0 63.5 24.5t31.5 58.5q4 33 -15 59.5t-50 26.5q-40 0 -70.5 -25t-30.5 -63z" />
<glyph unicode="&#xc6;" horiz-adv-x="2197" d="M54 -4l32 75h121l1229 1424l338 -2q209 0 328.5 3t138.5 3l-5 -174q0 -33 -31 -33q-27 0 -27 27q0 71 -197 88q-90 8 -203 7h-48h-38h-61.5t-74.5 -5l-76 -544h271q80 0 139.5 7t80.5 21t25 18q8 10 10 25l17 101h67l-59 -432h-69l9 111q0 31 -6.5 43t-51.5 21t-83 9 h-360l-73 -533q-6 -44 -6 -86q0 -44 7 -63t24 -24t44 -5h213q170 0 283 25q149 33 189 108q6 11 18 11q15 0 23 -15q2 -4 -2 -27l-56 -184l-582 4l-574 -10l40 81h153l71 490h-522l-196 -238q-50 -59 -98.5 -118.5t-61.5 -110.5q-8 -23 25 -23h23h116l-30 -75 q-40 0 -122.5 4t-96.5 4q-44 0 -128 -4t-97 -4zM789 647h470l88 643z" />
<glyph unicode="&#xc7;" horiz-adv-x="1378" d="M140 509q0 84 13 172q54 362 313 602.5t606 240.5q113 0 195.5 -14.5t183.5 -54.5l-23 -161q-4 -33 -33 -29t-23 29q13 61 -78.5 107t-219.5 46q-302 0 -511 -218q-195 -205 -238 -523q-4 -27 -5.5 -62t-1.5 -66q0 -251 130 -400t354 -149q117 0 262 69q168 80 203 187 q2 8 10 14q15 11 26 2q8 -6 8 -16q0 -8 -4 -23l-32 -184q-82 -33 -173 -61q-182 -59 -279 -59q-2 0 -19 -6l-56 -94l87 -46q44 -23 61 -40q25 -25 25 -57q0 -63 -56 -104q-48 -34 -117 -34q-57 0 -99 17t-50 58q-2 11 12.5 20.5t29.5 7.5q27 0 54 -25q21 -19 25 -30l40 -6 q36 0 65 18t29 49q0 40 -54 71q-122 69 -122 76q0 11 7.5 24t15.5 24l42 69q-80 8 -159 14q-180 34 -289 136q-155 145 -155 409z" />
<glyph unicode="&#xc8;" horiz-adv-x="1313" d="M78 0l4 75h146l162 1205q4 34 4 45q0 21 -5.5 55t-55.5 34h-124l11 75q46 0 270 -11q111 -6 293 -6q178 0 267 4.5t202 12.5l-8 -161q0 -33 -29 -32q-27 0 -26 27q0 71 -198 88q-92 8 -204 7h-63.5t-59.5 2q-42 0 -97 -6l-79 -545h274q67 0 138.5 11.5t86 23t18.5 15.5 q8 10 9 21l20 101h67l-60 -432h-69l10 111q2 25 -8 48q-6 6 -52.5 15t-83.5 9h-358l-72 -532q-6 -44 -6 -86q0 -44 7.5 -63t23 -24t44.5 -5h212q174 0 285 25q145 33 188 107q6 11 17 12q15 0 23 -15q2 -4 -2 -27l-55 -184q-111 0 -291 2t-293 2zM738 1899l94 38 q40 -33 67 -58.5t56 -58.5q67 -73 113 -142l-44 -40l-48 48q-46 46 -79 75q-38 36 -80 72.5t-79 65.5z" />
<glyph unicode="&#xc9;" horiz-adv-x="1272" d="M78 0l4 75h146l162 1205q4 34 4 45q0 21 -5.5 55t-55.5 34h-124l11 75q46 0 270 -11q111 -6 293 -6q178 0 267 4.5t202 12.5l-8 -161q0 -33 -29 -32q-27 0 -26 27q0 71 -198 88q-92 8 -204 7h-63.5t-59.5 2q-42 0 -97 -6l-79 -545h274q67 0 138.5 11.5t86 23t18.5 15.5 q8 10 9 21l20 101h67l-60 -432h-69l10 111q2 25 -8 48q-6 6 -52.5 15t-83.5 9h-358l-72 -532q-6 -44 -6 -86q0 -44 7.5 -63t23 -24t44.5 -5h212q174 0 285 25q145 33 188 107q6 11 17 12q15 0 23 -15q2 -4 -2 -27l-55 -184q-111 0 -291 2t-293 2zM721 1686l150 130 q59 52 103 82q56 40 86 44q23 4 38 -17l44 -55q-34 -17 -78 -40q-59 -33 -125 -73q-94 -57 -181 -125z" />
<glyph unicode="&#xca;" horiz-adv-x="1313" d="M78 0l4 75h146l162 1205q4 34 4 45q0 21 -5.5 55t-55.5 34h-124l11 75q46 0 270 -11q111 -6 293 -6q178 0 267 4.5t202 12.5l-8 -161q0 -33 -29 -32q-27 0 -26 27q0 71 -198 88q-92 8 -204 7h-63.5t-59.5 2q-42 0 -97 -6l-79 -545h274q67 0 138.5 11.5t86 23t18.5 15.5 q8 10 9 21l20 101h67l-60 -432h-69l10 111q2 25 -8 48q-6 6 -52.5 15t-83.5 9h-358l-72 -532q-6 -44 -6 -86q0 -44 7.5 -63t23 -24t44.5 -5h212q174 0 285 25q145 33 188 107q6 11 17 12q15 0 23 -15q2 -4 -2 -27l-55 -184q-111 0 -291 2t-293 2zM578 1687q54 23 80.5 38 t76.5 52q73 54 124 115q46 -77 115 -142q27 -25 46.5 -40.5t53.5 -40.5l-46 -38q-25 6 -46 14.5t-46 22t-43 27t-49 49.5q-52 -38 -108 -66t-120 -45z" />
<glyph unicode="&#xcb;" horiz-adv-x="1313" d="M78 0l4 75h146l162 1205q4 34 4 45q0 21 -5.5 55t-55.5 34h-124l11 75q46 0 270 -11q111 -6 293 -6q178 0 267 4.5t202 12.5l-8 -161q0 -33 -29 -32q-27 0 -26 27q0 71 -198 88q-92 8 -204 7h-63.5t-59.5 2q-42 0 -97 -6l-79 -545h274q67 0 138.5 11.5t86 23t18.5 15.5 q8 10 9 21l20 101h67l-60 -432h-69l10 111q2 25 -8 48q-6 6 -52.5 15t-83.5 9h-358l-72 -532q-6 -44 -6 -86q0 -44 7.5 -63t23 -24t44.5 -5h212q174 0 285 25q145 33 188 107q6 11 17 12q15 0 23 -15q2 -4 -2 -27l-55 -184q-111 0 -291 2t-293 2zM580 1712q0 38 26.5 64.5 t64.5 26.5q36 0 62.5 -26t26.5 -62q0 -38 -24 -64t-63 -26q-38 0 -65.5 24t-27.5 63zM861 1715q0 34 27 61t65 27q36 0 61 -25t25 -63q0 -36 -25 -63t-61 -27q-38 0 -65 25t-27 65z" />
<glyph unicode="&#xcc;" horiz-adv-x="673" d="M80 0l4 75h128l157 1205q2 17 2 25q0 17 -3.5 39.5t-7.5 47t-46 24.5h-136l13 73q56 0 96 -4q138 -13 157 -13q56 0 94 4q134 13 149 13l-13 -75l-136 2l-149 -1242q-4 -25 -0.5 -47t9.5 -31q10 -10 19 -16q13 -8 29 -7h140l-10 -73q-56 0 -165 4t-124 4q-40 0 -119.5 -4 t-87.5 -4zM336 1899l94 38q40 -33 67 -58.5t56 -58.5q67 -73 113 -142l-44 -40l-48 48q-46 46 -79 75q-38 36 -80 72.5t-79 65.5z" />
<glyph unicode="&#xcd;" horiz-adv-x="673" d="M80 0l4 75h128l157 1205q2 17 2 25q0 17 -3.5 39.5t-7.5 47t-46 24.5h-136l13 73q56 0 96 -4q138 -13 157 -13q56 0 94 4q134 13 149 13l-13 -75l-136 2l-149 -1242q-4 -25 -0.5 -47t9.5 -31q10 -10 19 -16q13 -8 29 -7h140l-10 -73q-56 0 -165 4t-124 4q-40 0 -119.5 -4 t-87.5 -4zM272 1694l150 130q59 52 103 82q56 40 86 44q23 4 38 -17l44 -55q-34 -17 -78 -40q-59 -33 -125 -73q-94 -57 -181 -125z" />
<glyph unicode="&#xce;" horiz-adv-x="673" d="M80 0l4 75h128l157 1205q2 17 2 25q0 17 -3.5 39.5t-7.5 47t-46 24.5h-136l13 73q56 0 96 -4q138 -13 157 -13q56 0 94 4q134 13 149 13l-13 -75l-136 2l-149 -1242q-4 -25 -0.5 -47t9.5 -31q10 -10 19 -16q13 -8 29 -7h140l-10 -73q-56 0 -165 4t-124 4q-40 0 -119.5 -4 t-87.5 -4zM230 1687q54 23 80.5 38t76.5 52q73 54 124 115q46 -77 115 -142q27 -25 46.5 -40.5t53.5 -40.5l-46 -38q-25 6 -46 14.5t-46 22t-43 27t-49 49.5q-52 -38 -108 -66t-120 -45z" />
<glyph unicode="&#xcf;" horiz-adv-x="673" d="M80 0l4 75h128l157 1205q2 17 2 25q0 17 -3.5 39.5t-7.5 47t-46 24.5h-136l13 73q56 0 96 -4q138 -13 157 -13q56 0 94 4q134 13 149 13l-13 -75l-136 2l-149 -1242q-4 -25 -0.5 -47t9.5 -31q10 -10 19 -16q13 -8 29 -7h140l-10 -73q-56 0 -165 4t-124 4q-40 0 -119.5 -4 t-87.5 -4zM245 1712q0 38 26.5 64.5t64.5 26.5q36 0 62.5 -26t26.5 -62q0 -38 -24 -64t-63 -26q-38 0 -65.5 24t-27.5 63zM526 1715q0 34 27 61t65 27q36 0 61 -25t25 -63q0 -36 -25 -63t-61 -27q-38 0 -65 25t-27 65z" />
<glyph unicode="&#xd1;" horiz-adv-x="1594" d="M86 0l10 75h116l167 1070q10 48 13.5 74.5t3.5 53.5q0 54 -27 94q-33 48 -82 47h-107l9 75q29 0 75 -5.5t75 -5.5q25 0 65 5.5t65 5.5l781 -1206l124 925q8 52 8 92q0 11 -2 26.5t-4 32.5t-17 36t-38 19h-142l12 75q48 0 126 -5.5t130 -5.5q34 0 92 5.5t94 5.5l-4 -75 h-140l-187 -1418q-4 -27 -22 -29q-8 0 -15 4q-10 6 -21 25l-773 1227l-119 -794q-10 -56 -13.5 -128.5t-3.5 -124.5q0 -44 2 -52q10 -50 46 -49h157l-4 -75q-65 0 -102 2q-142 8 -162 8q-46 0 -106.5 -5t-79.5 -5zM762 1667q27 61 57 94q40 40 94 40q33 0 80 -23 q111 -54 157 -54t75 33q10 10 21 34l50 -17q-27 -69 -60 -103q-42 -44 -105 -44q-59 0 -159 50q-50 25 -80 24q-25 0 -44 -17q-23 -27 -35 -40z" />
<glyph unicode="&#xd2;" horiz-adv-x="1458" d="M107 574q0 364 232 651q243 301 576 300q262 0 415 -158q161 -169 161 -481q0 -337 -232 -624q-247 -306 -581 -306q-302 0 -452 207q-119 165 -119 411zM276 607q0 -272 110 -425t290 -153q287 0 465 242t178 625q0 234 -92 377q-111 172 -327 172q-299 0 -475 -281 q-149 -239 -149 -557zM846 1899l94 38q40 -33 67 -58.5t56 -58.5q67 -73 113 -142l-44 -40l-48 48q-46 46 -79 75q-38 36 -80 72.5t-79 65.5z" />
<glyph unicode="&#xd3;" horiz-adv-x="1458" d="M107 574q0 364 232 651q243 301 576 300q262 0 415 -158q161 -169 161 -481q0 -337 -232 -624q-247 -306 -581 -306q-302 0 -452 207q-119 165 -119 411zM276 607q0 -272 110 -425t290 -153q287 0 465 242t178 625q0 234 -92 377q-111 172 -327 172q-299 0 -475 -281 q-149 -239 -149 -557zM754 1694l150 130q59 52 103 82q56 40 86 44q23 4 38 -17l44 -55q-34 -17 -78 -40q-59 -33 -125 -73q-94 -57 -181 -125z" />
<glyph unicode="&#xd4;" horiz-adv-x="1458" d="M107 574q0 364 232 651q243 301 576 300q262 0 415 -158q161 -169 161 -481q0 -337 -232 -624q-247 -306 -581 -306q-302 0 -452 207q-119 165 -119 411zM276 607q0 -272 110 -425t290 -153q287 0 465 242t178 625q0 234 -92 377q-111 172 -327 172q-299 0 -475 -281 q-149 -239 -149 -557zM739 1687q54 23 80.5 38t76.5 52q73 54 124 115q46 -77 115 -142q27 -25 46.5 -40.5t53.5 -40.5l-46 -38q-25 6 -46 14.5t-46 22t-43 27t-49 49.5q-52 -38 -108 -66t-120 -45z" />
<glyph unicode="&#xd5;" horiz-adv-x="1515" d="M107 574q0 364 232 651q243 301 576 300q262 0 415 -158q161 -169 161 -481q0 -337 -232 -624q-247 -306 -581 -306q-302 0 -452 207q-119 165 -119 411zM276 607q0 -272 110 -425t290 -153q287 0 465 242t178 625q0 234 -92 377q-111 172 -327 172q-299 0 -475 -281 q-149 -239 -149 -557zM755 1667q27 61 57 94q40 40 94 40q33 0 80 -23q111 -54 157 -54t75 33q10 10 21 34l50 -17q-27 -69 -60 -103q-42 -44 -105 -44q-59 0 -159 50q-50 25 -80 24q-25 0 -44 -17q-23 -27 -35 -40z" />
<glyph unicode="&#xd6;" horiz-adv-x="1521" d="M107 574q0 364 232 651q243 301 576 300q262 0 415 -158q161 -169 161 -481q0 -337 -232 -624q-247 -306 -581 -306q-302 0 -452 207q-119 165 -119 411zM276 607q0 -272 110 -425t290 -153q287 0 465 242t178 625q0 234 -92 377q-111 172 -327 172q-299 0 -475 -281 q-149 -239 -149 -557zM760 1721q0 38 26.5 64.5t64.5 26.5q36 0 62.5 -26t26.5 -62q0 -38 -24 -64t-63 -26q-38 0 -65.5 24t-27.5 63zM1041 1724q0 34 27 61t65 27q36 0 61 -25t25 -63q0 -36 -25 -63t-61 -27q-38 0 -65 25t-27 65z" />
<glyph unicode="&#xd8;" horiz-adv-x="1523" d="M107 574q0 364 232 651q243 301 576 300q119 0 216 -34l50 94h86l-65 -123q136 -71 212.5 -217.5t76.5 -358.5q0 -337 -232 -624q-247 -306 -581 -306q-61 0 -118 9.5t-108 26.5l-62 -118h-88l79 149q-144 78 -214 245q-59 138 -60 306zM276 607q0 -163 41 -285.5 t117 -195.5q115 222 221 433q98 197 197 394q112 222 233 450q-80 42 -185 42q-299 0 -475 -281q-149 -239 -149 -557zM496 78q82 -50 180 -49q287 0 465 242t178 625q0 147 -39 262q-44 130 -132 203q-122 -230 -224.5 -434t-200.5 -401q-78 -159 -227 -448z" />
<glyph unicode="&#xd9;" horiz-adv-x="1655" d="M193 1414l8 75q48 0 122.5 -5.5t122.5 -5.5t122.5 5.5t120.5 5.5l-10 -75h-147l-107 -773q-10 -75 -19.5 -148.5t-9.5 -121.5q0 -151 61 -227q77 -98 259 -98q226 0 383 178q140 161 185 413l69 395q33 178 33 294q0 40 -8 64t-36 24h-146l6 75q57 0 136.5 -4.5 t100.5 -4.5q48 0 115 4.5t88 4.5l-6 -75h-128l-120 -673q-69 -383 -228 -574q-168 -203 -448 -203q-230 0 -352.5 93.5t-122.5 279.5q0 19 3 46t5 42l117 848q6 33 5 57q0 31 -3.5 51t-17 26.5t-32.5 6.5h-121zM846 1899l94 38q40 -33 67 -58.5t56 -58.5q67 -73 113 -142 l-44 -40l-48 48q-46 46 -79 75q-38 36 -80 72.5t-79 65.5z" />
<glyph unicode="&#xda;" horiz-adv-x="1655" d="M193 1414l8 75q48 0 122.5 -5.5t122.5 -5.5t122.5 5.5t120.5 5.5l-10 -75h-147l-107 -773q-10 -75 -19.5 -148.5t-9.5 -121.5q0 -151 61 -227q77 -98 259 -98q226 0 383 178q140 161 185 413l69 395q33 178 33 294q0 40 -8 64t-36 24h-146l6 75q57 0 136.5 -4.5 t100.5 -4.5q48 0 115 4.5t88 4.5l-6 -75h-128l-120 -673q-69 -383 -228 -574q-168 -203 -448 -203q-230 0 -352.5 93.5t-122.5 279.5q0 19 3 46t5 42l117 848q6 33 5 57q0 31 -3.5 51t-17 26.5t-32.5 6.5h-121zM794 1694l150 130q59 52 103 82q56 40 86 44q23 4 38 -17 l44 -55q-34 -17 -78 -40q-59 -33 -125 -73q-94 -57 -181 -125z" />
<glyph unicode="&#xdb;" horiz-adv-x="1655" d="M193 1414l8 75q48 0 122.5 -5.5t122.5 -5.5t122.5 5.5t120.5 5.5l-10 -75h-147l-107 -773q-10 -75 -19.5 -148.5t-9.5 -121.5q0 -151 61 -227q77 -98 259 -98q226 0 383 178q140 161 185 413l69 395q33 178 33 294q0 40 -8 64t-36 24h-146l6 75q57 0 136.5 -4.5 t100.5 -4.5q48 0 115 4.5t88 4.5l-6 -75h-128l-120 -673q-69 -383 -228 -574q-168 -203 -448 -203q-230 0 -352.5 93.5t-122.5 279.5q0 19 3 46t5 42l117 848q6 33 5 57q0 31 -3.5 51t-17 26.5t-32.5 6.5h-121zM752 1687q54 23 80.5 38t76.5 52q73 54 124 115 q46 -77 115 -142q27 -25 46.5 -40.5t53.5 -40.5l-46 -38q-25 6 -46 14.5t-46 22t-43 27t-49 49.5q-52 -38 -108 -66t-120 -45z" />
<glyph unicode="&#xdc;" horiz-adv-x="1602" d="M193 1414l8 75q48 0 122.5 -5.5t122.5 -5.5t122.5 5.5t120.5 5.5l-10 -75h-147l-107 -773q-10 -75 -19.5 -148.5t-9.5 -121.5q0 -151 61 -227q77 -98 259 -98q226 0 383 178q140 161 185 413l69 395q33 178 33 294q0 40 -8 64t-36 24h-146l6 75q57 0 136.5 -4.5 t100.5 -4.5q48 0 115 4.5t88 4.5l-6 -75h-128l-120 -673q-69 -383 -228 -574q-168 -203 -448 -203q-230 0 -352.5 93.5t-122.5 279.5q0 19 3 46t5 42l117 848q6 33 5 57q0 31 -3.5 51t-17 26.5t-32.5 6.5h-121zM795 1715q0 38 26.5 64.5t64.5 26.5q36 0 62.5 -26t26.5 -62 q0 -38 -24 -64t-63 -26q-38 0 -65.5 24t-27.5 63zM1076 1718q0 34 27 61t65 27q36 0 61 -25t25 -63q0 -36 -25 -63t-61 -27q-38 0 -65 25t-27 65z" />
<glyph unicode="&#xdf;" horiz-adv-x="1274" d="M-314 -482q0 25 19 40t44 15q31 0 70 -26t41 -52h25q15 0 25 4q136 38 201 185q42 98 71 308l119 919h-175l10 67h176l36 184q38 199 180 329t329 130q176 0 282 -115q100 -109 99 -275l-5 -58h47v-65l-32 -2q-182 0 -315 -81t-133 -212q0 -67 29 -114q17 -29 76 -88 l150 -154q63 -65 91 -112q36 -61 37 -131q0 -140 -107 -208q-94 -61 -259 -62q-78 0 -151 50t-73 104q0 21 19.5 32.5t42.5 11.5q61 0 97 -60q11 -19 25 -61q33 -13 61 -13q94 0 153 38q73 46 73 134q0 61 -46 122q-10 11 -101 110l-111 114q-67 67 -90 108q-34 59 -35 134 q0 142 119 245q103 92 274 132l30 7q2 6 9 58.5t7 75.5q0 124 -71 199q-77 80 -207 81q-167 0 -270 -144q-88 -122 -113 -316l-137 -1060q-33 -262 -134 -419q-124 -193 -333 -194q-69 0 -121 24t-48 61z" />
<glyph unicode="&#xe0;" d="M92 245q0 297 200 537t451 240q38 0 68.5 -1t95.5 -14q2 23 7 48t23 30.5t22 5.5q8 0 27 -8l-16 -70q-17 -75 -24 -108q-15 -65 -22 -111l-59 -449q-10 -73 -9 -142q0 -88 15 -107q10 -11 48 9q23 11 38 23l84 60l25 -46q-40 -33 -65 -50q-73 -54 -128 -82 q-33 -19 -68.5 -30t-79.5 -18l-2 162l10 215l-82 -136q-63 -101 -161 -172t-176 -71q-128 0 -186 118q-36 75 -36 167zM235 299q0 -80 33.5 -148.5t102.5 -68.5q126 0 232 146q82 115 140 295q42 134 51 225l23 196q-38 8 -56 11.5t-39 3.5q-245 0 -381 -251 q-105 -193 -106 -409zM641 1367l94 38q40 -33 67 -58.5t56 -58.5q67 -73 113 -142l-44 -40l-48 48q-46 46 -79 75q-38 36 -80 72.5t-79 65.5z" />
<glyph unicode="&#xe1;" d="M92 245q0 297 200 537t451 240q38 0 68.5 -1t95.5 -14q2 23 7 48t23 30.5t22 5.5q8 0 27 -8l-16 -70q-17 -75 -24 -108q-15 -65 -22 -111l-59 -449q-10 -73 -9 -142q0 -88 15 -107q10 -11 48 9q23 11 38 23l84 60l25 -46q-40 -33 -65 -50q-73 -54 -128 -82 q-33 -19 -68.5 -30t-79.5 -18l-2 162l10 215l-82 -136q-63 -101 -161 -172t-176 -71q-128 0 -186 118q-36 75 -36 167zM235 299q0 -80 33.5 -148.5t102.5 -68.5q126 0 232 146q82 115 140 295q42 134 51 225l23 196q-38 8 -56 11.5t-39 3.5q-245 0 -381 -251 q-105 -193 -106 -409zM589 1169l150 130q59 52 103 82q56 40 86 44q23 4 38 -17l44 -55q-34 -17 -78 -40q-59 -33 -125 -73q-94 -57 -181 -125z" />
<glyph unicode="&#xe2;" d="M92 245q0 297 200 537t451 240q38 0 68.5 -1t95.5 -14q2 23 7 48t23 30.5t22 5.5q8 0 27 -8l-16 -70q-17 -75 -24 -108q-15 -65 -22 -111l-59 -449q-10 -73 -9 -142q0 -88 15 -107q10 -11 48 9q23 11 38 23l84 60l25 -46q-40 -33 -65 -50q-73 -54 -128 -82 q-33 -19 -68.5 -30t-79.5 -18l-2 162l10 215l-82 -136q-63 -101 -161 -172t-176 -71q-128 0 -186 118q-36 75 -36 167zM235 299q0 -80 33.5 -148.5t102.5 -68.5q126 0 232 146q82 115 140 295q42 134 51 225l23 196q-38 8 -56 11.5t-39 3.5q-245 0 -381 -251 q-105 -193 -106 -409zM515 1168q54 23 80.5 38t76.5 52q73 54 124 115q46 -77 115 -142q27 -25 46.5 -40.5t53.5 -40.5l-46 -38q-25 6 -46 14.5t-46 22t-43 27t-49 49.5q-52 -38 -108 -66t-120 -45z" />
<glyph unicode="&#xe3;" d="M92 245q0 297 200 537t451 240q38 0 68.5 -1t95.5 -14q2 23 7 48t23 30.5t22 5.5q8 0 27 -8l-16 -70q-17 -75 -24 -108q-15 -65 -22 -111l-59 -449q-10 -73 -9 -142q0 -88 15 -107q10 -11 48 9q23 11 38 23l84 60l25 -46q-40 -33 -65 -50q-73 -54 -128 -82 q-33 -19 -68.5 -30t-79.5 -18l-2 162l10 215l-82 -136q-63 -101 -161 -172t-176 -71q-128 0 -186 118q-36 75 -36 167zM235 299q0 -80 33.5 -148.5t102.5 -68.5q126 0 232 146q82 115 140 295q42 134 51 225l23 196q-38 8 -56 11.5t-39 3.5q-245 0 -381 -251 q-105 -193 -106 -409zM559 1146q27 61 57 94q40 40 94 40q33 0 80 -23q111 -54 157 -54t75 33q10 10 21 34l50 -17q-27 -69 -60 -103q-42 -44 -105 -44q-59 0 -159 50q-50 25 -80 24q-25 0 -44 -17q-23 -27 -35 -40z" />
<glyph unicode="&#xe4;" horiz-adv-x="1135" d="M92 245q0 297 200 537t451 240q38 0 68.5 -1t95.5 -14q2 23 7 48t23 30.5t22 5.5q8 0 27 -8l-16 -70q-17 -75 -24 -108q-15 -65 -22 -111l-59 -449q-10 -73 -9 -142q0 -88 15 -107q10 -11 48 9q23 11 38 23l84 60l25 -46q-40 -33 -65 -50q-73 -54 -128 -82 q-33 -19 -68.5 -30t-79.5 -18l-2 162l10 215l-82 -136q-63 -101 -161 -172t-176 -71q-128 0 -186 118q-36 75 -36 167zM235 299q0 -80 33.5 -148.5t102.5 -68.5q126 0 232 146q82 115 140 295q42 134 51 225l23 196q-38 8 -56 11.5t-39 3.5q-245 0 -381 -251 q-105 -193 -106 -409zM498 1199q0 38 26.5 64.5t64.5 26.5q36 0 62.5 -26t26.5 -62q0 -38 -24 -64t-63 -26q-38 0 -65.5 24t-27.5 63zM779 1202q0 34 27 61t65 27q36 0 61 -25t25 -63q0 -36 -25 -63t-61 -27q-38 0 -65 25t-27 65z" />
<glyph unicode="&#xe5;" d="M92 245q0 297 200 537t451 240q38 0 68.5 -1t95.5 -14q2 23 7 48t23 30.5t22 5.5q8 0 27 -8l-16 -70q-17 -75 -24 -108q-15 -65 -22 -111l-59 -449q-10 -73 -9 -142q0 -88 15 -107q10 -11 48 9q23 11 38 23l84 60l25 -46q-40 -33 -65 -50q-73 -54 -128 -82 q-33 -19 -68.5 -30t-79.5 -18l-2 162l10 215l-82 -136q-63 -101 -161 -172t-176 -71q-128 0 -186 118q-36 75 -36 167zM235 299q0 -80 33.5 -148.5t102.5 -68.5q126 0 232 146q82 115 140 295q42 134 51 225l23 196q-38 8 -56 11.5t-39 3.5q-245 0 -381 -251 q-105 -193 -106 -409zM689 1257q8 63 54.5 104.5t113.5 41.5q52 0 88 -38.5t36 -89.5q1 -12 -1 -18q-8 -61 -56 -101t-113 -40q-56 0 -93 43t-29 98zM750 1254q-4 -31 17 -56t54 -25q36 0 63.5 24.5t31.5 58.5q4 33 -15 59.5t-50 26.5q-40 0 -70.5 -25t-30.5 -63z" />
<glyph unicode="&#xe6;" horiz-adv-x="1565" d="M111 245q0 295 206 539t456 244q105 0 142.5 -30.5t37.5 -95.5q0 -29 -4.5 -64.5t-8.5 -71.5l34 44q46 61 113 113q134 103 278 103q73 0 108 -33.5t35 -110.5v-38q29 8 56 29q4 4 13.5 20t22.5 18q4 0 12 -9q0 -2 2 -4l-2 -54q-78 -56 -151 -106.5t-125 -84t-237 -148.5 q-138 -84 -140 -86l-2 -27q0 -140 38 -224q52 -113 161 -112h19q69 6 147.5 40t145.5 93l31 23l32 -38l-30 -27q-101 -86 -178 -130q-96 -54 -192 -63q-50 0 -137 36.5t-108 76.5l-61 111q-4 -23 -6 -50.5t-2 -60.5q0 -36 9 -60t14 -41h-60.5t-34.5 -4q-4 19 -4 30 q-10 77 -10 121q0 46 11.5 111t25.5 134l-96 -155q-65 -105 -162.5 -174t-176.5 -69q-128 0 -186 118q-36 75 -36 167zM255 299q0 -80 33.5 -148.5t101.5 -68.5q128 0 236 146q82 111 140 295q48 151 47 225l16 184q-15 4 -42 15.5t-46 11.5q-245 0 -381 -251 q-105 -195 -105 -409zM965 492l417 264q4 15 6 35.5t2 43.5q0 50 -18 80q-25 44 -80 38q-184 -15 -274 -239q-29 -75 -53 -222z" />
<glyph unicode="&#xe7;" horiz-adv-x="867" d="M78 304q0 268 172.5 489t400.5 221q78 0 130 -34q42 -29 38 -50q-6 -29 -26 -41t-48 -12q-50 0 -100 34q-15 11 -38 35q-13 0 -27 1q-191 -52 -281 -248q-69 -151 -69 -358q0 -172 76 -249q56 -56 140 -56q46 0 128.5 32.5t143.5 84.5l30 27l31 -40l-33 -33 q-90 -80 -143 -111q-78 -44 -178 -44h-19l-54 -94l84 -46q42 -21 65 -43t23 -54q0 -65 -52.5 -101.5t-121.5 -36.5q-56 0 -98.5 17t-48.5 58q-2 11 11.5 20.5t28.5 7.5q27 0 56 -26q10 -8 23 -29l40 -6q38 0 66.5 18t28.5 49q0 40 -53 71q-122 69 -123 76q-2 13 8 27l15 21 l44 71q-46 15 -90 31q-180 90 -180 321z" />
<glyph unicode="&#xe8;" horiz-adv-x="922" d="M132 329q0 21 1 39.5t9 77.5q36 234 197.5 407t353.5 173q75 0 109 -35q27 -27 34 -109q2 -8 2 -19q0 -4 -3 -19q31 8 55 29q6 4 15.5 20t22.5 18q4 0 10 -9q0 -2 2 -4v-54l-272 -187q-56 -36 -241 -152q-138 -84 -140 -86l-2 -27q0 -140 38 -224q52 -113 161 -112h19 q69 6 147.5 40t145.5 93l29 23l34 -38l-32 -27q-113 -98 -176 -136q-98 -57 -192 -57q-151 0 -239 97.5t-88 277.5zM293 492l417 264q2 15 4 43t2 36q0 54 -15 80q-25 44 -81 38q-184 -15 -274 -239q-29 -75 -53 -222zM553 1367l94 38q40 -33 67 -58.5t56 -58.5 q67 -73 113 -142l-44 -40l-48 48q-46 46 -79 75q-38 36 -80 72.5t-79 65.5z" />
<glyph unicode="&#xe9;" horiz-adv-x="922" d="M132 329q0 21 1 39.5t9 77.5q36 234 197.5 407t353.5 173q75 0 109 -35q27 -27 34 -109q2 -8 2 -19q0 -4 -3 -19q31 8 55 29q6 4 15.5 20t22.5 18q4 0 10 -9q0 -2 2 -4v-54l-272 -187q-56 -36 -241 -152q-138 -84 -140 -86l-2 -27q0 -140 38 -224q52 -113 161 -112h19 q69 6 147.5 40t145.5 93l29 23l34 -38l-32 -27q-113 -98 -176 -136q-98 -57 -192 -57q-151 0 -239 97.5t-88 277.5zM293 492l417 264q2 15 4 43t2 36q0 54 -15 80q-25 44 -81 38q-184 -15 -274 -239q-29 -75 -53 -222zM488 1156l150 130q59 52 103 82q56 40 86 44 q23 4 38 -17l44 -55q-34 -17 -78 -40q-59 -33 -125 -73q-94 -57 -181 -125z" />
<glyph unicode="&#xea;" horiz-adv-x="943" d="M220 329q0 21 1 39.5t9 77.5q36 234 197.5 407t353.5 173q75 0 109 -35q27 -27 34 -109q2 -8 2 -19q0 -4 -3 -19q31 8 55 29q6 4 15.5 20t22.5 18q4 0 10 -9q0 -2 2 -4v-54l-272 -187q-56 -36 -241 -152q-138 -84 -140 -86l-2 -27q0 -140 38 -224q52 -113 161 -112h19 q69 6 147.5 40t145.5 93l29 23l34 -38l-32 -27q-113 -98 -176 -136q-98 -57 -192 -57q-151 0 -239 97.5t-88 277.5zM381 492l417 264q2 15 4 43t2 36q0 54 -15 80q-25 44 -81 38q-184 -15 -274 -239q-29 -75 -53 -222zM509 1162q54 23 80.5 38t76.5 52q73 54 124 115 q46 -77 115 -142q27 -25 46.5 -40.5t53.5 -40.5l-46 -38q-25 6 -46 14.5t-46 22t-43 27t-49 49.5q-52 -38 -108 -66t-120 -45z" />
<glyph unicode="&#xeb;" horiz-adv-x="912" d="M132 329q0 21 1 39.5t9 77.5q36 234 197.5 407t353.5 173q75 0 109 -35q27 -27 34 -109q2 -8 2 -19q0 -4 -3 -19q31 8 55 29q6 4 15.5 20t22.5 18q4 0 10 -9q0 -2 2 -4v-54l-272 -187q-56 -36 -241 -152q-138 -84 -140 -86l-2 -27q0 -140 38 -224q52 -113 161 -112h19 q69 6 147.5 40t145.5 93l29 23l34 -38l-32 -27q-113 -98 -176 -136q-98 -57 -192 -57q-151 0 -239 97.5t-88 277.5zM293 492l417 264q2 15 4 43t2 36q0 54 -15 80q-25 44 -81 38q-184 -15 -274 -239q-29 -75 -53 -222zM454 1199q0 38 26.5 64.5t64.5 26.5q36 0 62.5 -26 t26.5 -62q0 -38 -24 -64t-63 -26q-38 0 -65.5 24t-27.5 63zM735 1202q0 34 27 61t65 27q36 0 61 -25t25 -63q0 -36 -25 -63t-61 -27q-38 0 -65 25t-27 65z" />
<glyph unicode="&#xec;" horiz-adv-x="713" d="M128 882q61 36 133 70t113 43.5t68 15t58 5.5v-57q0 -63 -7 -115t-14 -107l-62 -458q-6 -46 -6.5 -61t-0.5 -50q0 -82 17 -91q10 -6 25 -1.5t34 14.5l125 78l34 -49l-105 -69q-69 -46 -143.5 -74t-111.5 -20q-15 2 -22.5 51t-7.5 117q0 54 5 98l83 532q6 40 5 44 q2 19 2 46q0 46 -10.5 56.5t-19.5 10.5q-13 0 -41 -15l-114 -61zM285 1376l94 38q40 -33 67 -58.5t55 -57.5q67 -73 113 -142l-44 -40q-34 34 -47 48q-46 46 -79 74q-38 36 -80 72.5t-79 65.5z" />
<glyph unicode="&#xed;" horiz-adv-x="713" d="M128 882q61 36 133 70t113 43.5t68 15t58 5.5v-57q0 -63 -7 -115t-14 -107l-62 -458q-6 -46 -6.5 -61t-0.5 -50q0 -82 17 -91q10 -6 25 -1.5t34 14.5l125 78l34 -44l-105 -74q-59 -42 -139.5 -72t-115.5 -22q-15 2 -22.5 51t-7.5 117q0 54 5 98l83 532q6 40 5 44 q2 19 2 46q0 46 -10.5 56.5t-19.5 10.5q-13 0 -41 -15l-114 -61zM251 1169l149 131q59 52 103 82q56 40 87 44q23 4 38 -17l44 -56q-34 -17 -79 -40q-59 -33 -124 -73q-94 -57 -182 -124z" />
<glyph unicode="&#xee;" horiz-adv-x="727" d="M128 879q42 25 90 49q94 48 165 65q21 4 50.5 11t66.5 7v-58q0 -63 -7 -114.5t-14 -107.5l-62 -457q-6 -46 -6.5 -61.5t-0.5 -47.5q0 -82 17 -94q10 -6 25 -1t34 16l125 77l34 -44l-105 -75q-59 -42 -139.5 -71.5t-115.5 -22.5q-15 2 -22.5 51t-7.5 118q0 54 5 97l83 532 q6 40 5 44q2 19 2 46q0 46 -10.5 56.5t-19.5 10.5q-13 0 -41 -15l-114 -61zM207 1171q54 23 80.5 38.5t76.5 51.5q73 54 124 115q46 -77 115 -141q27 -25 46 -40.5t53 -40.5l-45 -38q-25 6 -46 14.5t-46 22t-43.5 26.5t-48.5 50q-52 -38 -108.5 -66t-119.5 -45z" />
<glyph unicode="&#xef;" horiz-adv-x="721" d="M117 879q42 25 90 49q94 48 164 65q21 4 51 11t66 7v-58q0 -59 -7.5 -119.5t-13.5 -102.5l-61 -457q-6 -46 -7 -61.5t-1 -47.5q0 -82 17 -94q10 -6 25.5 -1t36.5 16l122 77l35 -44l-104 -75q-59 -42 -140.5 -71.5t-115.5 -22.5q-13 2 -22 50t-9 119q0 27 1 43t7 54 l80 532q6 40 6 44q2 19 2 46q0 46 -10.5 56.5t-20.5 10.5q-13 0 -40 -15l-115 -61zM218 1194q0 38 27 65t65 27q36 0 62 -26t26 -62q0 -38 -24 -64t-62 -26t-66 24t-28 62zM500 1198q0 34 26.5 61t64.5 27q36 0 61.5 -25t25.5 -63q0 -36 -25 -63t-62 -27q-38 0 -64.5 25 t-26.5 65z" />
<glyph unicode="&#xf1;" horiz-adv-x="1244" d="M144 907l70 37q82 44 134 65q71 29 113 28q19 0 19 -28q0 -15 -3 -35l-41 -371l85 143q71 124 162 203q101 88 194 88q82 0 124 -69q36 -59 36 -151q0 -13 -1.5 -29.5t-1.5 -23.5l-79 -561q-4 -27 -6 -54q0 -27 9.5 -40t23.5 -13q15 0 38 13l126 63l25 -46l-141 -84 q-56 -33 -130.5 -55.5t-86.5 -11.5q-13 13 -13 69q0 23 4 63t8 65l70 529q6 40 7 54t1 43q0 59 -17 93.5t-63 34.5q-126 0 -267 -246.5t-170 -503.5l-17 -176h-128l67 507q17 128 27.5 240t6.5 135q-10 40 -27 41q-4 0 -15 -4l-124 -65zM502 1146q27 61 57 94q40 40 94 40 q33 0 80 -23q111 -54 157 -54t75 33q10 10 21 34l50 -17q-27 -69 -60 -103q-42 -44 -105 -44q-59 0 -159 50q-50 25 -80 24q-25 0 -44 -17q-23 -27 -35 -40z" />
<glyph unicode="&#xf2;" horiz-adv-x="993" d="M54 327q0 264 169 482.5t395 218.5q113 0 186 -63q103 -90 103 -295q0 -276 -157 -488q-167 -226 -404 -226q-122 0 -201 86q-92 100 -91 285zM212 345q0 -136 35 -219q46 -109 151 -109q168 0 272 207q90 182 90 417q0 130 -42 211q-56 103 -169 103q-165 0 -258 -212 q-78 -176 -79 -398zM516 1367l94 38q40 -33 67 -58.5t56 -58.5q67 -73 113 -142l-44 -40l-48 48q-46 46 -79 75q-38 36 -80 72.5t-79 65.5z" />
<glyph unicode="&#xf3;" horiz-adv-x="997" d="M48 327q0 264 169 482.5t395 218.5q113 0 186 -63q103 -90 103 -295q0 -276 -157 -488q-167 -226 -404 -226q-122 0 -201 86q-92 100 -91 285zM206 345q0 -136 35 -219q46 -109 151 -109q168 0 272 207q90 182 90 417q0 130 -42 211q-56 103 -169 103q-165 0 -258 -212 q-78 -176 -79 -398zM446 1160l150 130q59 52 103 82q56 40 86 44q23 4 38 -17l44 -55q-34 -17 -78 -40q-59 -33 -125 -73q-94 -57 -181 -125z" />
<glyph unicode="&#xf4;" horiz-adv-x="985" d="M54 327q0 264 169 482.5t395 218.5q113 0 186 -63q103 -90 103 -295q0 -276 -157 -488q-167 -226 -404 -226q-122 0 -201 86q-92 100 -91 285zM212 345q0 -136 35 -219q46 -109 151 -109q168 0 272 207q90 182 90 417q0 130 -42 211q-56 103 -169 103q-165 0 -258 -212 q-78 -176 -79 -398zM392 1172q54 23 80.5 38t76.5 52q73 54 124 115q46 -77 115 -142q27 -25 46.5 -40.5t53.5 -40.5l-46 -38q-25 6 -46 14.5t-46 22t-43 27t-49 49.5q-52 -38 -108 -66t-120 -45z" />
<glyph unicode="&#xf5;" horiz-adv-x="985" d="M46 327q0 264 169 482.5t395 218.5q113 0 186 -63q103 -90 103 -295q0 -276 -157 -488q-167 -226 -404 -226q-122 0 -201 86q-92 100 -91 285zM204 345q0 -136 35 -219q46 -109 151 -109q168 0 272 207q90 182 90 417q0 130 -42 211q-56 103 -169 103q-165 0 -258 -212 q-78 -176 -79 -398zM376 1148q27 61 57 94q40 40 94 40q33 0 80 -23q111 -54 157 -54t75 33q10 10 21 34l50 -17q-27 -69 -60 -103q-42 -44 -105 -44q-59 0 -159 50q-50 25 -80 24q-25 0 -44 -17q-23 -27 -35 -40z" />
<glyph unicode="&#xf6;" horiz-adv-x="993" d="M46 327q0 264 169 482.5t395 218.5q113 0 186 -63q103 -90 103 -295q0 -276 -157 -488q-167 -226 -404 -226q-122 0 -201 86q-92 100 -91 285zM204 345q0 -136 35 -219q46 -109 151 -109q168 0 272 207q90 182 90 417q0 130 -42 211q-56 103 -169 103q-165 0 -258 -212 q-78 -176 -79 -398zM410 1176q0 38 26.5 64.5t64.5 26.5q36 0 62.5 -26t26.5 -62q0 -38 -24 -64t-63 -26q-38 0 -65.5 24t-27.5 63zM691 1179q0 34 27 61t65 27q36 0 61 -25t25 -63q0 -36 -25 -63t-61 -27q-38 0 -65 25t-27 65z" />
<glyph unicode="&#xf7;" horiz-adv-x="1276" d="M101 433l14 132h1160l-12 -132h-1162zM521 184q0 54 36.5 95t99.5 41q56 0 85 -32t29 -77q0 -54 -38 -96t-101 -42q-56 0 -83.5 31.5t-27.5 79.5zM586 792q0 54 36.5 95t99.5 41q56 0 83.5 -31.5t27.5 -79.5q0 -54 -36.5 -95t-99.5 -41q-56 0 -83.5 32t-27.5 79z" />
<glyph unicode="&#xf8;" horiz-adv-x="979" d="M54 327q0 264 169 482.5t395 218.5q25 0 48 -2t46 -10l38 71h86l-57 -105q57 -40 92.5 -115.5t35.5 -196.5q0 -276 -157 -488q-167 -226 -404 -226q-56 0 -114 25l-52 -98h-88l73 138q-52 44 -81.5 121.5t-29.5 184.5zM212 345q0 -46 6 -95t19 -93q103 191 155 283 q188 332 270 483q-40 33 -113 32q-165 0 -258 -212q-78 -176 -79 -398zM279 73q21 -27 50 -41.5t69 -14.5q168 0 272 207q90 182 90 417q0 63 -10.5 117.5t-35.5 102.5q-25 -44 -214 -379q-84 -149 -221 -409z" />
<glyph unicode="&#xf9;" horiz-adv-x="1280" d="M111 861l126 77q34 19 65 34.5t61.5 26t63 21t55.5 14.5l2 -79q0 -36 -4.5 -69.5t-8.5 -68.5l-65 -547q-2 -19 -3 -34.5t-1 -26.5q0 -63 20 -102.5t72 -39.5q109 10 235.5 233.5t152.5 451.5l29 238h128l-61 -506q-8 -71 -8 -172q0 -84 1 -115.5t7 -75t31 -43.5 q11 0 27.5 8t29.5 15l82 52l25 -55l-80 -50q-23 -13 -61.5 -32.5t-63.5 -28.5q-50 -19 -65 -24t-61 -15l-2 251l4 199l-73 -142q-61 -122 -160.5 -208t-189.5 -86q-88 0 -125.5 74.5t-37.5 185.5q0 38 2 61t8 67l61 435q2 25 6 51q0 38 -20 44t-28 6q-25 0 -53 -19l-98 -55z M608 1367l94 38q40 -33 67 -58.5t56 -58.5q67 -73 113 -142l-44 -40l-48 48q-46 46 -79 75q-38 36 -80 72.5t-79 65.5z" />
<glyph unicode="&#xfa;" horiz-adv-x="1265" d="M111 861l126 77q34 19 65 34.5t61.5 26t63 21t55.5 14.5l2 -79q0 -36 -4.5 -69.5t-8.5 -68.5l-65 -547q-2 -19 -3 -34.5t-1 -26.5q0 -63 20 -102.5t72 -39.5q109 10 235.5 233.5t152.5 451.5l29 238h128l-61 -506q-8 -71 -8 -172q0 -84 1 -115.5t7 -75t31 -43.5 q11 0 27.5 8t29.5 15l82 52l25 -55l-80 -50q-23 -13 -61.5 -32.5t-63.5 -28.5q-50 -19 -65 -24t-61 -15l-2 251l4 199l-73 -142q-61 -122 -160.5 -208t-189.5 -86q-88 0 -125.5 74.5t-37.5 185.5q0 38 2 61t8 67l61 435q2 25 6 51q0 38 -20 44t-28 6q-25 0 -53 -19l-98 -55z M568 1173l150 130q59 52 103 82q56 40 86 44q23 4 38 -17l44 -55q-34 -17 -78 -40q-59 -33 -125 -73q-94 -57 -181 -125z" />
<glyph unicode="&#xfb;" horiz-adv-x="1259" d="M111 861l126 77q34 19 65 34.5t61.5 26t63 21t55.5 14.5l2 -79q0 -36 -4.5 -69.5t-8.5 -68.5l-65 -547q-2 -19 -3 -34.5t-1 -26.5q0 -63 20 -102.5t72 -39.5q109 10 235.5 233.5t152.5 451.5l29 238h128l-61 -506q-8 -71 -8 -172q0 -84 1 -115.5t7 -75t31 -43.5 q11 0 27.5 8t29.5 15l82 52l25 -55l-80 -50q-23 -13 -61.5 -32.5t-63.5 -28.5q-50 -19 -65 -24t-61 -15l-2 251l4 199l-73 -142q-61 -122 -160.5 -208t-189.5 -86q-88 0 -125.5 74.5t-37.5 185.5q0 38 2 61t8 67l61 435q2 25 6 51q0 38 -20 44t-28 6q-25 0 -53 -19l-98 -55z M519 1162q54 23 80.5 38t76.5 52q73 54 124 115q46 -77 115 -142q27 -25 46.5 -40.5t53.5 -40.5l-46 -38q-25 6 -46 14.5t-46 22t-43 27t-49 49.5q-52 -38 -108 -66t-120 -45z" />
<glyph unicode="&#xfc;" horiz-adv-x="1272" d="M111 861l126 77q34 19 65 34.5t61.5 26t63 21t55.5 14.5l2 -79q0 -36 -4.5 -69.5t-8.5 -68.5l-65 -547q-2 -19 -3 -34.5t-1 -26.5q0 -63 20 -102.5t72 -39.5q109 10 235.5 233.5t152.5 451.5l29 238h128l-61 -506q-8 -71 -8 -172q0 -84 1 -115.5t7 -75t31 -43.5 q11 0 27.5 8t29.5 15l82 52l25 -55l-80 -50q-23 -13 -61.5 -32.5t-63.5 -28.5q-50 -19 -65 -24t-61 -15l-2 251l4 199l-73 -142q-61 -122 -160.5 -208t-189.5 -86q-88 0 -125.5 74.5t-37.5 185.5q0 38 2 61t8 67l61 435q2 25 6 51q0 38 -20 44t-28 6q-25 0 -53 -19l-98 -55z M527 1199q0 38 26.5 64.5t64.5 26.5q36 0 62.5 -26t26.5 -62q0 -38 -24 -64t-63 -26q-38 0 -65.5 24t-27.5 63zM808 1202q0 34 27 61t65 27q36 0 61 -25t25 -63q0 -36 -25 -63t-61 -27q-38 0 -65 25t-27 65z" />
<glyph unicode="&#xfd;" horiz-adv-x="0" />
<glyph unicode="&#xff;" horiz-adv-x="1154" d="M-23 -471q6 31 31 50t55 19q34 0 85 -22t57 -33q61 21 159 103q88 75 147 168q84 132 107 194q6 2 -36 197q-50 234 -103 400q-75 235 -142 312q-8 8 -29 -2q-54 -34 -74 -46l-45 -27l-28 44l44 35q65 46 132 82l117 65q63 -136 86 -193q40 -100 69 -201q65 -230 85 -317 t33 -183q2 0 62 121q77 157 122 281q69 189 82 324q0 57 -44 70q-13 4 -27.5 12.5t-10.5 20.5q8 19 23 19h180q-8 -44 -15 -88q-27 -122 -62 -233q-50 -157 -130 -328q-103 -220 -157 -316q-144 -260 -279 -405q-188 -201 -362 -201q-61 0 -94 15q-44 21 -38 63zM552 1212 q0 38 26.5 64.5t64.5 26.5q36 0 62.5 -26t26.5 -62q0 -38 -24 -64t-63 -26q-38 0 -65.5 24t-27.5 63zM833 1215q0 34 27 61t65 27q36 0 61 -25t25 -63q0 -36 -25 -63t-61 -27q-38 0 -65 25t-27 65z" />
<glyph unicode="&#x152;" horiz-adv-x="2268" d="M107 574q0 364 232 651q243 301 576 300q69 -8 140 -13q151 -13 368 -26.5t367 -13.5q178 0 267 4.5t202 12.5l-8 -161q0 -33 -29 -32q-27 0 -27 27q0 71 -197 88q-92 8 -205 7h-63t-59 2q-42 0 -98 -6l-78 -545h274q67 0 138.5 11.5t86 23t18.5 15.5q8 10 9 21l19 101 h67l-59 -432h-69l10 111q2 25 -8 48q-6 6 -53 15t-83 9h-358l-73 -532q-6 -44 -5 -86q0 -44 7.5 -63t23 -24t43.5 -5h213q174 0 285 25q145 33 188 107q6 11 17 12q15 0 23 -15q2 -4 -2 -27l-56 -184q-111 0 -290.5 2t-292.5 2q-98 0 -280 -9.5t-421 -25.5q-95 -5 -189 -13 q-302 0 -452 207q-119 165 -119 411zM276 607q0 -272 110 -425t290 -153q287 0 465 242t178 625q0 234 -92 377q-111 172 -327 172q-299 0 -475 -281q-149 -239 -149 -557z" />
<glyph unicode="&#x153;" horiz-adv-x="1626" d="M52 337q0 264 169 482t395 218q90 0 155 -42q92 -59 121 -195q80 109 186.5 172t219.5 63q75 0 109 -34q27 -27 34 -109q2 -8 2 -19q0 -4 -4 -19q31 8 56 28q6 4 15.5 20.5t22.5 18.5q4 0 10 -10q0 -2 2 -4v-53l-272 -188q-56 -36 -241 -151q-138 -84 -140 -86l-2 -27 q0 -140 38 -224q52 -113 161 -113h19q69 6 147.5 40.5t145.5 93.5l29 23l34 -38l-32 -27q-113 -98 -176 -136q-98 -57 -192 -57q-247 0 -310 229q-77 -105 -183 -166t-226 -61q-122 0 -201 86q-92 100 -92 285zM211 354q0 -136 34 -218q46 -109 151 -109q168 0 272 207 q90 182 90 417q0 130 -42 210q-56 103 -169 104q-165 0 -258 -213q-78 -176 -78 -398zM898 501l417 265q2 15 4 42.5t2 35.5q0 54 -16 80q-25 44 -80 39q-184 -15 -274 -240q-29 -75 -53 -222z" />
<glyph unicode="&#x178;" horiz-adv-x="1483" d="M226 1416l4 73q48 0 140.5 -4t108.5 -4q48 0 140.5 4t105.5 4l-11 -75h-165l286 -637l156 195q78 100 169 238q101 157 101 193q0 8 -13 10q-11 2 -25 1h-121v75q48 0 120 -6.5t103 -6.5q34 0 68 4q88 9 115 9l-5 -75h-108q-42 -65 -109 -158q-44 -63 -113 -157 q-165 -228 -327 -423l-50 -408q-4 -29 -7.5 -68t-3.5 -43q0 -44 19 -63t59 -19h121l-4 -75q-69 0 -167.5 6.5t-138.5 6.5q-57 0 -141.5 -6.5t-119.5 -6.5l4 75h194l88 639l-272 597q-11 27 -24.5 55.5t-40.5 40.5q-10 4 -14 6q-10 4 -15 3h-107zM701 1712q0 38 26.5 64.5 t64.5 26.5q36 0 62.5 -26t26.5 -62q0 -38 -24 -64t-63 -26q-38 0 -65.5 24t-27.5 63zM982 1715q0 34 27 61t65 27q36 0 61 -25t25 -63q0 -36 -25 -63t-61 -27q-38 0 -65 25t-27 65z" />
<glyph unicode="&#x2000;" horiz-adv-x="975" />
<glyph unicode="&#x2001;" horiz-adv-x="1950" />
<glyph unicode="&#x2002;" horiz-adv-x="975" />
<glyph unicode="&#x2003;" horiz-adv-x="1950" />
<glyph unicode="&#x2004;" horiz-adv-x="650" />
<glyph unicode="&#x2005;" horiz-adv-x="487" />
<glyph unicode="&#x2006;" horiz-adv-x="325" />
<glyph unicode="&#x2007;" horiz-adv-x="325" />
<glyph unicode="&#x2008;" horiz-adv-x="243" />
<glyph unicode="&#x2009;" horiz-adv-x="390" />
<glyph unicode="&#x200a;" horiz-adv-x="108" />
<glyph unicode="&#x2010;" horiz-adv-x="765" d="M86 614l73 125h436q23 0 33 2q15 4 32 7q15 0 31 4q6 2 29 8l-77 -130h-409l-75 -4z" />
<glyph unicode="&#x2011;" horiz-adv-x="765" d="M86 614l73 125h436q23 0 33 2q15 4 32 7q15 0 31 4q6 2 29 8l-77 -130h-409l-75 -4z" />
<glyph unicode="&#x2012;" horiz-adv-x="765" d="M86 614l73 125h436q23 0 33 2q15 4 32 7q15 0 31 4q6 2 29 8l-77 -130h-409l-75 -4z" />
<glyph unicode="&#x2013;" horiz-adv-x="1100" d="M103 614l73 125h737q33 4 67 9l57 12l-78 -130h-706l-77 -4z" />
<glyph unicode="&#x2014;" horiz-adv-x="1688" d="M103 612l71 125h1334q19 0 37.5 3t29.5 5l58 11l-77 -130h-1305l-77 -4z" />
<glyph unicode="&#x2018;" horiz-adv-x="438" d="M145 1152q0 17 2 25q11 86 71.5 165.5t154.5 127.5l46 25l33 -52l-40 -25q-71 -40 -110 -80q-46 -48 -63 -109q-8 -27 -7 -40q0 -36 44 -43q11 -2 30 3t25 3q65 -17 56 -80q-4 -38 -33 -60t-69 -22q-65 0 -102.5 47.5t-37.5 114.5z" />
<glyph unicode="&#x2019;" horiz-adv-x="438" d="M144 1035l42 23q73 44 109 83q46 46 63 109q6 17 6 36q0 21 -9 32.5t-33 15.5q-29 -4 -58 -6q-25 6 -41 29t-14 50q6 36 35.5 60t67.5 24q63 0 101.5 -50t38.5 -116q0 -17 -2 -25q-13 -88 -71.5 -165.5t-154.5 -127.5l-46 -21z" />
<glyph unicode="&#x201a;" horiz-adv-x="438" d="M44 -293l42 23q73 44 109 82q46 46 63 110q6 17 6 36q0 21 -8.5 32.5t-33.5 15.5q-29 -4 -57 -6q-25 6 -41.5 29t-14.5 49q6 36 35.5 60.5t67.5 24.5q63 0 101.5 -50t38.5 -117q0 -17 -2 -25q-13 -88 -71.5 -165.5t-154.5 -127.5l-46 -21z" />
<glyph unicode="&#x201c;" horiz-adv-x="779" d="M145 1152q0 17 2 25q11 86 71.5 165.5t154.5 127.5l46 25l33 -52l-40 -25q-71 -40 -110 -80q-46 -48 -63 -109q-8 -27 -7 -40q0 -36 44 -43q11 -2 30 3t25 3q65 -17 56 -80q-4 -38 -33 -60t-69 -22q-65 0 -102.5 47.5t-37.5 114.5zM482 1156q2 13 2 19q23 174 199 276 l69 40l37 -54l-66 -38q-61 -36 -91 -71q-40 -44 -52 -90.5t-12 -54.5q0 -31 44 -37q27 0 54 2q56 -15 56 -76q0 -36 -30 -58.5t-70 -22.5q-61 0 -100.5 51t-39.5 114z" />
<glyph unicode="&#x201d;" horiz-adv-x="779" d="M147 1049l65 36q61 34 97 73.5t53 97.5q8 27 7 42q0 17 -9.5 27.5t-36.5 12.5h-53q-25 6 -40.5 27t-15.5 48q0 36 31 59t69 23q63 0 101.5 -48t38.5 -111q0 -19 -2 -27q-23 -172 -197 -275l-67 -39zM484 1043l42 23q73 42 109 80q44 46 64 110q6 17 5 38q0 21 -8.5 32.5 t-33.5 11.5q-29 -2 -57 -4q-25 6 -41.5 29t-14.5 50q6 36 35.5 60t68.5 24q63 0 101 -50t38 -115q0 -17 -2 -25q-13 -90 -72.5 -167.5t-152.5 -125.5l-46 -23z" />
<glyph unicode="&#x201e;" horiz-adv-x="757" d="M44 -293l42 23q73 44 109 82q46 46 63 110q6 17 6 36q0 21 -8.5 32.5t-33.5 15.5q-29 -4 -57 -6q-25 6 -41.5 29t-14.5 49q6 36 35.5 60.5t67.5 24.5q63 0 101.5 -50t38.5 -117q0 -17 -2 -25q-13 -88 -71.5 -165.5t-154.5 -127.5l-46 -21zM373 -293l42 23q73 44 109 82 q46 46 64 110q6 17 5 36q0 21 -8.5 32.5t-33.5 15.5q-29 -4 -57 -6q-25 6 -41.5 29t-14.5 49q6 36 35.5 60.5t68.5 24.5q63 0 101 -50t38 -117q0 -17 -2 -25q-13 -88 -71.5 -165.5t-153.5 -127.5l-46 -21z" />
<glyph unicode="&#x2022;" horiz-adv-x="400" d="M113 733q10 57 53 91.5t102 34.5q48 0 78.5 -40t22.5 -90q-8 -57 -48 -91.5t-99 -34.5q-48 0 -82.5 40t-26.5 90z" />
<glyph unicode="&#x2026;" horiz-adv-x="1102" d="M69 78q0 40 26.5 67t67.5 27q40 0 68.5 -27t28.5 -67t-26.5 -68.5t-66.5 -28.5q-38 0 -68 27.5t-30 69.5zM456 78q0 40 26.5 67t66.5 27t69 -27t29 -67t-27 -68.5t-67 -28.5q-38 0 -67.5 27.5t-29.5 69.5zM835 78q0 40 26.5 67t66.5 27t69 -27t29 -67t-27 -68.5 t-67 -28.5q-38 0 -67.5 27.5t-29.5 69.5z" />
<glyph unicode="&#x202f;" horiz-adv-x="390" />
<glyph unicode="&#x205f;" horiz-adv-x="487" />
<glyph unicode="&#x2122;" horiz-adv-x="1766" d="M159 1326l13 177h19q6 -2 98 -4t190 -2l287 6l19 1l-25 -178h-33l-2 69q0 23 -7.5 35.5t-26.5 12.5l-168 4l-64 -601q-4 -27 7 -40.5t32 -16t26 -2.5l25 -2l-4 -31h-15q-2 0 -51.5 4t-80.5 4q-29 0 -63 -3t-73 -5h-17l4 33l30 2q38 0 56.5 15t20.5 42l63 601l-168 -6 q-19 -2 -23 -5q-11 -11 -17 -33l-20 -77h-32zM745 754l3 33l31 2q40 0 56.5 14t18.5 43l59 559q4 29 -10 48q-6 8 -34.5 11.5t-37.5 3.5h-10l4 33h17l71 -6l105 6h12l218 -598l136 228q46 80 86 148q48 78 73 126q10 17 20 38t18 38l10 20h15l90 -6l86 6h11l-1 -33h-14 q-19 0 -43 -3t-33 -12q-17 -17 -21 -48l-58 -559q-2 -25 8.5 -40.5t27 -17t31.5 -1.5l27 -2l-4 -31h-17q-2 0 -50 4t-80 4q-27 0 -62.5 -3t-73.5 -5h-19l3 33l33 2q38 0 54.5 15t18.5 42l55 523l-358 -626h-23l-227 622l-56 -519q-2 -23 9.5 -38.5t32.5 -18t27 -2.5l25 -2 l-4 -31h-15q-2 0 -52 4t-80 4l-90 -8h-19z" />
<glyph unicode="&#xe000;" horiz-adv-x="1033" d="M0 0v1034h1034v-1034h-1034z" />
</font>
</defs>
</svg>
